Tags
Language
Tags

Live From The Salzburg Festival - Verdi: La Traviata (2005)

Posted By: RSU75
Live From The Salzburg Festival - Verdi: La Traviata (2005)

Live From The Salzburg Festival - Verdi: La Traviata (2005)
BDRip 1080p | MKV | AVC, 1920x1080, ~ 5.1 Mbps | 2hr 13mn | 6.63 MB
Italian: DTS, 6 ch, 1510 kbps \ AC3, 2 ch, 448 kbps
Subtitles: Italiano, English, German, Francais, Espanol, Chinese
Genre: Music, Classical, Opera


Here is the opera event of 2005, the Salzburg Festival’s "La Traviata" featuring Anna Netrebko, Rolando Villazón, and Thomas Hampson in a dramatic staging by Willy Decker – the thrilling production that prompted riotous ovations not seen since Karajan’s heyday.

Cast:
Violetta Valéry - Anna Netrebko
Flora Bervoix - Helene Schneiderman
Annina - Diane Pilcher
Alfredo Germont - Rolando Villazón
Giorgio Germont - Thomas Hampson
Gastone - Salvatore Cordella
Baron Douphol - Paul Gay
Marchese d'Obigny - Herman Wallén
Dottore Grenvil - Luigi Roni
Konzertvereinigung Wiener Staatsopernchor
Mozarteum Orchester
Wiener Philharmoniker
Conductor - Carlo Rizzi

Extras:
- None




General
Unique ID : 211190878527707707346157867859695987654 (0x9EE1E239C1B15221A6184AEA2EA96BC6)
Complete name : F:\Verdi.FestspielhausSalzburg.LaTraviata.2005.1p.mkv
Format : Matroska
Format version : Version 4
File size : 6.63 GiB
Duration : 2 h 13 min
Overall bit rate : 7 115 kb/s
Movie name : Release RSU75 for the Bestmoviesworld.xyz
Encoded date : UTC 2022-05-13 03:34:22
Writing application : mkvmerge v8.3.0 ('Over the Horizon') 64bit
Writing library : libebml v1.3.1 + libmatroska v1.4.2

Video
ID : 1
Format : AVC
Format/Info : Advanced Video Codec
Format profile : High@L4.1
Format settings : CABAC / 4 Ref Frames
Format settings, CABAC : Yes
Format settings, Reference fra : 4 frames
Codec ID : V_MPEG4/ISO/AVC
Duration : 2 h 13 min
Bit rate : 5 100 kb/s
Width : 1 920 pixels
Height : 1 080 pixels
Display aspect ratio : 16:9
Frame rate mode : Constant
Frame rate : 29.970 (29970/1000) FPS
Color space : YUV
Chroma subsampling : 4:2:0
Bit depth : 8 bits
Scan type : Progressive
Bits/(Pixel*Frame) : 0.082
Stream size : 4.77 GiB (72%)
Writing library : x264 core 148 r2643 5c65704
Encoding settings : cabac=1 / ref=4 / deblock=1:0:0 / analyse=0x3:0x113 / me=umh / subme=8 / psy=1 / psy_rd=1.00:0.00 / mixed_ref=1 / me_range=24 / chroma_me=1 / trellis=1 / 8x8dct=1 / cqm=0 / deadzone=21,11 / fast_pskip=1 / chroma_qp_offset=-2 / threads=3 / lookahead_threads=1 / sliced_threads=0 / nr=0 / decimate=1 / interlaced=0 / bluray_compat=0 / constrained_intra=0 / bframes=3 / b_pyramid=0 / b_adapt=2 / b_bias=0 / direct=3 / weightb=1 / open_gop=0 / weightp=2 / keyint=250 / keyint_min=25 / scenecut=40 / intra_refresh=0 / rc_lookahead=40 / rc=abr / mbtree=1 / bitrate=5100 / ratetol=1.0 / qcomp=0.60 / qpmin=10 / qpmax=51 / qpstep=4 / ip_ratio=1.41 / aq=1:1.00
Language : English
Default : Yes
Forced : No

Audio #1
ID : 2
Format : DTS
Format/Info : Digital Theater Systems
Codec ID : A_DTS
Duration : 2 h 13 min
Bit rate mode : Constant
Bit rate : 1 509 kb/s
Channel(s) : 6 channels
Channel layout : C L R Ls Rs LFE
Sampling rate : 48.0 kHz
Frame rate : 93.750 FPS (512 SPF)
Bit depth : 24 bits
Compression mode : Lossy
Stream size : 1.41 GiB (21%)
Title : Surround 5.1
Language : Italian
Default : Yes
Forced : No

Audio #2
ID : 3
Format : AC-3
Format/Info : Audio Coding 3
Commercial name : Dolby Digital
Codec ID : A_AC3
Duration : 2 h 13 min
Bit rate mode : Constant
Bit rate : 448 kb/s
Channel(s) : 2 channels
Channel layout : L R
Sampling rate : 44.1 kHz
Frame rate : 28.711 FPS (1536 SPF)
Compression mode : Lossy
Stream size : 428 MiB (6%)
Title : Stereo
Language : Italian
Service kind : Complete Main
Default : No
Forced : No

Text #1
ID : 4
Format : PGS
Muxing mode : zlib
Codec ID : S_HDMV/PGS
Codec ID/Info : Picture based subtitle format used on BDs/HD-DVDs
Duration : 2 h 3 min
Bit rate : 5 911 b/s
Count of elements : 1768
Stream size : 5.23 MiB (0%)
Language : English
Default : Yes
Forced : No

Text #2
ID : 5
Format : PGS
Muxing mode : zlib
Codec ID : S_HDMV/PGS
Codec ID/Info : Picture based subtitle format used on BDs/HD-DVDs
Duration : 2 h 3 min
Bit rate : 5 324 b/s
Count of elements : 1768
Stream size : 4.71 MiB (0%)
Language : Italian
Default : No
Forced : No

Text #3
ID : 6
Format : PGS
Muxing mode : zlib
Codec ID : S_HDMV/PGS
Codec ID/Info : Picture based subtitle format used on BDs/HD-DVDs
Duration : 2 h 3 min
Bit rate : 6 170 b/s
Count of elements : 1768
Stream size : 5.46 MiB (0%)
Language : German
Default : No
Forced : No

Text #4
ID : 7
Format : PGS
Muxing mode : zlib
Codec ID : S_HDMV/PGS
Codec ID/Info : Picture based subtitle format used on BDs/HD-DVDs
Duration : 2 h 3 min
Bit rate : 5 910 b/s
Count of elements : 1768
Stream size : 5.23 MiB (0%)
Language : French
Default : No
Forced : No

Text #5
ID : 8
Format : PGS
Muxing mode : zlib
Codec ID : S_HDMV/PGS
Codec ID/Info : Picture based subtitle format used on BDs/HD-DVDs
Duration : 2 h 3 min
Bit rate : 5 750 b/s
Count of elements : 1768
Stream size : 5.09 MiB (0%)
Language : Spanish
Default : No
Forced : No

Text #6
ID : 9
Format : PGS
Muxing mode : zlib
Codec ID : S_HDMV/PGS
Codec ID/Info : Picture based subtitle format used on BDs/HD-DVDs
Duration : 2 h 3 min
Bit rate : 12.5 kb/s
Count of elements : 1768
Stream size : 11.1 MiB (0%)
Language : Chinese
Default : No
Forced : No




Screenshots (click to enlarge to original size):

Live From The Salzburg Festival - Verdi: La Traviata (2005)

Live From The Salzburg Festival - Verdi: La Traviata (2005)

Live From The Salzburg Festival - Verdi: La Traviata (2005)






More in My Blog



If you like this release please visit my blog
In it you will find Music and other releases