Tags
Language
Tags

Fabrizio Ventura, Orchestra Regionale dell'Emilia-Romagna - Verdi: Don Carlo (2012) [Blu-Ray]

Posted By: Vilboa
Fabrizio Ventura, Orchestra Regionale dell'Emilia-Romagna - Verdi: Don Carlo (2012) [Blu-Ray]

Fabrizio Ventura, Orchestra Regionale dell'Emilia-Romagna - Verdi: Don Carlo (2012) [Blu-Ray]
BluRay | BDMV | MPEG-4 AVC Video / 1080i / 29,970 fps | 204 min | 41,1 Gb
Audio1: Italiano / LPCM Audio / 2.0 / 24-bit | Audio2: DTS-HD Master Audio / 5.1 / 48 kHz / 24-bit
––––––
BluRay-rip | AVC | MKV 1920x1080 / 6215 kbps / 29,97 fps | 204 min | 14,3 Gb
Audio: Italiano / PCM / 2ch / 48.0 KHz / 24 bits | DTS / 6ch / 48.0 KHz / 24 bits
Classical | C Major | Sub: Italian, English, German, French, Spanish, Chinese, Korean, Japanese

This production from Teatro Comunale Luciano Pavarotti Modena is conducted by Fabrizio Ventura. He has performed at the Royal Opera House Covent Garden as well as the Arena di Verona and the Sydney Opera House. The cast is led Giacomo Prestia who has performed with some of the world’s greatest conductors including Abbado, Mehta, Muti, Gatti and Barenboim. He is supported by Mario Malagnini and Cellia Costea.
Malagnini's Carlo has a top and the ability to use it that Franco Corelli wouldn't have disowned, and his relationship with Cellia Costia's Elisabetta brings tears to the eyes, as does Alla Pozniak's Eboli regretting her 'fatal gift of beauty'..its musical achievement is high. (Gramophone Magazine)

Cast:
Filippo II – Giacomo Prestia
Don Carlo – Mario Malagnini
Rodrigo – Simone Piazzola
Il Grande Inquisitore – Luciano Montanaro
Un frate – Paolo Buttol
Elisabetta di Valois – Callia Costea
La principessa Eboli – Alla Pozniak
Tebaldo – Irène Candelier
Il conte di Lerma – Giulio Pelligra
Un araldo reale – Marco Gaspari
Una voce dal cielo – Irène Candelier
Coro Lirico Amadeus Fondazione Teatro Comunale di Modena
Orchestra Regionale dell'Emilia-Romagna
Conductor – Fabrizio Ventura


General
ID : 0 (0x0)
Complete name : C:\DON CARLO\BDMV\STREAM\00001.m2ts
Format : BDAV
Format/Info : Blu-ray Video
File size : 15.4 GiB
Duration : 1h 26mn
Overall bit rate mode : Variable
Overall bit rate : 25.5 Mbps
Maximum Overall bit rate : 48.0 Mbps

Video
ID : 4113 (0x1011)
Menu ID : 1 (0x1)
Format : AVC
Format/Info : Advanced Video Codec
Format profile : High@L4.1
Format settings, CABAC : Yes
Format settings, ReFrames : 4 frames
Codec ID : 27
Duration : 1h 26mn
Bit rate mode : Variable
Maximum bit rate : 30.5 Mbps
Width : 1 920 pixels
Height : 1 080 pixels
Display aspect ratio : 16:9
Frame rate : 29.970 fps
Color space : YUV
Chroma subsampling : 4:2:0
Bit depth : 8 bits
Scan type : MBAFF
Scan order : Top Field First

Audio #1
ID : 4352 (0x1100)
Menu ID : 1 (0x1)
Format : PCM
Format settings, Endianness : Big
Format settings, Sign : Signed
Muxing mode : Blu-ray
Codec ID : 128
Duration : 1h 26mn
Bit rate mode : Constant
Bit rate : 2 304 Kbps
Channel(s) : 2 channels
Channel positions : Front: L R
Sampling rate : 48.0 KHz
Bit depth : 24 bits
Stream size : 1.39 GiB (9%)

Audio #2
ID : 4353 (0x1101)
Menu ID : 1 (0x1)
Format : DTS
Format/Info : Digital Theater Systems
Format profile : MA / Core
Mode : 16
Format settings, Endianness : Big
Muxing mode : Stream extension
Codec ID : 134
Duration : 1h 26mn
Bit rate mode : Variable
Bit rate : Unknown / 1 509 Kbps
Channel(s) : 6 channels
Channel positions : Front: L C R, Side: L R, LFE
Sampling rate : 48.0 KHz
Bit depth : 24 bits
Compression mode : Lossless / Lossy

Text #1
ID : 4608 (0x1200)
Menu ID : 1 (0x1)
Format : PGS
Codec ID : 144

Text #2
ID : 4609 (0x1201)
Menu ID : 1 (0x1)
Format : PGS
Codec ID : 144

Text #3
ID : 4610 (0x1202)
Menu ID : 1 (0x1)
Format : PGS
Codec ID : 144

Text #4
ID : 4611 (0x1203)
Menu ID : 1 (0x1)
Format : PGS
Codec ID : 144

Text #5
ID : 4612 (0x1204)
Menu ID : 1 (0x1)
Format : PGS
Codec ID : 144

Text #6
ID : 4613 (0x1205)
Menu ID : 1 (0x1)
Format : PGS
Codec ID : 144

Text #7
ID : 4614 (0x1206)
Menu ID : 1 (0x1)
Format : PGS
Codec ID : 144

Text #8
ID : 4615 (0x1207)
Menu ID : 1 (0x1)
Format : PGS
Codec ID : 144


General
Unique ID : 214226870810827141187039879037985035385 (0xA12A9833B01A51B2AFD77DA3A4411479)
Complete name : C:\DON CARLO.mkv
Format : Matroska
Format version : Version 4 / Version 2
File size : 14.3 GiB
Duration : 3h 24mn
Overall bit rate : 10.0 Mbps
Movie name : DON CARLO_1
Encoded date : UTC 2020-08-07 17:42:46
Writing application : mkvmerge v6.0.0 ('Coming Up For Air') built on Jan 20 2013 09:52:00
Writing library : libebml v1.3.0 + libmatroska v1.4.0

Video
ID : 1
Format : AVC
Format/Info : Advanced Video Codec
Format profile : High@L4.1
Format settings, CABAC : Yes
Format settings, ReFrames : 2 frames
Codec ID : V_MPEG4/ISO/AVC
Duration : 3h 24mn
Nominal bit rate : 6 215 Kbps
Width : 1 920 pixels
Height : 1 080 pixels
Display aspect ratio : 16:9
Frame rate mode : Constant
Frame rate : 29.970 fps
Color space : YUV
Chroma subsampling : 4:2:0
Bit depth : 8 bits
Scan type : Progressive
Bits/(Pixel*Frame) : 0.100
Writing library : x264 core 142
Encoding settings : cabac=1 / ref=1 / deblock=1:-1:-1 / analyse=0x3:0 / me=hex / subme=5 / psy=0 / mixed_ref=0 / me_range=16 / chroma_me=1 / trellis=0 / 8x8dct=1 / cqm=0 / deadzone=21,11 / fast_pskip=1 / chroma_qp_offset=0 / threads=8 / lookahead_threads=2 / sliced_threads=0 / nr=0 / decimate=1 / interlaced=0 / bluray_compat=0 / constrained_intra=0 / bframes=2 / b_pyramid=0 / b_adapt=1 / b_bias=0 / direct=1 / weightb=1 / open_gop=0 / weightp=0 / keyint=24 / keyint_min=13 / scenecut=40 / intra_refresh=0 / rc=abr / mbtree=0 / bitrate=6215 / ratetol=1.0 / qcomp=0.60 / qpmin=0 / qpmax=69 / qpstep=4 / ip_ratio=1.40 / pb_ratio=1.30 / aq=1:1.00
Default : Yes
Forced : No
Color primaries : BT.709
Transfer characteristics : BT.709
Matrix coefficients : BT.709
Color range : Limited

Audio #1
ID : 2
Format : PCM
Codec ID : A_PCM/INT/LIT
Duration : 3h 24mn
Bit rate mode : Constant
Channel(s) : 2 channels
Sampling rate : 48.0 KHz
Bit depth : 24 bits
Language : Italian
Default : Yes
Forced : No

Audio #2
ID : 3
Format : DTS
Format/Info : Digital Theater Systems
Mode : 16
Format settings, Endianness : Big
Codec ID : A_DTS
Duration : 3h 24mn
Bit rate mode : Constant
Bit rate : 1 509 Kbps
Channel(s) : 6 channels
Channel positions : Front: L C R, Side: L R, LFE
Sampling rate : 48.0 KHz
Bit depth : 24 bits
Compression mode : Lossy
Stream size : 2.15 GiB (15%)
Language : Italian
Default : No
Forced : No

Text #1
ID : 4
Format : VobSub
Muxing mode : zlib
Codec ID : S_VOBSUB
Codec ID/Info : The same subtitle format used on DVDs
Language : Italian
Default : Yes
Forced : No

Text #2
ID : 5
Format : VobSub
Muxing mode : zlib
Codec ID : S_VOBSUB
Codec ID/Info : The same subtitle format used on DVDs
Language : English
Default : No
Forced : No

Text #3
ID : 6
Format : VobSub
Muxing mode : zlib
Codec ID : S_VOBSUB
Codec ID/Info : The same subtitle format used on DVDs
Language : German
Default : No
Forced : No

Text #4
ID : 7
Format : VobSub
Muxing mode : zlib
Codec ID : S_VOBSUB
Codec ID/Info : The same subtitle format used on DVDs
Language : French
Default : No
Forced : No

Text #5
ID : 8
Format : VobSub
Muxing mode : zlib
Codec ID : S_VOBSUB
Codec ID/Info : The same subtitle format used on DVDs
Language : Spanish
Default : No
Forced : No

Text #6
ID : 9
Format : VobSub
Muxing mode : zlib
Codec ID : S_VOBSUB
Codec ID/Info : The same subtitle format used on DVDs
Language : Chinese
Default : No
Forced : No

Text #7
ID : 10
Format : VobSub
Muxing mode : zlib
Codec ID : S_VOBSUB
Codec ID/Info : The same subtitle format used on DVDs
Language : Korean
Default : No
Forced : No

Menu
00:00:00.000 : en:Chapter 01
00:02:08.127 : en:Chapter 02
00:03:34.547 : en:Chapter 03
00:05:19.152 : en:Chapter 04
00:07:19.939 : en:Chapter 05
00:09:52.158 : en:Chapter 06
00:13:41.654 : en:Chapter 07
00:19:38.076 : en:Chapter 08
00:25:30.529 : en:Chapter 09
00:30:54.853 : en:Chapter 10
00:32:26.611 : en:Chapter 11
00:36:33.925 : en:Chapter 12
00:40:38.936 : en:Chapter 13
00:44:00.304 : en:Chapter 14
00:48:37.915 : en:Chapter 15
00:52:33.316 : en:Chapter 16
00:57:42.125 : en:Chapter 17
01:01:20.476 : en:Chapter 18
01:05:47.944 : en:Chapter 19
01:07:55.071 : en:Chapter 20
01:09:07.643 : en:Chapter 21
01:13:34.410 : en:Chapter 22
01:15:54.883 : en:Chapter 23
01:22:25.607 : en:Chapter 24
01:26:25.980 : en:Chapter 01
01:29:28.795 : en:Chapter 02
01:34:27.761 : en:Chapter 03
01:38:02.809 : en:Chapter 04
01:41:29.015 : en:Chapter 05
01:50:45.471 : en:Chapter 06
01:56:18.904 : en:Chapter 07
02:01:12.197 : en:Chapter 08
02:06:52.704 : en:Chapter 09
02:12:07.919 : en:Chapter 10
02:15:46.904 : en:Chapter 11
02:21:45.262 : en:Chapter 12
02:26:54.237 : en:Chapter 13
02:31:25.675 : en:Chapter 14
02:34:53.716 : en:Chapter 15
02:39:38.668 : en:Chapter 16
02:42:57.700 : en:Chapter 17
02:47:50.492 : en:Chapter 18
02:51:51.066 : en:Chapter 19
02:55:05.594 : en:Chapter 20
03:00:36.925 : en:Chapter 21
03:07:02.643 : en:Chapter 22
03:12:47.321 : en:Chapter 23
03:16:19.867 : en:Chapter 24
03:17:42.282 : en:Chapter 25
03:21:40.520 : en:Chapter 26

All screenshots taken from BDRip

Fabrizio Ventura, Orchestra Regionale dell'Emilia-Romagna - Verdi: Don Carlo (2012) [Blu-Ray]