Tags
Language
Tags

Lorin Maazel, Orchestra of the Teatro alla Scala, Angela Gheorghiu, Ramon Vargas - Verdi: La Traviata (2010) [Blu-Ray]

Posted By: Vilboa
Lorin Maazel, Orchestra of the Teatro alla Scala, Angela Gheorghiu, Ramon Vargas - Verdi: La Traviata (2010) [Blu-Ray]

Lorin Maazel, Orchestra of the Teatro alla Scala, Angela Gheorghiu, Ramón Vargas - Verdi: La Traviata (2010) [Blu-Ray]
BluRay | BDMV | MPEG-4 AVC Video / 12477 kbps / 1080i / 29,970 fps | 133 min | 29,3 Gb
Audio1: Italian / LPCM Audio / 2.0 / 24-bit | Audio2: DTS-HD MA / 7.1 / 48 kHz / 5507 kbps / 24-bit

BluRay-rip | AVC | MKV 1920x1080 / 6215 kbps / 29,970 fps | 133 min | 7,27 Gb
Audio: Italian / DTS / 6ch / 48.0 KHz / 24-bit
Classical | Art Haus | Sub: Italiano, Deutsch, English, Espanol, Francais, Japanese

Praised by Bloomberg for having “mastered the role” and “acting her socks off,” Angela Gheorghiu leads an all-star cast which includes Ramón Vargas and Roberto Frontali, with the brilliant conductor Lorin Maazel on the podium. Angela Gheorghiu is the definitive Violetta of her generation, the standard-setter against whom all other exponents of this role must be judged for the foreseeable future. Her affinity for Verdi‘s fragile, gentle-hearted courtesan is rooted in a fine balance of acting and singing skills. Giuseppe Verdi´s immortal opera in a sumptuous production by Liliana Cavani, with world famous singers – a treat for viewers everywhere!
“Best is Angela Gheorghiu's Violetta. Vocally, she shirks nothing, and her prodigious technique is up to every demand. She throws herself at the drama, exhibiting convincing body language as the feverish pleasure-seeker of Act I and the stricken woman of the last. As Alfredo, Ramón Vargas… presentable… so too is Roberto Frontali as his father, a diligent and thought-through portrayal… Immaculate playing from the Scala orchestra, and some sensitive conducting from Lorin Maazel…” (BBC Music Magazine)

Cast:
Violetta Valery - Angela Gheorghiu
Alfredo Germont - Ramón Vargas
Giorgio Germont - Roberto Frontali
Flora Bervoix - Natascha Petrinsky
Annina - Tiziana Tramonti
Gastone - Enrico Cossutta
Barone Douphol - Alessandro Paliaga
Marchese d'Obigny - Piero Terranova
Dottore Grenvil - Luigi Roni
Orchestra Chorus and Ballet of the Teatro alla Scala
Conductor - Lorin Maazel


Disc Title: LA_TRAVIATA
Disc Size: 31 559 177 223 bytes
Protection: AACS
BD-Java: No
Playlist: 00000.MPLS
Size: 21 783 257 088 bytes
Length: 2:14:09.941
Total Bitrate: 21,65 Mbps
Video: MPEG-4 AVC Video / 12477 kbps / 1080i / 29,970 fps / 16:9 / High Profile 4.1
Audio: Italian / LPCM Audio / 2.0 / 48 kHz / 2304 kbps / 24-bit
Audio: Italian / DTS-HD Master Audio / 7.1 / 48 kHz / 5507 kbps / 24-bit (DTS Core: 5.1 / 48 kHz / 1509 kbps / 24-bit)
Subtitle: Italian / 12,420 kbps
Subtitle: German / 15,531 kbps
Subtitle: English / 13,666 kbps
Subtitle: Spanish / 13,754 kbps
Subtitle: French / 13,938 kbps
Subtitle: Japanese / 10,940 kbps


General
Unique ID : 218273041427006314110440825823322407127 (0xA435DBD0BA2B7804AAFC1D9C2A2B80D7)
Complete name : C:\La_Traviata.mkv
Format : Matroska
Format version : Version 2
File size : 7.28 GiB
Duration : 2h 13mn
Overall bit rate : 7 778 Kbps
Movie name : La_Traviata
Encoded date : UTC 2017-07-06 11:02:24
Writing application : DVDFab 9.1.6.8
Writing library : libebml v0.7.8 + libmatroska v0.8.1

Video
ID : 1
Format : AVC
Format/Info : Advanced Video Codec
Format profile : High@L4.1
Format settings, CABAC : Yes
Format settings, ReFrames : 2 frames
Codec ID : V_MPEG4/ISO/AVC
Duration : 2h 13mn
Bit rate : 6 215 Kbps
Width : 1 920 pixels
Height : 1 080 pixels
Display aspect ratio : 16:9
Frame rate mode : Constant
Frame rate : 29.970 fps
Color space : YUV
Chroma subsampling : 4:2:0
Bit depth : 8 bits
Scan type : Progressive
Bits/(Pixel*Frame) : 0.100
Stream size : 5.72 GiB (79%)
Writing library : x264 core 142
Encoding settings : cabac=1 / ref=1 / deblock=1:-1:-1 / analyse=0x3:0 / me=hex / subme=5 / psy=0 / mixed_ref=0 / me_range=16 / chroma_me=1 / trellis=0 / 8x8dct=1 / cqm=0 / deadzone=21,11 / fast_pskip=1 / chroma_qp_offset=0 / threads=8 / lookahead_threads=2 / sliced_threads=0 / nr=0 / decimate=1 / interlaced=0 / bluray_compat=0 / constrained_intra=0 / bframes=2 / b_pyramid=0 / b_adapt=1 / b_bias=0 / direct=1 / weightb=1 / open_gop=0 / weightp=0 / keyint=24 / keyint_min=13 / scenecut=40 / intra_refresh=0 / rc=abr / mbtree=0 / bitrate=6215 / ratetol=1.0 / qcomp=0.60 / qpmin=0 / qpmax=69 / qpstep=4 / ip_ratio=1.40 / pb_ratio=1.30 / aq=1:1.00
Default : Yes
Forced : No
Color primaries : BT.709
Transfer characteristics : BT.709
Matrix coefficients : BT.709
Color range : Limited

Audio
ID : 2
Format : DTS
Format/Info : Digital Theater Systems
Mode : 16
Format settings, Endianness : Big
Codec ID : A_DTS
Duration : 2h 13mn
Bit rate mode : Constant
Bit rate : 1 509 Kbps
Channel(s) : 6 channels
Channel positions : Front: L C R, Side: L R, LFE
Sampling rate : 48.0 KHz
Bit depth : 24 bits
Compression mode : Lossy
Stream size : 1.41 GiB (19%)
Language : German
Default : Yes
Forced : No

Text #1
ID : 3
Format : VobSub
Codec ID : S_VOBSUB
Codec ID/Info : The same subtitle format used on DVDs
Language : Italian
Default : Yes
Forced : No

Text #2
ID : 4
Format : VobSub
Codec ID : S_VOBSUB
Codec ID/Info : The same subtitle format used on DVDs
Language : German
Default : No
Forced : No

Text #3
ID : 5
Format : VobSub
Codec ID : S_VOBSUB
Codec ID/Info : The same subtitle format used on DVDs
Language : English
Default : No
Forced : No

Text #4
ID : 6
Format : VobSub
Codec ID : S_VOBSUB
Codec ID/Info : The same subtitle format used on DVDs
Language : Spanish
Default : No
Forced : No

Text #5
ID : 7
Format : VobSub
Codec ID : S_VOBSUB
Codec ID/Info : The same subtitle format used on DVDs
Language : French
Default : No
Forced : No

Text #6
ID : 8
Format : VobSub
Codec ID : S_VOBSUB
Codec ID/Info : The same subtitle format used on DVDs
Language : Japanese
Default : No
Forced : No

Menu
00:00:00.000 : en:Chapter 01
00:04:14.254 : en:Chapter 02
00:05:40.339 : en:Chapter 03
00:09:04.544 : en:Chapter 04
00:12:19.739 : en:Chapter 05
00:14:48.888 : en:Chapter 06
00:19:39.978 : en:Chapter 07
00:21:33.959 : en:Chapter 08
00:22:53.572 : en:Chapter 09
00:25:52.217 : en:Chapter 10
00:31:44.903 : en:Chapter 11
00:33:55.767 : en:Chapter 12
00:36:06.197 : en:Chapter 13
00:36:57.248 : en:Chapter 14
00:38:23.334 : en:Chapter 15
00:42:11.562 : en:Chapter 16
00:44:05.676 : en:Chapter 17
00:46:20.811 : en:Chapter 18
00:49:10.981 : en:Chapter 19
00:53:50.260 : en:Chapter 20
00:59:15.585 : en:Chapter 21
01:01:11.701 : en:Chapter 22
01:03:49.859 : en:Chapter 23
01:06:04.994 : en:Chapter 24
01:10:36.265 : en:Chapter 25
01:11:51.373 : en:Chapter 26
01:12:56.805 : en:Chapter 27
01:16:16.605 : en:Chapter 28
01:19:14.783 : en:Chapter 29
01:23:31.706 : en:Chapter 30
01:26:15.203 : en:Chapter 31
01:27:58.306 : en:Chapter 32
01:29:44.612 : en:Chapter 33
01:35:47.975 : en:Chapter 34
01:40:08.969 : en:Chapter 35
01:44:49.283 : en:Chapter 36
01:46:31.618 : en:Chapter 37
01:49:39.806 : en:Chapter 38
01:50:29.456 : en:Chapter 39
01:52:20.967 : en:Chapter 40
01:57:09.255 : en:Chapter 41
01:59:13.012 : en:Chapter 42
02:01:01.487 : en:Chapter 43
02:02:52.565 : en:Chapter 44
02:06:06.792 : en:Chapter 45
02:09:34.633 : en:Chapter 46


All screenshots taken from BDRip

Lorin Maazel, Orchestra of the Teatro alla Scala, Angela Gheorghiu, Ramon Vargas - Verdi: La Traviata (2010) [Blu-Ray]