Tags
Language
Tags

Vernon Handley, Royal Philharmonic Orchestra - Bantock: Hebridean Symphony, Celtic Symphony, The Witch of Atlas (1991)

Posted By:
Vernon Handley, Royal Philharmonic Orchestra - Bantock: Hebridean Symphony, Celtic Symphony, The Witch of Atlas (1991)

Vernon Handley, Royal Philharmonic Orchestra - Granville Bantock: Hebridean Symphony, Celtic Symphony, The Witch of Atlas, The Sea Reivers (1991)
EAC | FLAC | Image (Cue & Log) ~ 250 Mb | Total time: 73:44 | Scans included
Classical | Label: Hyperion | # CDA66450 | Recorded: 1990

The Royal Philharmonic Orchestra performs magnificently from beginning to end, coupling elegance, eloquence, passion, and poser with Hyperion's fastidious sound in a way that compels admiration from the listener for conductor, ensemble and composer alike. Handley's is the definitive version of the Hebridean Symphony, outstripping that available on Naxos in every regard, and with the other works on this disc to further commend it, this release sails effortlessly into port as the newest inductee into Fanfare's Classical Hall of Fame.
–Fanfare

Performer:
Royal Philharmonic Orchestra
Vernon Handley, conductor

Track List:
Sir Granville Bantock (1868-1946)
A Celtic Symphony
01. Lento sostenuto
02. Allegro con fuoco
03. Andante con tenerezza
04. Port-a-Bial: Allegro con spirito
05. Largamente maestoso
The Witch of Atlas
06. Letter A: A lady-witch there lived on Atlas mountain
07. Letter B: 'Tis said, she was first changed into a vapour
08. Letter C: And old Silenus, shaking a green stick
09. Letter D: And every nymph of stream and spreading tree
10. Letter E: For she was beautiful
11. Letter F: The deep recesses of her odorous dwelling
12. Letter G: And then she called out of the hollow turrets
13. Letter H: To those she saw most beautiful
14. The Sea Reivers
A Hebridean Symphony
15. Part 1
16. Part 2
17. Part 3
18. Part 4
19. Part 5
20. Part 6
21. Part 7
22. Part 8
23. Part 9


Exact Audio Copy V1.6 from 23. October 2020

EAC extraction logfile from 3. June 2021, 13:04

Royal Philharmonic Orchestra (Cond. Vernon Handley) / Bantock- A Celtic Symphony, The Witch of Atlas, The Sea Reivers

Used drive : ASUS DRW-24B1ST j Adapter: 1 ID: 0

Read mode : Secure
Utilize accurate stream : Yes
Defeat audio cache : Yes
Make use of C2 pointers : No

Read offset correction : 6
Overread into Lead-In and Lead-Out : No
Fill up missing offset samples with silence : Yes
Delete leading and trailing silent blocks : No
Null samples used in CRC calculations : Yes
Used interface : Native Win32 interface for Win NT & 2000

Used output format : User Defined Encoder
Selected bitrate : 896 kBit/s
Quality : High
Add ID3 tag : No
Command line compressor : C:\Program Files (x86)\Exact Audio Copy\FLAC\FLAC.EXE
Additional command line options : -6 -V -T "ARTIST=%artist%" -T "TITLE=%title%" -T "ALBUM=%albumtitle%" -T "DATE=%year%" -T "TRACKNUMBER=%tracknr%" -T "GENRE=%genre%" -T "COMMENT=%comment%" -T "BAND=%albuminterpret%" -T "ALBUMARTIST=%albuminterpret%" -T "COMPOSER=%composer%" %haslyrics%–tag-from-file=LYRICS="%lyricsfile%"%haslyrics% -T "DISCNUMBER=%cdnumber%" -T "TOTALDISCS=%totalcds%" -T "TOTALTRACKS=%numtracks%" %hascover%–picture="%coverfile%"%hascover% %source% -o %dest%


TOC of the extracted CD

Track | Start | Length | Start sector | End sector
––––––––––––––––––––––––––––-
1 | 0:00.00 | 3:30.65 | 0 | 15814
2 | 3:30.65 | 7:10.35 | 15815 | 48099
3 | 10:41.25 | 4:54.45 | 48100 | 70194
4 | 15:35.70 | 1:28.25 | 70195 | 76819
5 | 17:04.20 | 2:59.67 | 76820 | 90311
6 | 20:04.12 | 2:07.23 | 90312 | 99859
7 | 22:11.35 | 2:17.52 | 99860 | 110186
8 | 24:29.12 | 2:36.15 | 110187 | 121901
9 | 27:05.27 | 1:31.73 | 121902 | 128799
10 | 28:37.25 | 1:01.25 | 128800 | 133399
11 | 29:38.50 | 0:31.47 | 133400 | 135771
12 | 30:10.22 | 1:52.53 | 135772 | 144224
13 | 32:03.00 | 2:53.30 | 144225 | 157229
14 | 34:56.30 | 3:52.50 | 157230 | 174679
15 | 38:49.05 | 7:26.20 | 174680 | 208149
16 | 46:15.25 | 3:00.57 | 208150 | 221706
17 | 49:16.07 | 5:40.70 | 221707 | 247276
18 | 54:57.02 | 3:22.60 | 247277 | 262486
19 | 58:19.62 | 3:27.55 | 262487 | 278066
20 | 61:47.42 | 3:50.50 | 278067 | 295366
21 | 65:38.17 | 2:51.08 | 295367 | 308199
22 | 68:29.25 | 2:08.02 | 308200 | 317801
23 | 70:37.27 | 3:19.48 | 317802 | 332774


Range status and errors

Selected range

Filename G:\Tubarec rips\Royal Philharmonic Orchestra (Cond. Vernon Handley) - Bantock- A Celtic Symphony, The Witch of Atlas, The Sea Reivers.wav

Peak level 100.0 %
Extraction speed 8.4 X
Range quality 100.0 %
Test CRC 477F842C
Copy CRC 477F842C
Copy OK

No errors occurred


AccurateRip summary

Track 1 accurately ripped (confidence 5) [7EFE777D] (AR v2)
Track 2 accurately ripped (confidence 5) [873EC92B] (AR v2)
Track 3 accurately ripped (confidence 5) [91F106D1] (AR v2)
Track 4 accurately ripped (confidence 5) [6A90142D] (AR v2)
Track 5 accurately ripped (confidence 5) [980B8F5A] (AR v2)
Track 6 accurately ripped (confidence 6) [2C864A5C] (AR v2)
Track 7 accurately ripped (confidence 6) [5E33036B] (AR v2)
Track 8 accurately ripped (confidence 6) [D2E3AF8D] (AR v2)
Track 9 accurately ripped (confidence 6) [8D551119] (AR v2)
Track 10 accurately ripped (confidence 6) [5731046C] (AR v2)
Track 11 accurately ripped (confidence 6) [A5B48BED] (AR v2)
Track 12 accurately ripped (confidence 6) [62FE0B46] (AR v2)
Track 13 accurately ripped (confidence 5) [84F6D595] (AR v2)
Track 14 accurately ripped (confidence 4) [18BB238A] (AR v2)
Track 15 accurately ripped (confidence 5) [44323CBB] (AR v2)
Track 16 accurately ripped (confidence 5) [1E82A66B] (AR v2)
Track 17 accurately ripped (confidence 5) [222B8B7B] (AR v2)
Track 18 accurately ripped (confidence 5) [17097885] (AR v2)
Track 19 accurately ripped (confidence 5) [646771B3] (AR v2)
Track 20 accurately ripped (confidence 5) [428D23CC] (AR v2)
Track 21 accurately ripped (confidence 5) [7612D446] (AR v2)
Track 22 accurately ripped (confidence 5) [93804C67] (AR v2)
Track 23 accurately ripped (confidence 5) [DA1F5936] (AR v2)

All tracks accurately ripped

End of status report

–– CUETools DB Plugin V2.1.6

[CTDB TOCID: RlJrP3pAu8bJ2ZhxZZg4Je4H340-] found
Submit result: RlJrP3pAu8bJ2ZhxZZg4Je4H340- has been confirmed
Track | CTDB Status
1 | (63/64) Accurately ripped
2 | (62/64) Accurately ripped
3 | (62/64) Accurately ripped
4 | (62/64) Accurately ripped
5 | (62/64) Accurately ripped
6 | (62/64) Accurately ripped
7 | (62/64) Accurately ripped
8 | (62/64) Accurately ripped
9 | (62/64) Accurately ripped
10 | (62/64) Accurately ripped
11 | (62/64) Accurately ripped
12 | (62/64) Accurately ripped
13 | (62/64) Accurately ripped
14 | (62/64) Accurately ripped
15 | (62/64) Accurately ripped
16 | (61/64) Accurately ripped
17 | (62/64) Accurately ripped
18 | (62/64) Accurately ripped
19 | (62/64) Accurately ripped
20 | (61/64) Accurately ripped
21 | (62/64) Accurately ripped
22 | (60/64) Accurately ripped
23 | (56/64) Accurately ripped


==== Log checksum 2C2634AEE2C658836FF0D62F81A33A7DA4E4D6D147C8854879321A132B6AA943 ====

Vernon Handley, Royal Philharmonic Orchestra - Bantock: Hebridean Symphony, Celtic Symphony, The Witch of Atlas (1991)

Thanks to the original releaser