Subcategories

Veruca Salt - Discography (1994-2015)

Posted By: ciklon5
Veruca Salt - Discography (1994-2015)

Veruca Salt - Discography (1994-2015)
FLAC (tracks+cue+log) | 6:49:14 | 2,65 Gb
Genre: Alternative Rock / Label: EMI Music, Minty Fresh

Veruca Salt is an alternative rock group of the 1990s and 2000s. Veruca Salt was formed alongside the friendship of Louise Post and Nina Gordon. Introduced by Gordon's good friend, actress Lili Taylor, Gordon and Post quickly bonded and formed what is now known as Veruca Salt. Originally, the band was an Indigo Girls-inspired acoustic act, but the women quickly realized this wasn't their sound. They quickly enlisted bass player Steve Lack and eventually Gordon's brother Jim Shapiro joined as a drummer, even though he originally was just drumming as a favor to his sister. Veruca Salt released a self-funded demo tape and shopped it to labels, and began to play a handful of small club shows. The buzz around the band grew furiously, and after only a few live gigs, the band was signed to Minty Fresh Records and began recording with producer Brad Wood. At the time Brad was popular due to having recently produced Liz Phair's critically acclaimed Exile in Guyville.

Track List:

1994 - American Thighs

Veruca Salt - Discography (1994-2015)


01. Get Back (3:13)
02. All Hail Me (3:05)
03. Seether (3:16)
04. Spiderman '79 (5:16)
05. Forsythia (4:45)
06. Wolf (4:19)
07. Celebrate You (4:20)
08. Fly (3:38)
09. Number One Blind (3:44)
10. Victrola (2:19)
11. Twinstar (3:16)
12. 25 (7:57)
13. Sleeping Where I Want (3:20)

Exact Audio Copy V0.99 prebeta 4 from 23. January 2008

EAC extraction logfile from 8. August 2008, 2:28

Veruca Salt / American Thighs

Used drive : SAMSUNG CDRW/DVD SN-324S Adapter: 1 ID: 0

Read mode : Secure
Utilize accurate stream : Yes
Defeat audio cache : Yes
Make use of C2 pointers : No

Read offset correction : 6
Overread into Lead-In and Lead-Out : No
Fill up missing offset samples with silence : Yes
Delete leading and trailing silent blocks : No
Null samples used in CRC calculations : Yes
Used interface : Native Win32 interface for Win NT & 2000
Gap handling : Appended to previous track

Used output format : User Defined Encoder
Selected bitrate : 128 kBit/s
Quality : High
Add ID3 tag : No
Command line compressor : C:\Program Files\Exact Audio Copy\Flac\flac.exe
Additional command line options : -V -8 -T "artist=%a" -T "title=%t" -T "album=%g" -T "date=%y" -T "tracknumber=%n" -T "genre=%m" %s

TOC of the extracted CD

Track | Start | Length | Start sector | End sector
––––––––––––––––––––––––––––-
1 | 0:00.00 | 3:13.03 | 0 | 14477
2 | 3:13.03 | 3:05.07 | 14478 | 28359
3 | 6:18.10 | 3:16.35 | 28360 | 43094
4 | 9:34.45 | 5:16.35 | 43095 | 66829
5 | 14:51.05 | 4:44.65 | 66830 | 88194
6 | 19:35.70 | 4:19.08 | 88195 | 107627
7 | 23:55.03 | 4:20.22 | 107628 | 127149
8 | 28:15.25 | 3:38.30 | 127150 | 143529
9 | 31:53.55 | 3:44.03 | 143530 | 160332
10 | 35:37.58 | 2:18.55 | 160333 | 170737
11 | 37:56.38 | 3:16.35 | 170738 | 185472
12 | 41:12.73 | 7:56.20 | 185473 | 221192
13 | 49:09.18 | 3:19.55 | 221193 | 236172

Track 1

Filename C:\Music\New Rips\Veruca Salt - American Thighs [1994]\01 - Veruca Salt - Get Back.wav

Pre-gap length 0:00:02.00

Peak level 100.0 %
Track quality 100.0 %
Test CRC B7DD308B
Copy CRC B7DD308B
Accurately ripped (confidence 34) [FD9C9498]
Copy OK

Track 2

Filename C:\Music\New Rips\Veruca Salt - American Thighs [1994]\02 - Veruca Salt - All Hail Me.wav

Peak level 100.0 %
Track quality 100.0 %
Test CRC F916032A
Copy CRC F916032A
Accurately ripped (confidence 36) [BB142863]
Copy OK

Track 3

Filename C:\Music\New Rips\Veruca Salt - American Thighs [1994]\03 - Veruca Salt - Seether.wav

Peak level 100.0 %
Track quality 100.0 %
Test CRC AA24A76D
Copy CRC AA24A76D
Accurately ripped (confidence 37) [CB86B7E6]
Copy OK

Track 4

Filename C:\Music\New Rips\Veruca Salt - American Thighs [1994]\04 - Veruca Salt - Spiderman '79.wav

Peak level 100.0 %
Track quality 99.9 %
Test CRC 753DA581
Copy CRC 753DA581
Accurately ripped (confidence 36) [99019776]
Copy OK

Track 5

Filename C:\Music\New Rips\Veruca Salt - American Thighs [1994]\05 - Veruca Salt - Forsythia.wav

Peak level 100.0 %
Track quality 100.0 %
Test CRC 9B4070E2
Copy CRC 9B4070E2
Accurately ripped (confidence 36) [D9E4F087]
Copy OK

Track 6

Filename C:\Music\New Rips\Veruca Salt - American Thighs [1994]\06 - Veruca Salt - Wolf.wav

Peak level 100.0 %
Track quality 100.0 %
Test CRC DE4A3AE2
Copy CRC DE4A3AE2
Accurately ripped (confidence 36) [DA367D22]
Copy OK

Track 7

Filename C:\Music\New Rips\Veruca Salt - American Thighs [1994]\07 - Veruca Salt - Celebrate You.wav

Peak level 100.0 %
Track quality 100.0 %
Test CRC AFD53D8F
Copy CRC AFD53D8F
Accurately ripped (confidence 36) [EE359E01]
Copy OK

Track 8

Filename C:\Music\New Rips\Veruca Salt - American Thighs [1994]\08 - Veruca Salt - Fly.wav

Peak level 67.4 %
Track quality 100.0 %
Test CRC 25646815
Copy CRC 25646815
Accurately ripped (confidence 36) [1E0F1925]
Copy OK

Track 9

Filename C:\Music\New Rips\Veruca Salt - American Thighs [1994]\09 - Veruca Salt - Number One Blind.wav

Peak level 100.0 %
Track quality 100.0 %
Test CRC 8D2FB8B1
Copy CRC 8D2FB8B1
Accurately ripped (confidence 36) [1F168483]
Copy OK

Track 10

Filename C:\Music\New Rips\Veruca Salt - American Thighs [1994]\10 - Veruca Salt - Victrola.wav

Peak level 100.0 %
Track quality 100.0 %
Test CRC CD30E466
Copy CRC CD30E466
Accurately ripped (confidence 36) [F8710392]
Copy OK

Track 11

Filename C:\Music\New Rips\Veruca Salt - American Thighs [1994]\11 - Veruca Salt - Twinstar.wav

Peak level 100.0 %
Track quality 100.0 %
Test CRC 1837190D
Copy CRC 1837190D
Accurately ripped (confidence 36) [17610820]
Copy OK

Track 12

Filename C:\Music\New Rips\Veruca Salt - American Thighs [1994]\12 - Veruca Salt - 25.wav

Peak level 100.0 %
Track quality 100.0 %
Test CRC 700D03B0
Copy CRC 700D03B0
Accurately ripped (confidence 36) [333A2DE2]
Copy OK

Track 13

Filename C:\Music\New Rips\Veruca Salt - American Thighs [1994]\13 - Veruca Salt - Sleeping Where I Want.wav

Pre-gap length 0:00:03.06

Peak level 44.5 %
Track quality 100.0 %
Test CRC C4D1E137
Copy CRC C4D1E137
Accurately ripped (confidence 34) [C22C4997]
Copy OK

All tracks accurately ripped

No errors occurred

End of status report


1997 - Eight Arms To Hold You

Veruca Salt - Discography (1994-2015)


01. Straight (02:33)
02. Volcano Girls (03:19)
03. Don't Make Me Prove It (02:29)
04. Awesome (03:33)
05. One Last Time (04:45)
06. With David Bowie (02:25)
07. Benjamin (04:05)
08. Shutterbug (04:16)
09. The Morning Sad (03:08)
10. Sound Of The Bell (03:58)
11. Loneliness Is Worse (05:01)
12. Stoneface (02:44)
13. Venus Man Trap (03:29)
14. Earthcrosser (05:28)

Exact Audio Copy V0.99 prebeta 4 from 23. January 2008

EAC extraction logfile from 16. July 2008, 13:18

Veruca Salt / Eight Arms To Hold You

Used drive : TSSTcorpCDDVDW TS-H653N Adapter: 2 ID: 1

Read mode : Secure
Utilize accurate stream : Yes
Defeat audio cache : Yes
Make use of C2 pointers : No

Read offset correction : 6
Overread into Lead-In and Lead-Out : No
Fill up missing offset samples with silence : Yes
Delete leading and trailing silent blocks : No
Null samples used in CRC calculations : Yes
Used interface : Native Win32 interface for Win NT & 2000
Gap handling : Appended to previous track

Used output format : User Defined Encoder
Selected bitrate : 768 kBit/s
Quality : High
Add ID3 tag : No
Command line compressor : C:\Program Files\FLAC\flac.exe
Additional command line options : -V -8 -T "artist=%a" -T "title=%t" -T "album=%g" -T "date=%y" -T "tracknumber=%n" %s

TOC of the extracted CD

Track | Start | Length | Start sector | End sector
––––––––––––––––––––––––––––-
1 | 0:00.00 | 2:32.35 | 0 | 11434
2 | 2:32.35 | 3:18.70 | 11435 | 26354
3 | 5:51.30 | 2:29.30 | 26355 | 37559
4 | 8:20.60 | 3:32.60 | 37560 | 53519
5 | 11:53.45 | 4:45.35 | 53520 | 74929
6 | 16:39.05 | 2:25.30 | 74930 | 85834
7 | 19:04.35 | 4:05.00 | 85835 | 104209
8 | 23:09.35 | 4:16.05 | 104210 | 123414
9 | 27:25.40 | 3:08.22 | 123415 | 137536
10 | 30:33.62 | 3:58.20 | 137537 | 155406
11 | 34:32.07 | 5:00.58 | 155407 | 177964
12 | 39:32.65 | 2:44.00 | 177965 | 190264
13 | 42:16.65 | 3:29.15 | 190265 | 205954
14 | 45:46.05 | 5:28.17 | 205955 | 230571

Track 1

Filename C:\Hi there RIAA, What's up IFPI\Veruca Salt - Eight Arms To Hold You\01 - Straight.wav

Pre-gap length 0:00:02.00

Peak level 100.0 %
Track quality 100.0 %
Test CRC 542EFD16
Copy CRC 542EFD16
Accurately ripped (confidence 8) [33ABC79F]
Copy OK

Track 2

Filename C:\Hi there RIAA, What's up IFPI\Veruca Salt - Eight Arms To Hold You\02 - Volcano Girls.wav

Peak level 100.0 %
Track quality 100.0 %
Test CRC 47387BBE
Copy CRC 47387BBE
Accurately ripped (confidence 8) [07E7A013]
Copy OK

Track 3

Filename C:\Hi there RIAA, What's up IFPI\Veruca Salt - Eight Arms To Hold You\03 - Don't Make Me Prove It.wav

Peak level 100.0 %
Track quality 99.9 %
Test CRC 1641B951
Copy CRC 1641B951
Accurately ripped (confidence 8) [6FEAD564]
Copy OK

Track 4

Filename C:\Hi there RIAA, What's up IFPI\Veruca Salt - Eight Arms To Hold You\04 - Awesome.wav

Peak level 100.0 %
Track quality 100.0 %
Test CRC 730B00C5
Copy CRC 730B00C5
Accurately ripped (confidence 8) [90481A18]
Copy OK

Track 5

Filename C:\Hi there RIAA, What's up IFPI\Veruca Salt - Eight Arms To Hold You\05 - One Last Time.wav

Peak level 100.0 %
Track quality 100.0 %
Test CRC E5F6078F
Copy CRC E5F6078F
Accurately ripped (confidence 8) [9CFDFD76]
Copy OK

Track 6

Filename C:\Hi there RIAA, What's up IFPI\Veruca Salt - Eight Arms To Hold You\06 - With David Bowie.wav

Peak level 100.0 %
Track quality 100.0 %
Test CRC 649A3013
Copy CRC 649A3013
Accurately ripped (confidence 8) [ED9D0243]
Copy OK

Track 7

Filename C:\Hi there RIAA, What's up IFPI\Veruca Salt - Eight Arms To Hold You\07 - Benjamin.wav

Peak level 100.0 %
Track quality 100.0 %
Test CRC 54B4A94D
Copy CRC 54B4A94D
Accurately ripped (confidence 8) [9522B5A1]
Copy OK

Track 8

Filename C:\Hi there RIAA, What's up IFPI\Veruca Salt - Eight Arms To Hold You\08 - Shutterbug.wav

Peak level 100.0 %
Track quality 100.0 %
Test CRC 40A27456
Copy CRC 40A27456
Accurately ripped (confidence 8) [92F24C48]
Copy OK

Track 9

Filename C:\Hi there RIAA, What's up IFPI\Veruca Salt - Eight Arms To Hold You\09 - The Morning Sad.wav

Peak level 100.0 %
Track quality 99.9 %
Test CRC 99B3443C
Copy CRC 99B3443C
Accurately ripped (confidence 8) [48AA0EA2]
Copy OK

Track 10

Filename C:\Hi there RIAA, What's up IFPI\Veruca Salt - Eight Arms To Hold You\10 - Sound Of The Bell.wav

Peak level 100.0 %
Track quality 100.0 %
Test CRC D7D21856
Copy CRC D7D21856
Accurately ripped (confidence 8) [83076284]
Copy OK

Track 11

Filename C:\Hi there RIAA, What's up IFPI\Veruca Salt - Eight Arms To Hold You\11 - Loneliness Is Worse.wav

Peak level 100.0 %
Track quality 100.0 %
Test CRC 19ACD180
Copy CRC 19ACD180
Accurately ripped (confidence 7) [83D8B738]
Copy OK

Track 12

Filename C:\Hi there RIAA, What's up IFPI\Veruca Salt - Eight Arms To Hold You\12 - Stoneface.wav

Peak level 100.0 %
Track quality 100.0 %
Test CRC DC415150
Copy CRC DC415150
Accurately ripped (confidence 7) [C0B11BFA]
Copy OK

Track 13

Filename C:\Hi there RIAA, What's up IFPI\Veruca Salt - Eight Arms To Hold You\13 - Venus Man Trap.wav

Peak level 100.0 %
Track quality 99.9 %
Test CRC 12F51BB6
Copy CRC 12F51BB6
Accurately ripped (confidence 7) [EDC4ABB0]
Copy OK

Track 14

Filename C:\Hi there RIAA, What's up IFPI\Veruca Salt - Eight Arms To Hold You\14 - Earthcrosser.wav

Peak level 100.0 %
Track quality 100.0 %
Test CRC 6D7A47C6
Copy CRC 6D7A47C6
Accurately ripped (confidence 7) [E4C9563A]
Copy OK

All tracks accurately ripped

No errors occurred

End of status report


2000 - Resolver

Veruca Salt - Discography (1994-2015)


01. The Same Person (01:03)
02. Born Entertainer (02:40)
03. Best You Can Get (02:45)
04. Wet Suit (04:23)
05. Yeah Man (03:31)
06. Imperfectly (04:18)
07. Officially Dead (02:49)
08. Only You Know (04:09)
09. Disconnected (04:48)
10. All Dressed Up (05:54)
11. Used to Know Her (04:36)
12. Pretty Boys (03:07)
13. Hellraiser (03:53)

Exact Audio Copy V0.99 prebeta 4 from 23. January 2008

EAC extraction logfile from 16. July 2008, 12:59

Veruca Salt / Resolver

Used drive : HL-DT-STDVDRAM GH20NS10 Adapter: 3 ID: 0

Read mode : Secure
Utilize accurate stream : Yes
Defeat audio cache : Yes
Make use of C2 pointers : No

Read offset correction : 667
Overread into Lead-In and Lead-Out : No
Fill up missing offset samples with silence : Yes
Delete leading and trailing silent blocks : No
Null samples used in CRC calculations : Yes
Used interface : Native Win32 interface for Win NT & 2000
Gap handling : Appended to previous track

Used output format : User Defined Encoder
Selected bitrate : 768 kBit/s
Quality : High
Add ID3 tag : No
Command line compressor : C:\Program Files\FLAC\flac.exe
Additional command line options : -V -8 -T "artist=%a" -T "title=%t" -T "album=%g" -T "date=%y" -T "tracknumber=%n" %s

TOC of the extracted CD

Track | Start | Length | Start sector | End sector
––––––––––––––––––––––––––––-
1 | 0:00.00 | 1:03.22 | 0 | 4746
2 | 1:03.22 | 2:40.73 | 4747 | 16819
3 | 3:44.20 | 2:45.37 | 16820 | 29231
4 | 6:29.57 | 4:23.68 | 29232 | 49024
5 | 10:53.50 | 3:31.22 | 49025 | 64871
6 | 14:24.72 | 4:18.68 | 64872 | 84289
7 | 18:43.65 | 2:49.30 | 84290 | 96994
8 | 21:33.20 | 4:09.00 | 96995 | 115669
9 | 25:42.20 | 4:48.42 | 115670 | 137311
10 | 30:30.62 | 5:54.63 | 137312 | 163924
11 | 36:25.50 | 4:36.10 | 163925 | 184634
12 | 41:01.60 | 3:07.12 | 184635 | 198671
13 | 44:08.72 | 3:53.43 | 198672 | 216189

Track 1

Filename C:\Hi there RIAA, What's up IFPI\Veruca Salt - Resolver\01 - The Same Person.wav

Pre-gap length 0:00:02.00

Peak level 32.3 %
Track quality 100.0 %
Test CRC 915FF1B2
Copy CRC 915FF1B2
Accurately ripped (confidence 10) [0D2E2560]
Copy OK

Track 2

Filename C:\Hi there RIAA, What's up IFPI\Veruca Salt - Resolver\02 - Born Entertainer.wav

Peak level 100.0 %
Track quality 100.0 %
Test CRC 553A0644
Copy CRC 553A0644
Accurately ripped (confidence 11) [4BCF2E00]
Copy OK

Track 3

Filename C:\Hi there RIAA, What's up IFPI\Veruca Salt - Resolver\03 - Best You Can Get.wav

Peak level 100.0 %
Track quality 100.0 %
Test CRC D28994AF
Copy CRC D28994AF
Accurately ripped (confidence 11) [485C50F9]
Copy OK

Track 4

Filename C:\Hi there RIAA, What's up IFPI\Veruca Salt - Resolver\04 - Wet Suit.wav

Peak level 100.0 %
Track quality 100.0 %
Test CRC C43EB693
Copy CRC C43EB693
Accurately ripped (confidence 11) [380E7456]
Copy OK

Track 5

Filename C:\Hi there RIAA, What's up IFPI\Veruca Salt - Resolver\05 - Yeah Man.wav

Peak level 100.0 %
Track quality 100.0 %
Test CRC 29F54C17
Copy CRC 29F54C17
Accurately ripped (confidence 11) [EB7C11B2]
Copy OK

Track 6

Filename C:\Hi there RIAA, What's up IFPI\Veruca Salt - Resolver\06 - Imperfectly.wav

Pre-gap length 0:00:01.80

Peak level 100.0 %
Track quality 100.0 %
Test CRC 7F60432F
Copy CRC 7F60432F
Accurately ripped (confidence 11) [6261C5FA]
Copy OK

Track 7

Filename C:\Hi there RIAA, What's up IFPI\Veruca Salt - Resolver\07 - Officially Dead.wav

Pre-gap length 0:00:03.84

Peak level 100.0 %
Track quality 100.0 %
Test CRC 24E500DC
Copy CRC 24E500DC
Accurately ripped (confidence 11) [5411AC42]
Copy OK

Track 8

Filename C:\Hi there RIAA, What's up IFPI\Veruca Salt - Resolver\08 - Only You Know.wav

Peak level 100.0 %
Track quality 100.0 %
Test CRC 0CB0800F
Copy CRC 0CB0800F
Accurately ripped (confidence 11) [C24E158F]
Copy OK

Track 9

Filename C:\Hi there RIAA, What's up IFPI\Veruca Salt - Resolver\09 - Disconnected.wav

Pre-gap length 0:00:01.30

Peak level 100.0 %
Track quality 99.9 %
Test CRC 25CBFD2E
Copy CRC 25CBFD2E
Accurately ripped (confidence 11) [E2F7737A]
Copy OK

Track 10

Filename C:\Hi there RIAA, What's up IFPI\Veruca Salt - Resolver\10 - All Dressed Up.wav

Pre-gap length 0:00:02.06

Peak level 100.0 %
Track quality 100.0 %
Test CRC C38EA214
Copy CRC C38EA214
Accurately ripped (confidence 11) [D9115614]
Copy OK

Track 11

Filename C:\Hi there RIAA, What's up IFPI\Veruca Salt - Resolver\11 - Used To Know Her.wav

Peak level 100.0 %
Track quality 100.0 %
Test CRC 487D0286
Copy CRC 487D0286
Accurately ripped (confidence 11) [0C12FCA3]
Copy OK

Track 12

Filename C:\Hi there RIAA, What's up IFPI\Veruca Salt - Resolver\12 - Pretty Boys.wav

Pre-gap length 0:00:01.80

Peak level 100.0 %
Track quality 100.0 %
Test CRC 7518A3F2
Copy CRC 7518A3F2
Accurately ripped (confidence 11) [B5F75F55]
Copy OK

Track 13

Filename C:\Hi there RIAA, What's up IFPI\Veruca Salt - Resolver\13 - Hellraiser.wav

Peak level 100.0 %
Track quality 100.0 %
Test CRC 2CD10D2F
Copy CRC 2CD10D2F
Accurately ripped (confidence 8) [2CCA6A9D]
Copy OK

All tracks accurately ripped

No errors occurred

End of status report


2006 - IV

Veruca Salt - Discography (1994-2015)


01. So Weird (03:35)
02. Centipede (03:00)
03. Innocent (02:52)
04. Circular Trend (02:42)
05. Perfect Love (03:42)
06. Closer (03:27)
07. Sick As Your Secrets (05:36)
08. Wake Up Dead (03:34)
09. Damage Done (04:09)
10. Blissful Queen (03:44)
11. The Sun (03:57)
12. Comes and Goes (02:30)
13. Save You (04:24)
14. Salt Flat Epic (07:57)

Exact Audio Copy V0.99 prebeta 5 from 4. May 2009

EAC extraction logfile from 3. April 2010, 20:29

Veruca Salt / IV

Used drive : HL-DT-STDVD-RAM GH22NP20 Adapter: 1 ID: 0

Read mode : Secure
Utilize accurate stream : Yes
Defeat audio cache : Yes
Make use of C2 pointers : No

Read offset correction : 102
Overread into Lead-In and Lead-Out : Yes
Fill up missing offset samples with silence : Yes
Delete leading and trailing silent blocks : No
Null samples used in CRC calculations : Yes
Used interface : Native Win32 interface for Win NT & 2000
Gap handling : Appended to previous track

Used output format : User Defined Encoder
Selected bitrate : 768 kBit/s
Quality : High
Add ID3 tag : No
Command line compressor : C:\Program Files\Exact Audio Copy\FLAC\FLAC.EXE
Additional command line options : -V -8 -T "artist=%a" -T "title=%t" -T "album=%g" -T "date=%y" -T "tracknumber=%n" -T "genre=%m" %s

TOC of the extracted CD

Track | Start | Length | Start sector | End sector
––––––––––––––––––––––––––––-
1 | 0:00.00 | 3:35.26 | 0 | 16150
2 | 3:35.26 | 3:00.22 | 16151 | 29672
3 | 6:35.48 | 2:52.66 | 29673 | 42638
4 | 9:28.39 | 2:42.24 | 42639 | 54812
5 | 12:10.63 | 3:42.43 | 54813 | 71505
6 | 15:53.31 | 3:27.30 | 71506 | 87060
7 | 19:20.61 | 5:36.49 | 87061 | 112309
8 | 24:57.35 | 3:34.59 | 112310 | 128418
9 | 28:32.19 | 4:09.71 | 128419 | 147164
10 | 32:42.15 | 3:44.14 | 147165 | 163978
11 | 36:26.29 | 3:57.25 | 163979 | 181778
12 | 40:23.54 | 2:29.74 | 181779 | 193027
13 | 42:53.53 | 4:24.30 | 193028 | 212857
14 | 47:18.08 | 7:57.27 | 212858 | 248659

Track 1

Filename C:\EAC\Veruca Salt - IV - 2006\01 - So Weird.wav

Pre-gap length 0:00:02.00

Peak level 99.8 %
Track quality 100.0 %
Test CRC 1E66CE2A
Copy CRC 1E66CE2A
Accurately ripped (confidence 12) [C7566A48]
Copy OK

Track 2

Filename C:\EAC\Veruca Salt - IV - 2006\02 - Centipede.wav

Peak level 99.8 %
Track quality 99.9 %
Test CRC B8183856
Copy CRC B8183856
Accurately ripped (confidence 12) [5A32BA5A]
Copy OK

Track 3

Filename C:\EAC\Veruca Salt - IV - 2006\03 - Innocent.wav

Peak level 99.8 %
Track quality 100.0 %
Test CRC 42F9C118
Copy CRC 42F9C118
Accurately ripped (confidence 12) [448DF359]
Copy OK

Track 4

Filename C:\EAC\Veruca Salt - IV - 2006\04 - Circular Trend.wav

Peak level 99.8 %
Track quality 100.0 %
Test CRC 79BA2C42
Copy CRC 79BA2C42
Accurately ripped (confidence 12) [AFF8DD68]
Copy OK

Track 5

Filename C:\EAC\Veruca Salt - IV - 2006\05 - Perfect Love.wav

Peak level 99.8 %
Track quality 100.0 %
Test CRC 09877B8A
Copy CRC 09877B8A
Accurately ripped (confidence 12) [5FDCE84D]
Copy OK

Track 6

Filename C:\EAC\Veruca Salt - IV - 2006\06 - Closer.wav

Peak level 99.8 %
Track quality 100.0 %
Test CRC 62CB11F3
Copy CRC 62CB11F3
Accurately ripped (confidence 13) [9024A10F]
Copy OK

Track 7

Filename C:\EAC\Veruca Salt - IV - 2006\07 - Sick As Your Secrets.wav

Peak level 99.8 %
Track quality 100.0 %
Test CRC 262E7230
Copy CRC 262E7230
Accurately ripped (confidence 13) [B7B24396]
Copy OK

Track 8

Filename C:\EAC\Veruca Salt - IV - 2006\08 - Wake Up Dead.wav

Peak level 99.8 %
Track quality 100.0 %
Test CRC C64F03F5
Copy CRC C64F03F5
Accurately ripped (confidence 13) [58D68C3C]
Copy OK

Track 9

Filename C:\EAC\Veruca Salt - IV - 2006\09 - Damage Done.wav

Peak level 99.8 %
Track quality 100.0 %
Test CRC 8664CDD4
Copy CRC 8664CDD4
Accurately ripped (confidence 13) [BF0C74D7]
Copy OK

Track 10

Filename C:\EAC\Veruca Salt - IV - 2006\10 - Blissful Queen.wav

Peak level 99.8 %
Track quality 100.0 %
Test CRC 4225F59E
Copy CRC 4225F59E
Accurately ripped (confidence 13) [916AE49E]
Copy OK

Track 11

Filename C:\EAC\Veruca Salt - IV - 2006\11 - The Sun.wav

Peak level 99.8 %
Track quality 100.0 %
Test CRC C771814D
Copy CRC C771814D
Accurately ripped (confidence 13) [ED63CB47]
Copy OK

Track 12

Filename C:\EAC\Veruca Salt - IV - 2006\12 - Comes And Goes.wav

Peak level 87.8 %
Track quality 100.0 %
Test CRC 0D5075A8
Copy CRC 0D5075A8
Accurately ripped (confidence 13) [C6D0AF9F]
Copy OK

Track 13

Filename C:\EAC\Veruca Salt - IV - 2006\13 - Save You.wav

Peak level 100.0 %
Track quality 100.0 %
Test CRC 5F9858A1
Copy CRC 5F9858A1
Accurately ripped (confidence 13) [CD46E1DC]
Copy OK

Track 14

Filename C:\EAC\Veruca Salt - IV - 2006\14 - Salt Flat Epic.wav

Peak level 99.8 %
Track quality 100.0 %
Test CRC A66E134A
Copy CRC A66E134A
Accurately ripped (confidence 13) [C32FE16A]
Copy OK

All tracks accurately ripped

No errors occurred

End of status report


2015 - Ghost Notes

Veruca Salt - Discography (1994-2015)


01. The Gospel According to Saint Me (3:49)
02. Black and Blonde (4:07)
03. Eyes On You (3:17)
04. Prince of Wales (5:35)
05. The Sound of Leaving (3:32)
06. Love You Less (3:09)
07. Laughing in the Sugar Bowl (2:16)
08. Empty Bottle (5:53)
09. Come Clean, Dark Thing (3:22)
10. I'm Telling You Now (3:29)
11. Triage (3:36)
12. Lost To Me (4:10)
13. The Museum of Broken Relationships (2:35)
14. Alternica (5:58)

Exact Audio Copy V1.0 beta 4 from 7. December 2014

EAC extraction logfile from 22. July 2015, 2:38

Veruca Salt / Ghost Notes

Used drive : MATSHITADVD-RAM UJ8B2 Adapter: 1 ID: 0

Read mode : Secure
Utilize accurate stream : Yes
Defeat audio cache : Yes
Make use of C2 pointers : No

Read offset correction : 102
Overread into Lead-In and Lead-Out : No
Fill up missing offset samples with silence : Yes
Delete leading and trailing silent blocks : No
Null samples used in CRC calculations : Yes
Used interface : Native Win32 interface for Win NT & 2000
Gap handling : Appended to previous track

Used output format : User Defined Encoder
Selected bitrate : 128 kBit/s
Quality : High
Add ID3 tag : No
Command line compressor : C:\Program Files (x86)\Exact Audio Copy\Flac\flac.exe
Additional command line options : -8 -V -T "ARTIST=%artist%" -T "TITLE=%title%" -T "ALBUM=%albumtitle%" -T "DATE=%year%" -T "TRACKNUMBER=%tracknr%" -T "GENRE=%genre%" -T "PERFORMER=%albuminterpret%" -T "COMPOSER=%composer%" %haslyrics%–tag-from-file=LYRICS="%lyricsfile%"%haslyrics% -T "ALBUMARTIST=%albumartist%" -T "DISCNUMBER=%cdnumber%" -T "TOTALDISCS=%totalcds%" -T "TOTALTRACKS=%numtracks%" -T "COMMENT=%comment%" %source% -o %dest%

TOC of the extracted CD

Track | Start | Length | Start sector | End sector
––––––––––––––––––––––––––––-
1 | 0:00.00 | 3:49.47 | 0 | 17221
2 | 3:49.47 | 4:07.23 | 17222 | 35769
3 | 7:56.70 | 3:17.15 | 35770 | 50559
4 | 11:14.10 | 5:35.49 | 50560 | 75733
5 | 16:49.59 | 3:32.21 | 75734 | 91654
6 | 20:22.05 | 3:09.67 | 91655 | 105896
7 | 23:31.72 | 2:16.21 | 105897 | 116117
8 | 25:48.18 | 5:53.50 | 116118 | 142642
9 | 31:41.68 | 3:22.18 | 142643 | 157810
10 | 35:04.11 | 3:29.13 | 157811 | 173498
11 | 38:33.24 | 3:36.23 | 173499 | 189721
12 | 42:09.47 | 4:10.44 | 189722 | 208515
13 | 46:20.16 | 2:35.25 | 208516 | 220165
14 | 48:55.41 | 5:58.32 | 220166 | 247047

Track 1

Filename C:\EAC\Veruca Salt - Ghost Notes - 2015\01 - The Gospel According to Saint Me.wav

Pre-gap length 0:00:02.00

Peak level 100.0 %
Extraction speed 1.4 X
Track quality 100.0 %
Test CRC 79F26956
Copy CRC 79F26956
Track not present in AccurateRip database
Copy OK

Track 2

Filename C:\EAC\Veruca Salt - Ghost Notes - 2015\02 - Black and Blonde.wav

Peak level 100.0 %
Extraction speed 1.4 X
Track quality 99.9 %
Test CRC 1116EDE9
Copy CRC 1116EDE9
Track not present in AccurateRip database
Copy OK

Track 3

Filename C:\EAC\Veruca Salt - Ghost Notes - 2015\03 - Eyes on You.wav

Peak level 100.0 %
Extraction speed 1.5 X
Track quality 99.9 %
Test CRC 07AC44F8
Copy CRC 07AC44F8
Track not present in AccurateRip database
Copy OK

Track 4

Filename C:\EAC\Veruca Salt - Ghost Notes - 2015\04 - Prince of Wales.wav

Peak level 100.0 %
Extraction speed 1.8 X
Track quality 99.9 %
Test CRC 68E8E17E
Copy CRC 68E8E17E
Track not present in AccurateRip database
Copy OK

Track 5

Filename C:\EAC\Veruca Salt - Ghost Notes - 2015\05 - The Sound of Leaving.wav

Peak level 100.0 %
Extraction speed 2.0 X
Track quality 100.0 %
Test CRC ED71FEBB
Copy CRC ED71FEBB
Track not present in AccurateRip database
Copy OK

Track 6

Filename C:\EAC\Veruca Salt - Ghost Notes - 2015\06 - Love You Less.wav

Peak level 100.0 %
Extraction speed 1.8 X
Track quality 99.9 %
Test CRC D60DF91D
Copy CRC D60DF91D
Track not present in AccurateRip database
Copy OK

Track 7

Filename C:\EAC\Veruca Salt - Ghost Notes - 2015\07 - Laughing in the Sugar Bowl.wav

Peak level 100.0 %
Extraction speed 2.0 X
Track quality 100.0 %
Test CRC FE3886E2
Copy CRC FE3886E2
Track not present in AccurateRip database
Copy OK

Track 8

Filename C:\EAC\Veruca Salt - Ghost Notes - 2015\08 - Empty Bottle.wav

Peak level 100.0 %
Extraction speed 2.4 X
Track quality 100.0 %
Test CRC 82482428
Copy CRC 82482428
Track not present in AccurateRip database
Copy OK

Track 9

Filename C:\EAC\Veruca Salt - Ghost Notes - 2015\09 - Come Clean, Dark Thing.wav

Peak level 100.0 %
Extraction speed 2.4 X
Track quality 100.0 %
Test CRC 0018AFF5
Copy CRC 0018AFF5
Track not present in AccurateRip database
Copy OK

Track 10

Filename C:\EAC\Veruca Salt - Ghost Notes - 2015\10 - Telling You Now.wav

Peak level 100.0 %
Extraction speed 2.1 X
Track quality 99.9 %
Test CRC D9773B19
Copy CRC D9773B19
Track not present in AccurateRip database
Copy OK

Track 11

Filename C:\EAC\Veruca Salt - Ghost Notes - 2015\11 - Triage.wav

Peak level 100.0 %
Extraction speed 2.6 X
Track quality 100.0 %
Test CRC E4CE6962
Copy CRC E4CE6962
Track not present in AccurateRip database
Copy OK

Track 12

Filename C:\EAC\Veruca Salt - Ghost Notes - 2015\12 - Lost to Me.wav

Peak level 100.0 %
Extraction speed 2.7 X
Track quality 100.0 %
Test CRC 2F485758
Copy CRC 2F485758
Track not present in AccurateRip database
Copy OK

Track 13

Filename C:\EAC\Veruca Salt - Ghost Notes - 2015\13 - The Museum of Broken Relationships.wav

Peak level 100.0 %
Extraction speed 2.2 X
Track quality 99.9 %
Test CRC 4E6042AA
Copy CRC 4E6042AA
Track not present in AccurateRip database
Copy OK

Track 14

Filename C:\EAC\Veruca Salt - Ghost Notes - 2015\14 - Alternica.wav

Peak level 100.0 %
Extraction speed 3.0 X
Track quality 100.0 %
Test CRC 3801309F
Copy CRC 3801309F
Track not present in AccurateRip database
Copy OK

None of the tracks are present in the AccurateRip database

No errors occurred

End of status report

–– CUETools DB Plugin V2.1.4

[CTDB TOCID: Vq9Xeu2_moRh3JCM92GvDcFoAQw-] found
Submit result: Vq9Xeu2_moRh3JCM92GvDcFoAQw- has been confirmed
Track | CTDB Status
1 | (1/1) Accurately ripped
2 | (1/1) Accurately ripped
3 | (1/1) Accurately ripped
4 | (1/1) Accurately ripped
5 | (1/1) Accurately ripped
6 | (1/1) Accurately ripped
7 | (1/1) Accurately ripped
8 | (1/1) Accurately ripped
9 | (1/1) Accurately ripped
10 | (1/1) Accurately ripped
11 | (1/1) Accurately ripped
12 | (1/1) Accurately ripped
13 | (1/1) Accurately ripped
14 | (1/1) Accurately ripped

==== Log checksum E3F976DA1EDF774F1F35C48BEABF848E8B08C7D1AAD6EC64F13697969EC719BB ====


1994 - Seether

Veruca Salt - Discography (1994-2015)


01. Seether
02. Straight
03. She's a Brain

Exact Audio Copy V0.99 prebeta 3 from 28. July 2007

EAC extraction logfile from 27. February 2008, 0:25

Veruca Salt / Seether

Used drive : PIONEER DVD-RW DVR-111D Adapter: 1 ID: 0

Read mode : Secure
Utilize accurate stream : Yes
Defeat audio cache : Yes
Make use of C2 pointers : No

Read offset correction : 48
Overread into Lead-In and Lead-Out : No
Fill up missing offset samples with silence : Yes
Delete leading and trailing silent blocks : No
Null samples used in CRC calculations : Yes
Used interface : Installed external ASPI interface
Gap handling : Appended to previous track

Used output format : User Defined Encoder
Selected bitrate : 224 kBit/s
Quality : High
Add ID3 tag : No
Command line compressor : C:\flac-1.1.3-win\bin\flac.exe
Additional command line options : -8 -A tukey(0.25) -A gauss(0.1875) -b 4096 -V -T "artist=%a" -T "title=%t" -T "album=%g" -T "date=%y" -T "tracknumber=%n" -T "genre=%m" %s –sector-align

TOC of the extracted CD

Track | Start | Length | Start sector | End sector
––––––––––––––––––––––––––––-
1 | 0:00.00 | 3:16.70 | 0 | 14769
2 | 3:16.70 | 2:30.20 | 14770 | 26039
3 | 5:47.15 | 2:20.35 | 26040 | 36574

Track 1

Filename C:\Cd Burner\Finalized\Cd1\01 - Seether.wav

Pre-gap length 0:00:02.00

Peak level 98.8 %
Track quality 100.0 %
Test CRC 86F9AF92
Copy CRC 86F9AF92
Track not present in AccurateRip database
Copy OK

Track 2

Filename C:\Cd Burner\Finalized\Cd1\02 - Straight.wav

Pre-gap length 0:00:00.03

Peak level 97.3 %
Track quality 100.0 %
Test CRC A1D15F8B
Copy CRC A1D15F8B
Track not present in AccurateRip database
Copy OK

Track 3

Filename C:\Cd Burner\Finalized\Cd1\03 - She's a Brain.wav

Pre-gap length 0:00:00.03

Peak level 92.5 %
Track quality 99.9 %
Test CRC 1C5140AE
Copy CRC 1C5140AE
Track not present in AccurateRip database
Copy OK

None of the tracks are present in the AccurateRip database

No errors occurred

End of status report


1995 - Number One Blind

Veruca Salt - Discography (1994-2015)


01. Number One Blind - Gordon, Shapiro
02. Bodies - Cook, Jones, Rotten, Vicious
03. Aurora - Gordon

Exact Audio Copy V0.99 prebeta 3 from 28. July 2007

EAC extraction logfile from 11. February 2008, 0:01

Veruca Salt / Number One Blind

Used drive : PIONEER DVD-RW DVR-111D Adapter: 1 ID: 0

Read mode : Secure
Utilize accurate stream : Yes
Defeat audio cache : Yes
Make use of C2 pointers : No

Read offset correction : 48
Overread into Lead-In and Lead-Out : No
Fill up missing offset samples with silence : Yes
Delete leading and trailing silent blocks : No
Null samples used in CRC calculations : Yes
Used interface : Installed external ASPI interface
Gap handling : Appended to previous track

Used output format : User Defined Encoder
Selected bitrate : 224 kBit/s
Quality : High
Add ID3 tag : No
Command line compressor : C:\flac-1.1.3-win\bin\flac.exe
Additional command line options : -8 -A tukey(0.25) -A gauss(0.1875) -b 4096 -V -T "artist=%a" -T "title=%t" -T "album=%g" -T "date=%y" -T "tracknumber=%n" -T "genre=%m" %s –sector-align

TOC of the extracted CD

Track | Start | Length | Start sector | End sector
––––––––––––––––––––––––––––-
1 | 0:00.33 | 3:44.37 | 33 | 16869
2 | 3:44.70 | 4:10.35 | 16870 | 35654
3 | 7:55.30 | 4:05.03 | 35655 | 54032

Track 1

Filename C:\Cd Burner\Finalized\Cd1\01 - Number One Blind.wav

Pre-gap length 0:00:02.33

Peak level 99.2 %
Track quality 100.0 %
Test CRC A7B10449
Copy CRC A7B10449
Track not present in AccurateRip database
Copy OK

Track 2

Filename C:\Cd Burner\Finalized\Cd1\02 - Bodies.wav

Pre-gap length 0:00:00.02

Peak level 99.3 %
Track quality 100.0 %
Test CRC A389528D
Copy CRC A389528D
Track not present in AccurateRip database
Copy OK

Track 3

Filename C:\Cd Burner\Finalized\Cd1\03 - Aurora.wav

Pre-gap length 0:00:00.02

Peak level 68.5 %
Track quality 99.9 %
Test CRC BCAC6DBA
Copy CRC BCAC6DBA
Track not present in AccurateRip database
Copy OK

None of the tracks are present in the AccurateRip database

No errors occurred

End of status report


1995 - Victrola

Veruca Salt - Discography (1994-2015)


01. Victrola
02. My Sharona
03. Sundown

Exact Audio Copy V0.99 prebeta 3 from 28. July 2007

EAC extraction logfile from 9. February 2008, 14:05

Veruca Salt / Victrola

Used drive : PIONEER DVD-RW DVR-111D Adapter: 1 ID: 0

Read mode : Secure
Utilize accurate stream : Yes
Defeat audio cache : Yes
Make use of C2 pointers : No

Read offset correction : 48
Overread into Lead-In and Lead-Out : No
Fill up missing offset samples with silence : Yes
Delete leading and trailing silent blocks : No
Null samples used in CRC calculations : Yes
Used interface : Installed external ASPI interface
Gap handling : Appended to previous track

Used output format : User Defined Encoder
Selected bitrate : 224 kBit/s
Quality : High
Add ID3 tag : No
Command line compressor : C:\flac-1.1.3-win\bin\flac.exe
Additional command line options : -8 -A tukey(0.25) -A gauss(0.1875) -b 4096 -V -T "artist=%a" -T "title=%t" -T "album=%g" -T "date=%y" -T "tracknumber=%n" -T "genre=%m" %s –sector-align

TOC of the extracted CD

Track | Start | Length | Start sector | End sector
––––––––––––––––––––––––––––-
1 | 0:00.33 | 2:19.57 | 33 | 10514
2 | 2:20.15 | 4:42.63 | 10515 | 31727
3 | 7:03.03 | 3:23.30 | 31728 | 46982

Track 1

Filename C:\Cd Burner\Finalized\Cd1\01 - Victrola.wav

Pre-gap length 0:00:02.33

Peak level 99.4 %
Track quality 100.0 %
Test CRC 3F390B50
Copy CRC 3F390B50
Track not present in AccurateRip database
Copy OK

Track 2

Filename C:\Cd Burner\Finalized\Cd1\02 - My Sharona.wav

Pre-gap length 0:00:00.02

Peak level 99.4 %
Track quality 100.0 %
Test CRC 9BCB3854
Copy CRC 9BCB3854
Track not present in AccurateRip database
Copy OK

Track 3

Filename C:\Cd Burner\Finalized\Cd1\03 - Sundown.wav

Pre-gap length 0:00:00.03

Peak level 93.4 %
Track quality 100.0 %
Test CRC 3F16F193
Copy CRC 3F16F193
Track not present in AccurateRip database
Copy OK

None of the tracks are present in the AccurateRip database

No errors occurred

End of status report


1996 - Blow It Out Your Ass It's Veruca Salt

Veruca Salt - Discography (1994-2015)


01. Shimmer Like A Girl
02. I'm Taking Europe With Me
03. New York Mining Disaster 1996
04. Disinherit

Exact Audio Copy V0.99 prebeta 4 from 23. January 2008

EAC extraction logfile from 3. February 2009, 21:09

Veruca Salt / Blow It Out Your Ass It's Veruca Salt

Used drive : HL-DT-STDVD-ROM GDR8163B Adapter: 0 ID: 1

Read mode : Secure
Utilize accurate stream : Yes
Defeat audio cache : Yes
Make use of C2 pointers : No

Read offset correction : 102
Overread into Lead-In and Lead-Out : No
Fill up missing offset samples with silence : Yes
Delete leading and trailing silent blocks : No
Null samples used in CRC calculations : Yes
Used interface : Native Win32 interface for Win NT & 2000
Gap handling : Appended to previous track

Used output format : User Defined Encoder
Selected bitrate : 128 kBit/s
Quality : High
Add ID3 tag : No
Command line compressor : D:\Program Files\Exact Audio Copy\Flac\flac.exe
Additional command line options : -V -8 -T "artist=%a" -T "title=%t" -T "album=%g" -T "date=%y" -T "tracknumber=%n" -T "genre=%m" %s

TOC of the extracted CD

Track | Start | Length | Start sector | End sector
––––––––––––––––––––––––––––-
1 | 0:00.37 | 4:03.20 | 37 | 18281
2 | 4:03.57 | 3:45.47 | 18282 | 35203
3 | 7:49.29 | 4:56.28 | 35204 | 57431
4 | 12:45.57 | 6:25.57 | 57432 | 86363

Track 1

Filename \01 - Shimmer Like a Girl.wav

Pre-gap length 0:00:02.49

Peak level 100.0 %
Track quality 100.0 %
Test CRC 1102D03D
Copy CRC 1102D03D
Accurately ripped (confidence 7) [3CB824DB]
Copy OK

Track 2

Filename \02 - I'm Taking Europe With Me.wav

Peak level 100.0 %
Track quality 100.0 %
Test CRC 8BFA9EDB
Copy CRC 8BFA9EDB
Accurately ripped (confidence 6) [7BAB05A0]
Copy OK

Track 3

Filename \03 - New York Mining Disaster 1996.wav

Peak level 100.0 %
Track quality 100.0 %
Test CRC 9351040A
Copy CRC 9351040A
Accurately ripped (confidence 6) [47511E13]
Copy OK

Track 4

Filename \04 - Disinherit.wav

Peak level 100.0 %
Track quality 100.0 %
Test CRC B0B44B85
Copy CRC B0B44B85
Accurately ripped (confidence 6) [EBA912E8]
Copy OK

All tracks accurately ripped

No errors occurred

End of status report


1996 - Volcano Girls CD1

Veruca Salt - Discography (1994-2015)


01. Volcano Girls
02. Good Disaster
03. Sleeper Car

Exact Audio Copy V0.99 prebeta 5 from 4. May 2009

EAC extraction logfile from 13. March 2010, 0:47

Veruca Salt / Volcano Girls

Used drive : HL-DT-STDVD-RAM GH22NP20 Adapter: 1 ID: 0

Read mode : Secure
Utilize accurate stream : Yes
Defeat audio cache : Yes
Make use of C2 pointers : No

Read offset correction : 102
Overread into Lead-In and Lead-Out : Yes
Fill up missing offset samples with silence : Yes
Delete leading and trailing silent blocks : No
Null samples used in CRC calculations : Yes
Used interface : Native Win32 interface for Win NT & 2000
Gap handling : Appended to previous track

Used output format : User Defined Encoder
Selected bitrate : 768 kBit/s
Quality : High
Add ID3 tag : No
Command line compressor : C:\Program Files\Exact Audio Copy\FLAC\FLAC.EXE
Additional command line options : -V -8 -T "artist=%a" -T "title=%t" -T "album=%g" -T "date=%y" -T "tracknumber=%n" -T "genre=%m" %s

TOC of the extracted CD

Track | Start | Length | Start sector | End sector
––––––––––––––––––––––––––––-
1 | 0:00.00 | 3:20.37 | 0 | 15036
2 | 3:20.37 | 2:43.40 | 15037 | 27301
3 | 6:04.02 | 4:07.25 | 27302 | 45851

Track 1

Filename C:\EAC\Veruca Salt - Volcano Girls - 1996\01 - Volcano Girls.wav

Pre-gap length 0:00:02.00

Peak level 100.0 %
Track quality 100.0 %
Test CRC 9E526BED
Copy CRC 9E526BED
Track not present in AccurateRip database
Copy OK

Track 2

Filename C:\EAC\Veruca Salt - Volcano Girls - 1996\02 - Good Disaster.wav

Peak level 100.0 %
Track quality 100.0 %
Test CRC 00455180
Copy CRC 00455180
Track not present in AccurateRip database
Copy OK

Track 3

Filename C:\EAC\Veruca Salt - Volcano Girls - 1996\03 - Sleeper Car.wav

Pre-gap length 0:00:01.40

Peak level 100.0 %
Track quality 100.0 %
Test CRC FAB415AE
Copy CRC FAB415AE
Track not present in AccurateRip database
Copy OK

None of the tracks are present in the AccurateRip database

No errors occurred

End of status report


1996 - Volcano Girls CD2

Veruca Salt - Discography (1994-2015)


01. Volcano Girls
02. Pale Green
03. One More Page Of Insincerity Please

Exact Audio Copy V0.99 prebeta 5 from 4. May 2009

EAC extraction logfile from 25. March 2010, 2:58

Veruca Salt / Volcano Girls (CD2)

Used drive : HL-DT-STDVD-RAM GH22NP20 Adapter: 1 ID: 0

Read mode : Secure
Utilize accurate stream : Yes
Defeat audio cache : Yes
Make use of C2 pointers : No

Read offset correction : 102
Overread into Lead-In and Lead-Out : Yes
Fill up missing offset samples with silence : Yes
Delete leading and trailing silent blocks : No
Null samples used in CRC calculations : Yes
Used interface : Native Win32 interface for Win NT & 2000
Gap handling : Appended to previous track

Used output format : User Defined Encoder
Selected bitrate : 768 kBit/s
Quality : High
Add ID3 tag : No
Command line compressor : C:\Program Files\Exact Audio Copy\FLAC\FLAC.EXE
Additional command line options : -V -8 -T "artist=%a" -T "title=%t" -T "album=%g" -T "date=%y" -T "tracknumber=%n" -T "genre=%m" %s

TOC of the extracted CD

Track | Start | Length | Start sector | End sector
––––––––––––––––––––––––––––-
1 | 0:00.00 | 3:20.35 | 0 | 15034
2 | 3:20.35 | 5:27.32 | 15035 | 39591
3 | 8:47.67 | 3:10.43 | 39592 | 53884

Track 1

Filename C:\EAC\Veruca Salt - Volcano Girls (CD2) - 1996\01 - Volcano Girls (LP version).wav

Pre-gap length 0:00:02.00

Peak level 100.0 %
Track quality 100.0 %
Test CRC 12C6314A
Copy CRC 12C6314A
Accurately ripped (confidence 1) [3E1F7159]
Copy OK

Track 2

Filename C:\EAC\Veruca Salt - Volcano Girls (CD2) - 1996\02 - Pale Green.wav

Peak level 100.0 %
Track quality 99.9 %
Test CRC 10DC3E2A
Copy CRC 10DC3E2A
Accurately ripped (confidence 1) [B775CF54]
Copy OK

Track 3

Filename C:\EAC\Veruca Salt - Volcano Girls (CD2) - 1996\03 - One More Page of Insincerity Please.wav

Peak level 100.0 %
Track quality 99.9 %
Test CRC 35E0D901
Copy CRC 35E0D901
Accurately ripped (confidence 1) [4E51673A]
Copy OK

All tracks accurately ripped

No errors occurred

End of status report


1997 - Benjamin

Veruca Salt - Discography (1994-2015)


01. Benjamin
02. The Speed Of Candy [Demo]
03. Never Met Her [Demo]
04. Swedish Fish [Demo]

X Lossless Decoder version 20120908 (141.1)

XLD extraction logfile from 2012-10-07 21:21:22 -0400

Veruca Salt / Benjamin

Used drive : MATSHITA DVD-R UJ-846 (revision FQ3T)

Ripper mode : XLD Secure Ripper
Disable audio cache : OK for the drive with a cache less than 1375KiB
Make use of C2 pointers : NO
Read offset correction : 102
Max retry count : 100
Gap status : Analyzed, Appended (except HTOA)

TOC of the extracted CD
Track | Start | Length | Start sector | End sector
––––––––––––––––––––––––––––-
1 | 00:00:00 | 04:05:18 | 0 | 18392
2 | 04:05:18 | 03:04:70 | 18393 | 32262
3 | 07:10:13 | 03:56:05 | 32263 | 49967
4 | 11:06:18 | 03:18:32 | 49968 | 64849

AccurateRip Summary (DiscID: 00028662-000a0922-2c036004)
Track 01 : OK (v1+v2, confidence 4/4)
Track 02 : OK (v1+v2, confidence 4/4)
Track 03 : OK (v1+v2, confidence 4/4)
Track 04 : OK (v1+v2, confidence 4/4)
->All tracks accurately ripped.

All Tracks
Album gain : -8.98 dB
Peak : 0.977234
Statistics
Read error : 0
Jitter error (maybe fixed) : 0
Retry sector count : 0
Damaged sector count : 0

Track 01
Filename : /Users/derek/Desktop/Veruca Salt - Benjamin/01 - Veruca Salt - Benjamin.flac
Pre-gap length : 00:02:00

Track gain : -9.56 dB
Peak : 0.977234
CRC32 hash (test run) : 816B81CA
CRC32 hash : 816B81CA
CRC32 hash (skip zero) : 85320E3D
AccurateRip v1 signature : 3E91FCBE
AccurateRip v2 signature : 7B04941A
->Accurately ripped (v1+v2, confidence 2+2/4)
Statistics
Read error : 0
Jitter error (maybe fixed) : 0
Retry sector count : 0
Damaged sector count : 0

Track 02
Filename : /Users/derek/Desktop/Veruca Salt - Benjamin/02 - Veruca Salt - The Speed Of Candy [Demo].flac

Track gain : -9.93 dB
Peak : 0.977234
CRC32 hash (test run) : D90F21B0
CRC32 hash : D90F21B0
CRC32 hash (skip zero) : D09492A0
AccurateRip v1 signature : 93C845B8
AccurateRip v2 signature : 3F547993
->Accurately ripped (v1+v2, confidence 2+2/4)
Statistics
Read error : 0
Jitter error (maybe fixed) : 0
Retry sector count : 0
Damaged sector count : 0

Track 03
Filename : /Users/derek/Desktop/Veruca Salt - Benjamin/03 - Veruca Salt - Never Met Her [Demo].flac
Pre-gap length : 00:01:38

Track gain : -2.14 dB
Peak : 0.977234
CRC32 hash (test run) : 20CEBACD
CRC32 hash : 20CEBACD
CRC32 hash (skip zero) : B3622047
AccurateRip v1 signature : 96B8045A
AccurateRip v2 signature : DD524B4C
->Accurately ripped (v1+v2, confidence 2+2/4)
Statistics
Read error : 0
Jitter error (maybe fixed) : 0
Retry sector count : 0
Damaged sector count : 0

Track 04
Filename : /Users/derek/Desktop/Veruca Salt - Benjamin/04 - Veruca Salt - Swedish Fish [Demo].flac
Pre-gap length : 00:00:43

Track gain : -5.96 dB
Peak : 0.918060
CRC32 hash (test run) : 4076ED23
CRC32 hash : 4076ED23
CRC32 hash (skip zero) : 685FBCC4
AccurateRip v1 signature : EE2BB1BC
AccurateRip v2 signature : 891025FD
->Accurately ripped (v1+v2, confidence 2+2/4)
Statistics
Read error : 0
Jitter error (maybe fixed) : 0
Retry sector count : 0
Damaged sector count : 0

No errors occurred

End of status report


1997 - Shutterbug

Veruca Salt - Discography (1994-2015)


01. Shutterbug (LP Version)
02. Cock Of Nothing (Demo)
03. All Mine (Demo)
04. Break-Up Song (Demo)

Exact Audio Copy V0.99 prebeta 5 from 4. May 2009

EAC extraction logfile from 2. May 2010, 10:43

Veruca Salt / Shutterbug

Used drive : TSSTcorpCDDVDW SH-S222A Adapter: 1 ID: 0

Read mode : Secure
Utilize accurate stream : Yes
Defeat audio cache : Yes
Make use of C2 pointers : No

Read offset correction : 6
Overread into Lead-In and Lead-Out : No
Fill up missing offset samples with silence : Yes
Delete leading and trailing silent blocks : No
Null samples used in CRC calculations : Yes
Used interface : Native Win32 interface for Win NT & 2000
Gap handling : Appended to previous track

Used output format : User Defined Encoder
Selected bitrate : 768 kBit/s
Quality : High
Add ID3 tag : No
Command line compressor : C:\Program Files\Exact Audio Copy\FLAC\FLAC.EXE
Additional command line options : -V -8 -T "artist=%a" -T "title=%t" -T "album=%g" -T "date=%y" -T "tracknumber=%n" -T "genre=%m" %s

TOC of the extracted CD

Track | Start | Length | Start sector | End sector
––––––––––––––––––––––––––––-
1 | 0:00.00 | 4:17.12 | 0 | 19286
2 | 4:17.12 | 2:47.38 | 19287 | 31849
3 | 7:04.50 | 4:40.07 | 31850 | 52856
4 | 11:44.57 | 2:10.58 | 52857 | 62664

Track 1

Filename C:\EAC\Veruca Salt - Shutterbug - 1997\01 - Shutterbug (LP Version).wav

Pre-gap length 0:00:02.00

Peak level 96.7 %
Track quality 100.0 %
Test CRC 5260FBD6
Copy CRC 5260FBD6
Track not present in AccurateRip database
Copy OK

Track 2

Filename C:\EAC\Veruca Salt - Shutterbug - 1997\02 - Cock of Nothing (Demo).wav

Peak level 91.1 %
Track quality 100.0 %
Test CRC AB55A298
Copy CRC AB55A298
Track not present in AccurateRip database
Copy OK

Track 3

Filename C:\EAC\Veruca Salt - Shutterbug - 1997\03 - All Mine (Demo).wav

Pre-gap length 0:00:01.13

Peak level 94.3 %
Track quality 100.0 %
Test CRC A10308BE
Copy CRC A10308BE
Track not present in AccurateRip database
Copy OK

Track 4

Filename C:\EAC\Veruca Salt - Shutterbug - 1997\04 - Break-Up Song (Demo).wav

Peak level 39.3 %
Track quality 100.0 %
Test CRC F1DE6BD6
Copy CRC F1DE6BD6
Track not present in AccurateRip database
Copy OK

None of the tracks are present in the AccurateRip database

No errors occurred

End of status report


2001 - Born Entertainer

Veruca Salt - Discography (1994-2015)


01. Born Entertainer
02. Yeah Man
03. Imperfectly

X Lossless Decoder version 20120908 (141.1)

XLD extraction logfile from 2012-10-07 21:28:21 +1100

Veruca Salt / Born Entertainer

Used drive : HL-DT-ST DVDRW GA11N (revision JA18)

Ripper mode : XLD Secure Ripper
Disable audio cache : OK for the drive with a cache less than 1375KiB
Make use of C2 pointers : NO
Read offset correction : 667
Max retry count : 100
Gap status : Analyzed, Appended

TOC of the extracted CD
Track | Start | Length | Start sector | End sector
––––––––––––––––––––––––––––-
1 | 00:00:00 | 02:42:23 | 0 | 12172
2 | 02:42:23 | 03:31:45 | 12173 | 28042
3 | 06:13:68 | 04:15:15 | 28043 | 47182
4 | 13:01:08 | 05:02:23 | 58583 | 81255

AccurateRip Summary
Disc not found in AccurateRip DB.

All Tracks
Album gain : -10.48 dB
Peak : 0.999969
Statistics
Read error : 0
Jitter error (maybe fixed) : 0
Retry sector count : 0
Damaged sector count : 0

Track 01
Filename : /Volumes/Chris/iTunes/iTunes Media/Music/Artists/Veruca Salt/Born Entertainer/01 - Born Entertainer.m4a
Pre-gap length : 00:02:00

Track gain : -11.49 dB
Peak : 0.999969
CRC32 hash (test run) : 4E582E0F
CRC32 hash : 4E582E0F
CRC32 hash (skip zero) : 96FEB7FA
AccurateRip v1 signature : 1828868F
AccurateRip v2 signature : A39269F1
->Track not present in AccurateRip database.
Statistics
Read error : 0
Jitter error (maybe fixed) : 0
Retry sector count : 0
Damaged sector count : 0

Track 02
Filename : /Volumes/Chris/iTunes/iTunes Media/Music/Artists/Veruca Salt/Born Entertainer/02 - Yeah Man.m4a
Pre-gap length : 00:01:23

Track gain : -10.59 dB
Peak : 0.999969
CRC32 hash (test run) : 42D64B0B
CRC32 hash : 42D64B0B
CRC32 hash (skip zero) : BAAEBECB
AccurateRip v1 signature : DC026B75
AccurateRip v2 signature : C52AF561
->Track not present in AccurateRip database.
Statistics
Read error : 0
Jitter error (maybe fixed) : 0
Retry sector count : 0
Damaged sector count : 0

Track 03
Filename : /Volumes/Chris/iTunes/iTunes Media/Music/Artists/Veruca Salt/Born Entertainer/03 - Imperfectly.m4a
Pre-gap length : 00:02:00

Track gain : -4.09 dB
Peak : 0.999969
CRC32 hash (test run) : 4D9D6308
CRC32 hash : 4D9D6308
CRC32 hash (skip zero) : DFA8B959
AccurateRip v1 signature : B340DE50
AccurateRip v2 signature : E125B6B6
->Track not present in AccurateRip database.
Statistics
Read error : 0
Jitter error (maybe fixed) : 0
Retry sector count : 0
Damaged sector count : 0

No errors occurred

End of status report


2003 - Officially Dead

Veruca Salt - Discography (1994-2015)


01. Officially Dead
02. Straight Jacket (Demo)
03. Smoke & Mirrors (Demo)
04. The Light Behind Your Eyes 2:03
05. The Same Person (Remix) 3:51

Exact Audio Copy V0.99 prebeta 5 from 4. May 2009

EAC extraction logfile from 20. March 2010, 10:25

Veruca Salt / Officially Dead

Used drive : HL-DT-STDVD-RAM GH22NP20 Adapter: 1 ID: 0

Read mode : Secure
Utilize accurate stream : Yes
Defeat audio cache : Yes
Make use of C2 pointers : No

Read offset correction : 102
Overread into Lead-In and Lead-Out : Yes
Fill up missing offset samples with silence : Yes
Delete leading and trailing silent blocks : No
Null samples used in CRC calculations : Yes
Used interface : Native Win32 interface for Win NT & 2000
Gap handling : Appended to previous track

Used output format : User Defined Encoder
Selected bitrate : 768 kBit/s
Quality : High
Add ID3 tag : No
Command line compressor : C:\Program Files\Exact Audio Copy\FLAC\FLAC.EXE
Additional command line options : -V -8 -T "artist=%a" -T "title=%t" -T "album=%g" -T "date=%y" -T "tracknumber=%n" -T "genre=%m" %s

TOC of the extracted CD

Track | Start | Length | Start sector | End sector
––––––––––––––––––––––––––––-
1 | 0:00.00 | 2:49.15 | 0 | 12689
2 | 2:49.15 | 3:52.56 | 12690 | 30145
3 | 6:41.71 | 3:55.32 | 30146 | 47802
4 | 10:37.28 | 2:03.25 | 47803 | 57052
5 | 12:40.53 | 3:51.18 | 57053 | 74395

Track 1

Filename C:\EAC\Veruca Salt - Officially Dead - 2003\01 - Officially Dead.wav

Pre-gap length 0:00:02.00

Peak level 100.0 %
Track quality 100.0 %
Test CRC 05CCA441
Copy CRC 05CCA441
Accurately ripped (confidence 1) [1DC1DB23]
Copy OK

Track 2

Filename C:\EAC\Veruca Salt - Officially Dead - 2003\02 - Straightjacket (demo).wav

Peak level 98.9 %
Track quality 99.9 %
Test CRC 93BF7A7B
Copy CRC 93BF7A7B
Accurately ripped (confidence 1) [3A1C9CA9]
Copy OK

Track 3

Filename C:\EAC\Veruca Salt - Officially Dead - 2003\03 - Smoke & Mirrors (demo).wav

Peak level 98.8 %
Track quality 99.9 %
Test CRC 1F9064F9
Copy CRC 1F9064F9
Accurately ripped (confidence 1) [BCF2D4D4]
Copy OK

Track 4

Filename C:\EAC\Veruca Salt - Officially Dead - 2003\04 - The Light Behind Your Eyes.wav

Peak level 70.0 %
Track quality 100.0 %
Test CRC FCA9360B
Copy CRC FCA9360B
Accurately ripped (confidence 1) [871B2AEA]
Copy OK

Track 5

Filename C:\EAC\Veruca Salt - Officially Dead - 2003\05 - The Same Person (remix).wav

Peak level 98.8 %
Track quality 100.0 %
Test CRC 28B18278
Copy CRC 28B18278
Accurately ripped (confidence 1) [F9AF6AB6]
Copy OK

All tracks accurately ripped

No errors occurred

End of status report


2005 - The Lords Of Sound And Lesser Things

Veruca Salt - Discography (1994-2015)


01. Save You
02. Blood on My Hands
03. The Sun
04. I Got My Pants On
05. Firefly
06. For Days

Exact Audio Copy V0.99 prebeta 5 from 4. May 2009

EAC extraction logfile from 20. March 2010, 10:25

Veruca Salt / Officially Dead

Used drive : HL-DT-STDVD-RAM GH22NP20 Adapter: 1 ID: 0

Read mode : Secure
Utilize accurate stream : Yes
Defeat audio cache : Yes
Make use of C2 pointers : No

Read offset correction : 102
Overread into Lead-In and Lead-Out : Yes
Fill up missing offset samples with silence : Yes
Delete leading and trailing silent blocks : No
Null samples used in CRC calculations : Yes
Used interface : Native Win32 interface for Win NT & 2000
Gap handling : Appended to previous track

Used output format : User Defined Encoder
Selected bitrate : 768 kBit/s
Quality : High
Add ID3 tag : No
Command line compressor : C:\Program Files\Exact Audio Copy\FLAC\FLAC.EXE
Additional command line options : -V -8 -T "artist=%a" -T "title=%t" -T "album=%g" -T "date=%y" -T "tracknumber=%n" -T "genre=%m" %s

TOC of the extracted CD

Track | Start | Length | Start sector | End sector
––––––––––––––––––––––––––––-
1 | 0:00.00 | 2:49.15 | 0 | 12689
2 | 2:49.15 | 3:52.56 | 12690 | 30145
3 | 6:41.71 | 3:55.32 | 30146 | 47802
4 | 10:37.28 | 2:03.25 | 47803 | 57052
5 | 12:40.53 | 3:51.18 | 57053 | 74395

Track 1

Filename C:\EAC\Veruca Salt - Officially Dead - 2003\01 - Officially Dead.wav

Pre-gap length 0:00:02.00

Peak level 100.0 %
Track quality 100.0 %
Test CRC 05CCA441
Copy CRC 05CCA441
Accurately ripped (confidence 1) [1DC1DB23]
Copy OK

Track 2

Filename C:\EAC\Veruca Salt - Officially Dead - 2003\02 - Straightjacket (demo).wav

Peak level 98.9 %
Track quality 99.9 %
Test CRC 93BF7A7B
Copy CRC 93BF7A7B
Accurately ripped (confidence 1) [3A1C9CA9]
Copy OK

Track 3

Filename C:\EAC\Veruca Salt - Officially Dead - 2003\03 - Smoke & Mirrors (demo).wav

Peak level 98.8 %
Track quality 99.9 %
Test CRC 1F9064F9
Copy CRC 1F9064F9
Accurately ripped (confidence 1) [BCF2D4D4]
Copy OK

Track 4

Filename C:\EAC\Veruca Salt - Officially Dead - 2003\04 - The Light Behind Your Eyes.wav

Peak level 70.0 %
Track quality 100.0 %
Test CRC FCA9360B
Copy CRC FCA9360B
Accurately ripped (confidence 1) [871B2AEA]
Copy OK

Track 5

Filename C:\EAC\Veruca Salt - Officially Dead - 2003\05 - The Same Person (remix).wav

Peak level 98.8 %
Track quality 100.0 %
Test CRC 28B18278
Copy CRC 28B18278
Accurately ripped (confidence 1) [F9AF6AB6]
Copy OK

All tracks accurately ripped

No errors occurred

End of status report