Subcategories

Vicious Rumors - Concussion Protocol (2016) [Japanese Ed.]

Posted By: Andi_Deris
Vicious Rumors - Concussion Protocol (2016) [Japanese Ed.]

Vicious Rumors - Concussion Protocol (2016) [Japanese Ed.]
EAC Rip | FLAC: Image+Cue+Log | 417 Mb | MP3 CBR 320 kbps | 138 Mb | Scans | 60 Mb | Time: 58:20
Marquee Inc./Avalon | MICP-11311
Heavy/Power Metal, Groove Metal

San Francisco Bay Area metallers VICIOUS RUMORS have set "Concussion Protocol" as the title of their twelfth studio album. The CD features eleven brand new songs and tells a chilling story of an armageddon by a global killer asteroid and how humanity unravels in the wake of the news. It's the first concept album for the band.

Thorpe states: "The album is relentless and crushing in true, classic VICIOUS RUMORS style but with many twists and turns. Believe me, you're in for a treat, VRazors!!! If you've ever been a fan of VICIOUS RUMORS, SABBATH, PRIEST or MAIDEN and a little Bay Area-style thrash thrown in for good measure, then this album is definitely for you!!! Everything you love about VICIOUS RUMORS is present throughout the whole album!!"

Vicious Rumors - Concussion Protocol (2016) [Japanese Ed.]




Vicious Rumors - Concussion Protocol (2016) [Japanese Ed.]


Track Listing

01. Concussion Protocol (04:56)
02. Chemical Slave (05:51)
03. Victims Of A Digital World (04:13)
04. Chasing The Priest (04:13)
05. Last Of Our Kind (03:57)
06. 1000 Years (03:39)
07. Circle Of Secrets (05:05)
08. Take It Or Leave It (03:24)
09. Bastards (04:41)
10. Every Blessing's A Curse (04:14)
11. Life For A Life (010:12)
12. Death Bed Razor (Bonus track for Japan) (03:55)

Produced by Geoff Thorpe & Juan Urteaga

The Band

• Geoff Thorpe - Lead, Rhythm, Acoustic and Harmony Guitars, Back up and Harmony Vocals, Lead Vocals "Life For A Life"
• Larry Howe - Drums, Back up and Harmony Vocals
• Nick Holleman - Vocals, Back up and Harmony Vocals
• Tilen Hudrap - Bass Guitar, Back up and Harmony Vocals
• Thaen Rasmussen - Lead and Harmony Guitars

*****
• Brad Gillis (NIGHT RANGER, OZZY OSBOURNE) - solo on "Last Of Our Kind"
• Steve Smyth (NEVERMORE, TESTAMENT, FORBIDDEN) - solo on "Chemical Slave"
• Juan Urteaga & Jimmie Evans III - Back up Vocals

Exact Audio Copy V1.2 from 12. August 2016

EAC extraction logfile from 29. August 2016, 13:49

Vicious Rumors / Concussion Protocol (Japan)

Used drive : ATAPI iHAS122 W Adapter: 2 ID: 0

Read mode : Secure
Utilize accurate stream : Yes
Defeat audio cache : Yes
Make use of C2 pointers : No

Read offset correction : 48
Overread into Lead-In and Lead-Out : No
Fill up missing offset samples with silence : Yes
Delete leading and trailing silent blocks : No
Null samples used in CRC calculations : Yes
Used interface : Installed external ASPI interface

Used output format : User Defined Encoder
Selected bitrate : 1024 kBit/s
Quality : High
Add ID3 tag : No
Command line compressor : C:\Program Files\FLAC\flac.exe
Additional command line options : -V -8 -T "Date=%year%" -T "Genre=%genre%" -T"COMMENT=Ripped by Ilijan" -8 -V %source%


TOC of the extracted CD

Track | Start | Length | Start sector | End sector
––––––––––––––––––––––––––––-
1 | 0:00.00 | 4:56.14 | 0 | 22213
2 | 4:56.14 | 5:50.52 | 22214 | 48515
3 | 10:46.66 | 4:13.15 | 48516 | 67505
4 | 15:00.06 | 4:13.24 | 67506 | 86504
5 | 19:13.30 | 3:56.43 | 86505 | 104247
6 | 23:09.73 | 3:39.14 | 104248 | 120686
7 | 26:49.12 | 5:04.60 | 120687 | 143546
8 | 31:53.72 | 3:24.03 | 143547 | 158849
9 | 35:18.00 | 4:40.68 | 158850 | 179917
10 | 39:58.68 | 4:14.10 | 179918 | 198977
11 | 44:13.03 | 10:11.53 | 198978 | 244855
12 | 54:24.56 | 3:54.74 | 244856 | 262479


Range status and errors

Selected range

Filename D:\ilко\Vicious Rumors - Concussion Protocol (Japan).wav

Peak level 100.0 %
Extraction speed 3.9 X
Range quality 100.0 %
Test CRC 2732016F
Copy CRC 2732016F
Copy OK

No errors occurred


AccurateRip summary

Track 1 not present in database
Track 2 not present in database
Track 3 not present in database
Track 4 not present in database
Track 5 not present in database
Track 6 not present in database
Track 7 not present in database
Track 8 not present in database
Track 9 not present in database
Track 10 not present in database
Track 11 not present in database
Track 12 not present in database

None of the tracks are present in the AccurateRip database

End of status report

–– CUETools DB Plugin V2.1.6

[CTDB TOCID: aQyF_j1uj3.epGETCKGoGhX59N4-] disk not present in database
Submit result: aQyF_j1uj3.epGETCKGoGhX59N4- has been uploaded


==== Log checksum 085686E5CDADBB7C78A5EC71C1E3028F763A26BD55E0976304F3DC159CB2779E ====


Many thanks to the original uploader: Ilijan

SEE also:
Paradox 2016 Pangea (2016) [Japanese Ed.]

Sunburst 2016 Fragments Of Creation [Japanese Licensed]
–––––––––
Nitroflare