Tags
Language
Tags

Vladimir Horowitz - Schumann: Kinderszenen, Fantaisie, Arabeske (2003)

Posted By: tirexiss
Vladimir Horowitz - Schumann: Kinderszenen, Fantaisie, Arabeske (2003)

Vladimir Horowitz - Schumann: Kinderszenen, Fantaisie, Arabeske (2003)
EAC | FLAC (image+.cue, log) | Covers Included | 57:49 | 255 MB
Genre: Classical | Label: Sony Classical | Catalog: 90441

This is a very fine sampler of Horowitz's Schumann - surely one of the great interpretative acts of the last century? It is at least one of the greatest - probably the greatest - performance(s) of Kinderszenen around; Horowitz's almost frightening ability to give life to these pieces is inimitable, and the poetic depths and shadows of various nuances he brings to the more reflective pieces is peerless. It is, quite simply, an almost perfect performance. He is no less impressive in the other works either; the Fantasie is beautifully shaped and wonderfully played. One could, perhaps, object that it is almost a little too mellow for perfection - that it could ideally have received a little more tension and force - but that complaint would indeed be no more than a nitpick. Sound quality is good, if a little dry.

Vladimir Horowitz - Schumann: Kinderszenen, Fantaisie, Arabeske (2003)

Track List:

01. Kinderszenen Op.15 - 1. Von Fremden Ländern und Menschen [0:01:33.29]
02. Kinderszenen Op.15 - 2. Kuriose Geschichte [0:01:09.10]
03. Kinderszenen Op.15 - 3. Hasche Mann [0:00:36.49]
04. Kinderszenen Op.15 - 4. Bittendes Kind [0:00:54.74]
05. Kinderszenen Op.15 - 5. Glückes genug [0:00:48.08]
06. Kinderszenen Op.15 - 6. Wichtige Begenbenheit [0:00:48.16]
07. Kinderszenen Op.15 - 7. Träumerei [0:02:54.65]
08. Kinderszenen Op.15 - 8. Am Kamin [0:01:07.38]
09. Kinderszenen Op.15 - 9. Ritter vom Steckenpferd [0:00:39.57]
10. Kinderszenen Op.15 - 10. Fast zu ernst [0:01:43.22]
11. Kinderszenen Op.15 - 11. Fürchtenmachen [0:01:43.17]
12. Kinderszenen Op.15 - 12. Kind im Einschlummern [0:01:47.36]
13. Kinderszenen Op.15 - 13. Der Dichter spricht [0:02:08.46]
14. Arabeske, in C major, Op.18 [0:06:39.57]
15. Fantaisie in C major Op.17 - I. Durchaus phatastisch und leidenschaftlich vorzutragen [0:12:35.57]
16. Fantaisie in C major Op.17 - II. Mässig. Durchaus energisch [0:07:56.49]
17. Fantaisie in C major Op.17 - III. Langsam getragen. Durchweg leise zu halten [0:10:06.68]
18. Träumerei [0:02:44.35]

Performers:
Vladimir Horowitz - piano

Exact Audio Copy V1.0 beta 3 from 29. August 2011

EAC extraction logfile from 3. May 2014, 14:47

Vladimir Horowitz / Schumann - Kinderszenen, Fantaisie, Arabeske - Vladimir Horowitz

Used drive : TSSTcorpCDDVDW SH-222BB Adapter: 2 ID: 1

Read mode : Secure
Utilize accurate stream : Yes
Defeat audio cache : Yes
Make use of C2 pointers : No

Read offset correction : 6
Overread into Lead-In and Lead-Out : No
Fill up missing offset samples with silence : Yes
Delete leading and trailing silent blocks : No
Null samples used in CRC calculations : Yes
Used interface : Native Win32 interface for Win NT & 2000

Used output format : User Defined Encoder
Selected bitrate : 896 kBit/s
Quality : High
Add ID3 tag : No
Command line compressor : C:\Program Files\Exact Audio Copy\FLAC\FLAC.EXE
Additional command line options : -8 -V -T "TITLE=%title%" -T "ARTIST=%artist%" -T "ALBUMARTIST=%albumartist%" -T "ALBUM=%albumtitle%" -T "DATE=%year%" -T "TRACKNUMBER=%tracknr%" -T "TRACKTOTAL=%numtracks%" -T "GENRE=%genre%" -T "COMMENT=%comment%" -T "PERFORMER=%albuminterpret%" -T "COMPOSER=%composer%" %source% -o %dest%


TOC of the extracted CD

Track | Start | Length | Start sector | End sector
––––––––––––––––––––––––––––-
1 | 0:00.00 | 1:33.29 | 0 | 7003
2 | 1:33.29 | 1:09.10 | 7004 | 12188
3 | 2:42.39 | 0:36.49 | 12189 | 14937
4 | 3:19.13 | 0:54.74 | 14938 | 19061
5 | 4:14.12 | 0:48.08 | 19062 | 22669
6 | 5:02.20 | 0:48.16 | 22670 | 26285
7 | 5:50.36 | 2:54.65 | 26286 | 39400
8 | 8:45.26 | 1:07.38 | 39401 | 44463
9 | 9:52.64 | 0:39.57 | 44464 | 47445
10 | 10:32.46 | 1:43.22 | 47446 | 55192
11 | 12:15.68 | 1:43.17 | 55193 | 62934
12 | 13:59.10 | 1:47.36 | 62935 | 70995
13 | 15:46.46 | 2:08.46 | 70996 | 80641
14 | 17:55.17 | 6:39.57 | 80642 | 110623
15 | 24:34.74 | 12:35.57 | 110624 | 167305
16 | 37:10.56 | 7:56.49 | 167306 | 203054
17 | 45:07.30 | 10:06.68 | 203055 | 248572
18 | 55:14.23 | 2:44.35 | 248573 | 260907


Range status and errors

Selected range

Filename E:\4000\[4067] Schumann – Kinderszenen, Fantaisie, Arabeske – Vladimir Horowitz\Schumann - Kinderszenen, Fantaisie, Arabeske - Vladimir Horowitz.wav

Peak level 85.1 %
Extraction speed 6.6 X
Range quality 100.0 %
Test CRC F831859A
Copy CRC F831859A
Copy OK

No errors occurred


AccurateRip summary

Track 1 accurately ripped (confidence 3) [D76C2E59] (AR v2)
Track 2 accurately ripped (confidence 3) [47043706] (AR v2)
Track 3 accurately ripped (confidence 3) [99D64562] (AR v2)
Track 4 accurately ripped (confidence 3) [7FB12984] (AR v2)
Track 5 accurately ripped (confidence 3) [A8D7AD0F] (AR v2)
Track 6 accurately ripped (confidence 3) [2DA2DAC6] (AR v2)
Track 7 accurately ripped (confidence 3) [D2F9EDD6] (AR v2)
Track 8 accurately ripped (confidence 3) [483CE9F5] (AR v2)
Track 9 accurately ripped (confidence 3) [FB9459BF] (AR v2)
Track 10 accurately ripped (confidence 3) [020EAC77] (AR v2)
Track 11 accurately ripped (confidence 3) [B7CA9F79] (AR v2)
Track 12 accurately ripped (confidence 3) [8C3A3311] (AR v2)
Track 13 accurately ripped (confidence 3) [52A35E84] (AR v2)
Track 14 accurately ripped (confidence 3) [9ED9D2B0] (AR v2)
Track 15 accurately ripped (confidence 3) [24D7FF4C] (AR v2)
Track 16 accurately ripped (confidence 3) [C1DB121A] (AR v2)
Track 17 accurately ripped (confidence 3) [6FDCE959] (AR v2)
Track 18 accurately ripped (confidence 3) [53A643CC] (AR v2)

All tracks accurately ripped

End of status report

==== Log checksum FCC62CCF2FF8CBEA59FC11502C24F0DB75F9DE38383481936D3651ADD46995E0 ====

Thanks to the Original ripper (unknown)!

Welcome to my blog!

Download: