Subcategories
Tags
Language
Tags

VA - West Side Story (Original Broadway Cast) (1957) {1990 Columbia} **[RE-UP]**

Posted By: TestTickles
VA - West Side Story (Original Broadway Cast) (1957) {1990 Columbia} **[RE-UP]**

VA - West Side Story (Original Broadway Cast) (1957) {1990 Columbia}
EAC Rip | FLAC with CUE and log | scans | 287 mb
MP3 CBR 320kbps | RAR | 129 mb
Genre: musical

This is the original 1957 Broadway cast album for West Side Story. Released by Columbia Records, this CD is from the 1990 pressing.

VA - West Side Story (Original Broadway Cast) (1957) {1990 Columbia} **[RE-UP]**

01. Orchestra, The Jets - Prologue and Jet Song
02. Larry Kert - Something's Coming
03. Ensemble - The Dance At The Gym
04. Lerry Kert - Maria
05. Larry Kert & Carol Lawrence - Tonight (Duet)
06. Chita Rivera, Marilyn Cooper, Ren Grist & Shark Girls - America
07. Mickey Galin & The Jets - Cool
08. Larry Kert & Carol Lawrence - One Hand, One Heart
09. Quintet, Ensemble - Tonight (Quintet)
10. Orchestra - The Rumble
11. Carol Lawrence, Marilyn Cooper, Carmen Gutierrez & Elizabeth Taylor - I Feel Pretty
12. Reri Grist & Ensemble - Somewhere (Ballet)
13. Eddie Roll, Grover Dale & The Jets - Gee, Officer Krupke!
14. Carol Lawrence & Chita Rivera - A Boy Like That
15. Carol Lawrence & Chita Rivera - I Have A Love
16. Unknown - Finale

Produced by Goddard Lieberson

VA - West Side Story (Original Broadway Cast) (1957) {1990 Columbia} **[RE-UP]**


Exact Audio Copy V1.1 from 23. June 2015

EAC extraction logfile from 20. August 2016, 8:59

Cast / West Side Story (Original Broadway Cast)

Used drive : TEAC DVD-ROM DV-28SW Adapter: 1 ID: 0

Read mode : Secure
Utilize accurate stream : Yes
Defeat audio cache : Yes
Make use of C2 pointers : No

Read offset correction : 6
Overread into Lead-In and Lead-Out : No
Fill up missing offset samples with silence : Yes
Delete leading and trailing silent blocks : No
Null samples used in CRC calculations : Yes
Used interface : Native Win32 interface for Win NT & 2000
Gap handling : Appended to previous track

Used output format : Internal WAV Routines
Sample format : 44.100 Hz; 16 Bit; Stereo


TOC of the extracted CD

Track | Start | Length | Start sector | End sector
––––––––––––––––––––––––––––-
1 | 0:00.00 | 5:57.42 | 0 | 26816
2 | 5:57.42 | 2:34.43 | 26817 | 38409
3 | 8:32.10 | 3:03.25 | 38410 | 52159
4 | 11:35.35 | 2:39.15 | 52160 | 64099
5 | 14:14.50 | 3:54.27 | 64100 | 81676
6 | 18:09.02 | 4:34.60 | 81677 | 102286
7 | 22:43.62 | 4:01.20 | 102287 | 120381
8 | 26:45.07 | 3:02.50 | 120382 | 134081
9 | 29:47.57 | 3:42.18 | 134082 | 150749
10 | 33:30.00 | 2:44.70 | 150750 | 163119
11 | 36:14.70 | 2:49.20 | 163120 | 175814
12 | 39:04.15 | 7:34.42 | 175815 | 209906
13 | 46:38.57 | 4:04.13 | 209907 | 228219
14 | 50:42.70 | 2:06.67 | 228220 | 237736
15 | 52:49.62 | 2:11.40 | 237737 | 247601
16 | 55:01.27 | 1:59.23 | 247602 | 256549


Track 1

Filename C:\My Documents\My FLAC\VA - West Side Story (Original Broadway Cast) (1957) [FLAC] {1990 Columbia}\01 - Orchestra, The Jets - Prologue and Jet Song.wav

Pre-gap length 0:00:02.00

Peak level 100.0 %
Extraction speed 2.7 X
Track quality 99.9 %
Test CRC 4D8EC7D4
Copy CRC 4D8EC7D4
Accurately ripped (confidence 14) [08E583C4] (AR v2)
Copy OK

Track 2

Filename C:\My Documents\My FLAC\VA - West Side Story (Original Broadway Cast) (1957) [FLAC] {1990 Columbia}\02 - Larry Kert - Something's Coming.wav

Pre-gap length 0:00:01.47

Peak level 72.4 %
Extraction speed 3.0 X
Track quality 100.0 %
Test CRC FFE69EFD
Copy CRC FFE69EFD
Accurately ripped (confidence 14) [11F11699] (AR v2)
Copy OK

Track 3

Filename C:\My Documents\My FLAC\VA - West Side Story (Original Broadway Cast) (1957) [FLAC] {1990 Columbia}\03 - Ensemble - The Dance At The Gym.wav

Pre-gap length 0:00:01.50

Peak level 99.5 %
Extraction speed 3.3 X
Track quality 100.0 %
Test CRC 12D703F1
Copy CRC 12D703F1
Accurately ripped (confidence 14) [1F1342CE] (AR v2)
Copy OK

Track 4

Filename C:\My Documents\My FLAC\VA - West Side Story (Original Broadway Cast) (1957) [FLAC] {1990 Columbia}\04 - Lerry Kert - Maria.wav

Pre-gap length 0:00:01.20

Peak level 69.9 %
Extraction speed 3.4 X
Track quality 100.0 %
Test CRC EC9A6B7D
Copy CRC EC9A6B7D
Accurately ripped (confidence 14) [786AE2A5] (AR v2)
Copy OK

Track 5

Filename C:\My Documents\My FLAC\VA - West Side Story (Original Broadway Cast) (1957) [FLAC] {1990 Columbia}\05 - Larry Kert & Carol Lawrence - Tonight (Duet).wav

Pre-gap length 0:00:01.40

Peak level 65.5 %
Extraction speed 3.2 X
Track quality 99.9 %
Test CRC 9A877571
Copy CRC 9A877571
Accurately ripped (confidence 14) [7216819E] (AR v2)
Copy OK

Track 6

Filename C:\My Documents\My FLAC\VA - West Side Story (Original Broadway Cast) (1957) [FLAC] {1990 Columbia}\06 - Chita Rivera, Marilyn Cooper, Ren Grist & Shark Girls - America.wav

Pre-gap length 0:00:01.44

Peak level 100.0 %
Extraction speed 4.1 X
Track quality 100.0 %
Test CRC 09BEF50B
Copy CRC 09BEF50B
Accurately ripped (confidence 14) [89E50911] (AR v2)
Copy OK

Track 7

Filename C:\My Documents\My FLAC\VA - West Side Story (Original Broadway Cast) (1957) [FLAC] {1990 Columbia}\07 - Mickey Galin & The Jets - Cool.wav

Pre-gap length 0:00:01.14

Peak level 100.0 %
Extraction speed 4.3 X
Track quality 100.0 %
Test CRC DCBBA65E
Copy CRC DCBBA65E
Accurately ripped (confidence 14) [CBE4DB74] (AR v2)
Copy OK

Track 8

Filename C:\My Documents\My FLAC\VA - West Side Story (Original Broadway Cast) (1957) [FLAC] {1990 Columbia}\08 - Larry Kert & Carol Lawrence - One Hand, One Heart.wav

Pre-gap length 0:00:02.09

Peak level 55.5 %
Extraction speed 4.3 X
Track quality 100.0 %
Test CRC E2E374E8
Copy CRC E2E374E8
Accurately ripped (confidence 14) [1AD2ECD7] (AR v2)
Copy OK

Track 9

Filename C:\My Documents\My FLAC\VA - West Side Story (Original Broadway Cast) (1957) [FLAC] {1990 Columbia}\09 - Quintet, Ensemble - Tonight (Quintet).wav

Pre-gap length 0:00:02.09

Peak level 90.0 %
Extraction speed 4.6 X
Track quality 100.0 %
Test CRC 9877FC1E
Copy CRC 9877FC1E
Accurately ripped (confidence 14) [5A9E4413] (AR v2)
Copy OK

Track 10

Filename C:\My Documents\My FLAC\VA - West Side Story (Original Broadway Cast) (1957) [FLAC] {1990 Columbia}\10 - Orchestra - The Rumble.wav

Pre-gap length 0:00:02.27

Peak level 89.5 %
Extraction speed 4.5 X
Track quality 100.0 %
Test CRC 0F1EEB33
Copy CRC 0F1EEB33
Accurately ripped (confidence 14) [05A1C398] (AR v2)
Copy OK

Track 11

Filename C:\My Documents\My FLAC\VA - West Side Story (Original Broadway Cast) (1957) [FLAC] {1990 Columbia}\11 - Carol Lawrence, Marilyn Cooper, Carmen Gutierrez & Elizabeth Taylor - I Feel Pretty.wav

Pre-gap length 0:00:01.40

Peak level 100.0 %
Extraction speed 4.6 X
Track quality 100.0 %
Test CRC 39324BB2
Copy CRC 39324BB2
Accurately ripped (confidence 14) [8A1D4D55] (AR v2)
Copy OK

Track 12

Filename C:\My Documents\My FLAC\VA - West Side Story (Original Broadway Cast) (1957) [FLAC] {1990 Columbia}\12 - Reri Grist & Ensemble - Somewhere (Ballet).wav

Pre-gap length 0:00:01.35

Peak level 92.5 %
Extraction speed 5.4 X
Track quality 100.0 %
Test CRC E7BCA6C5
Copy CRC E7BCA6C5
Accurately ripped (confidence 13) [D5050242] (AR v2)
Copy OK

Track 13

Filename C:\My Documents\My FLAC\VA - West Side Story (Original Broadway Cast) (1957) [FLAC] {1990 Columbia}\13 - Eddie Roll, Grover Dale & The Jets - Gee, Officer Krupke!.wav

Pre-gap length 0:00:01.59

Peak level 100.0 %
Extraction speed 5.4 X
Track quality 100.0 %
Test CRC B4E7004E
Copy CRC B4E7004E
Accurately ripped (confidence 12) [5B3CAB79] (AR v2)
Copy OK

Track 14

Filename C:\My Documents\My FLAC\VA - West Side Story (Original Broadway Cast) (1957) [FLAC] {1990 Columbia}\14 - Carol Lawrence & Chita Rivera - A Boy Like That.wav

Pre-gap length 0:00:01.32

Peak level 81.9 %
Extraction speed 4.8 X
Track quality 100.0 %
Test CRC 96C88E0E
Copy CRC 96C88E0E
Accurately ripped (confidence 13) [1660140D] (AR v2)
Copy OK

Track 15

Filename C:\My Documents\My FLAC\VA - West Side Story (Original Broadway Cast) (1957) [FLAC] {1990 Columbia}\15 - Carol Lawrence & Chita Rivera - I Have A Love.wav

Pre-gap length 0:00:00.02

Peak level 90.2 %
Extraction speed 5.0 X
Track quality 100.0 %
Test CRC A057E8A3
Copy CRC A057E8A3
Accurately ripped (confidence 13) [58DA79C1] (AR v2)
Copy OK

Track 16

Filename C:\My Documents\My FLAC\VA - West Side Story (Original Broadway Cast) (1957) [FLAC] {1990 Columbia}\16 - Unknown - Finale.wav

Pre-gap length 0:00:01.49

Peak level 85.0 %
Extraction speed 4.9 X
Track quality 100.0 %
Test CRC 4B9AE869
Copy CRC 4B9AE869
Accurately ripped (confidence 13) [75C1C807] (AR v2)
Copy OK


All tracks accurately ripped

No errors occurred

End of status report

–– CUETools DB Plugin V2.1.6

[CTDB TOCID: w905rYxIr6PD5sar9Uvw9KORuzQ-] found
Submit result: w905rYxIr6PD5sar9Uvw9KORuzQ- has been confirmed
Track | CTDB Status
1 | (24/24) Accurately ripped
2 | (24/24) Accurately ripped
3 | (23/24) Accurately ripped
4 | (24/24) Accurately ripped
5 | (24/24) Accurately ripped
6 | (24/24) Accurately ripped
7 | (24/24) Accurately ripped
8 | (24/24) Accurately ripped
9 | (24/24) Accurately ripped
10 | (24/24) Accurately ripped
11 | (24/24) Accurately ripped
12 | (24/24) Accurately ripped
13 | (24/24) Accurately ripped
14 | (24/24) Accurately ripped
15 | (24/24) Accurately ripped
16 | (24/24) Accurately ripped


==== Log checksum 5D4008A66699CB06C875F834D2A4B41D9515CF5705FBBFE63283A6B9A6BCF9DA ====