Tags
Language
Tags

War - The Very Best of War (2003) 2CD

Posted By: Designol
War - The Very Best of War (2003) 2CD

War - The Very Best of War (2003) 2CD
EAC | FLAC | Tracks (Cue&Log) ~ 908 Mb | Mp3 (CBR320) ~ 347 Mb
Label: Avenue/Rhino | # 8122-73895-2 | Time: 02:25:47 | Scans included
Genre: Funk, Soul, Funk Rock, Latin Rock

There really are more War best-of packages than the situation warrants, and while the double-CD The Very Best of War is a fine compilation if you don't already have one in your collection, it's questionable whether it was a necessary addition to the band's discography. For one thing, it doesn't differ all that much from the previous two-CD War best-of on Rhino, Anthology (1970-1994). Sure, each has a few tracks not on the other, but both are built around their lengthy string of big hits. Even Barry Alfonso's accompanying essay was adapted from the liner notes to Anthology (1970-1994). Still, this does have all of the big chart hits and a few minor ones, as well as standout album tracks from throughout the 1970s and early '80s that illustrate the band's versatility. Reading the small print on the track listings, it's revealed that half a dozen of these cuts are edits that either appear here for the first time or were only available on previous anthologies or imports. Additionally, almost a dozen of the other tracks are the edited single versions, though it's unlikely many collectors or fans will be either excited or piqued by differences between these and other available variations.

Review by Richie Unterberger, Allmusic.com

War - The Very Best of War (2003) 2CD



Tracklist:

CD1:

01. Spill The Wine (04:53)
02. Tobacco Road (03:58)
03. All Day Music (03:59)
04. Slippin' Into Darkness (03:47)
05. Get Down (04:29)
06. Nappy Head (Theme From 'Ghetto Man') (03:19)
07. The World Is A Ghetto (04:08)
08. City, Country, City (03:54)
09. The Cisco Kid (03:48)
10. Where Was You At (03:25)
11. Four Cornered Room (05:10)
12. Gypsy Man (05:23)
13. Me And Baby Brother (03:31)
14. Deliver The Word (04:39)
15. Southern Part of Texas (03:53)
16. Ballero (Live, 1972) (03:26)
17. Why Can't We Be Friends (03:49)

CD2:

01. Low Rider (03:11)
02. Don't Let No One Get You Down (04:01)
03. Heartbeat (04:11)
04. Smile Happy (04:23)
05. So (04:59)
06. Summer (04:03)
07. L.A. Sunshine (04:01)
08. River Niger (05:17)
09. Galaxy (04:46)
10. Youngblood (Livin' In The Streets) (04:02)
11. I'm The One Who Understands (04:50)
12. Cinco De Mayo (04:07)
13. You Got The Power (04:02)
14. Outlaw (03:59)
15. Baby It's Cold Outside (05:56)
16. Peace Sign (04:29)
17. East L.A. (War & Jose Feliciano) (05:41)


Exact Audio Copy V1.0 beta 3 from 29. August 2011

EAC extraction logfile from 2. August 2014, 10:36

War / The Very Best Of CD01

Used drive : HL-DT-STDVDRAM GSA-T50L Adapter: 1 ID: 0

Read mode : Secure
Utilize accurate stream : Yes
Defeat audio cache : No
Make use of C2 pointers : No

Read offset correction : 667
Overread into Lead-In and Lead-Out : No
Fill up missing offset samples with silence : Yes
Delete leading and trailing silent blocks : No
Null samples used in CRC calculations : Yes
Used interface : Native Win32 interface for Win NT & 2000
Gap handling : Appended to previous track

Used output format : User Defined Encoder
Selected bitrate : 1024 kBit/s
Quality : High
Add ID3 tag : No
Command line compressor : C:\Program Files\Exact Audio Copy\Flac\flac.exe
Additional command line options : -8 -V -T "ARTIST=%artist%" -T "TITLE=%title%" -T "ALBUM=%albumtitle%" -T "DATE=%year%" -T "TRACKNUMBER=%tracknr%" -T "GENRE=%genre%" -T "PERFORMER=%albuminterpret%" -T "COMPOSER=%composer%" %haslyrics%–tag-from-file=LYRICS="%lyricsfile%"%haslyrics% -T "ALBUMARTIST=%albumartist%" -T "DISCNUMBER=%cdnumber%" -T "TOTALDISCS=%totalcds%" -T "TOTALTRACKS=%numtracks%" -T "COMMENT=%comment%" %source% -o %dest%


TOC of the extracted CD

Track | Start | Length | Start sector | End sector
––––––––––––––––––––––––––––-
1 | 0:00.00 | 4:53.17 | 0 | 21991
2 | 4:53.17 | 3:58.72 | 21992 | 39913
3 | 8:52.14 | 3:59.48 | 39914 | 57886
4 | 12:51.62 | 3:47.40 | 57887 | 74951
5 | 16:39.27 | 4:29.01 | 74952 | 95127
6 | 21:08.28 | 3:19.52 | 95128 | 110104
7 | 24:28.05 | 4:08.63 | 110105 | 128767
8 | 28:36.68 | 3:54.49 | 128768 | 146366
9 | 32:31.42 | 3:48.36 | 146367 | 163502
10 | 36:20.03 | 3:25.34 | 163503 | 178911
11 | 39:45.37 | 5:10.37 | 178912 | 202198
12 | 44:55.74 | 5:23.47 | 202199 | 226470
13 | 50:19.46 | 3:31.39 | 226471 | 242334
14 | 53:51.10 | 4:39.68 | 242335 | 263327
15 | 58:31.03 | 3:53.53 | 263328 | 280855
16 | 62:24.56 | 3:26.08 | 280856 | 296313
17 | 65:50.64 | 3:49.07 | 296314 | 313495


Track 1

Filename C:\FLAC\01 - Eric Burdon & War - Spill The Wine.wav

Pre-gap length 0:00:02.00

Peak level 97.2 %
Extraction speed 4.4 X
Track quality 100.0 %
Test CRC 2D59FD50
Copy CRC 2D59FD50
Accurately ripped (confidence 26) [87751DF1] (AR v2)
Copy OK

Track 2

Filename C:\FLAC\02 - Eric Burdon & War - Tobacco Road.wav

Peak level 99.8 %
Extraction speed 4.8 X
Track quality 100.0 %
Test CRC D1B4A212
Copy CRC D1B4A212
Accurately ripped (confidence 26) [428DEA3B] (AR v2)
Copy OK

Track 3

Filename C:\FLAC\03 - War - All Day Music.wav

Peak level 92.5 %
Extraction speed 5.2 X
Track quality 100.0 %
Test CRC 3D15D388
Copy CRC 3D15D388
Accurately ripped (confidence 26) [54792FD1] (AR v2)
Copy OK

Track 4

Filename C:\FLAC\04 - War - Slippin' Into Darkness.wav

Peak level 97.2 %
Extraction speed 5.7 X
Track quality 100.0 %
Test CRC 21D2B824
Copy CRC 21D2B824
Accurately ripped (confidence 26) [7C8B69E6] (AR v2)
Copy OK

Track 5

Filename C:\FLAC\05 - War - Get Down.wav

Peak level 95.3 %
Extraction speed 6.1 X
Track quality 100.0 %
Test CRC A4B10A03
Copy CRC A4B10A03
Accurately ripped (confidence 26) [64425696] (AR v2)
Copy OK

Track 6

Filename C:\FLAC\06 - War - Nappy Head (Theme From 'Ghetto Man').wav

Peak level 97.2 %
Extraction speed 2.3 X
Track quality 100.0 %
Test CRC 099535B0
Copy CRC 099535B0
Accurately ripped (confidence 26) [91795ABD] (AR v2)
Copy OK

Track 7

Filename C:\FLAC\07 - War - The World Is A Ghetto.wav

Peak level 95.0 %
Extraction speed 6.6 X
Track quality 100.0 %
Test CRC FF54B044
Copy CRC FF54B044
Accurately ripped (confidence 26) [78207C2E] (AR v2)
Copy OK

Track 8

Filename C:\FLAC\08 - War - City, Country, City.wav

Peak level 99.8 %
Extraction speed 6.8 X
Track quality 100.0 %
Test CRC A10EC7F8
Copy CRC A10EC7F8
Accurately ripped (confidence 26) [5269F720] (AR v2)
Copy OK

Track 9

Filename C:\FLAC\09 - War - The Cisco Kid.wav

Peak level 97.4 %
Extraction speed 7.3 X
Track quality 100.0 %
Test CRC 3355AACA
Copy CRC 3355AACA
Accurately ripped (confidence 26) [07235CF6] (AR v2)
Copy OK

Track 10

Filename C:\FLAC\10 - War - Where Was You At.wav

Peak level 98.0 %
Extraction speed 7.3 X
Track quality 100.0 %
Test CRC C6CC932A
Copy CRC C6CC932A
Accurately ripped (confidence 26) [AAB4975D] (AR v2)
Copy OK

Track 11

Filename C:\FLAC\11 - War - Four Cornered Room.wav

Peak level 97.2 %
Extraction speed 7.9 X
Track quality 100.0 %
Test CRC 05383BC9
Copy CRC 05383BC9
Accurately ripped (confidence 25) [28EBDE26] (AR v2)
Copy OK

Track 12

Filename C:\FLAC\12 - War - Gypsy Man.wav

Peak level 98.3 %
Extraction speed 8.0 X
Track quality 100.0 %
Test CRC 6BBD2AA9
Copy CRC 6BBD2AA9
Accurately ripped (confidence 26) [25AAE539] (AR v2)
Copy OK

Track 13

Filename C:\FLAC\13 - War - Me And Baby Brother.wav

Peak level 97.9 %
Extraction speed 8.5 X
Track quality 100.0 %
Test CRC EEACAD3B
Copy CRC EEACAD3B
Accurately ripped (confidence 26) [18BC60EC] (AR v2)
Copy OK

Track 14

Filename C:\FLAC\14 - War - Deliver The Word.wav

Peak level 83.6 %
Extraction speed 8.7 X
Track quality 100.0 %
Test CRC 81E4893A
Copy CRC 81E4893A
Accurately ripped (confidence 26) [17EF3A29] (AR v2)
Copy OK

Track 15

Filename C:\FLAC\15 - War - Southern Part of Texas.wav

Peak level 88.7 %
Extraction speed 8.6 X
Track quality 99.9 %
Test CRC 493BD0AF
Copy CRC 493BD0AF
Accurately ripped (confidence 26) [4BE81744] (AR v2)
Copy OK

Track 16

Filename C:\FLAC\16 - War - Ballero (Live, 1972).wav

Peak level 97.6 %
Extraction speed 8.8 X
Track quality 100.0 %
Test CRC 3BDFE180
Copy CRC 3BDFE180
Accurately ripped (confidence 26) [BA9E066A] (AR v2)
Copy OK

Track 17

Filename C:\FLAC\17 - War - Why Can't We Be Friends.wav

Peak level 90.8 %
Extraction speed 9.4 X
Track quality 99.9 %
Test CRC 237905CC
Copy CRC 237905CC
Accurately ripped (confidence 25) [17236F0D] (AR v2)
Copy OK


All tracks accurately ripped

No errors occurred

End of status report

–– CUETools DB Plugin V2.1.3

[CTDB TOCID: L2Xrh8tDiR4PwXQVLR1eTgkPqgU-] found, Submit result: L2Xrh8tDiR4PwXQVLR1eTgkPqgU- has been confirmed
[777b2257] (31/35) Accurately ripped
[e08b76ca] (01/35) No match
[c6e3888a] (01/35) No match
[f2a6716c] (01/35) No match
[5930b75e] (01/35) No match


==== Log checksum D416E15AE940A2B0EBCCF66C55C04F0D27F8EC16A03D09F67D2B76B77EF1109B ====

––––––––––––––––––––––––––––––

Exact Audio Copy V1.0 beta 3 from 29. August 2011

EAC extraction logfile from 2. August 2014, 10:36

War / The Very Best Of CD01

Used drive : HL-DT-STDVDRAM GSA-T50L Adapter: 1 ID: 0

Read mode : Secure
Utilize accurate stream : Yes
Defeat audio cache : No
Make use of C2 pointers : No

Read offset correction : 667
Overread into Lead-In and Lead-Out : No
Fill up missing offset samples with silence : Yes
Delete leading and trailing silent blocks : No
Null samples used in CRC calculations : Yes
Used interface : Native Win32 interface for Win NT & 2000
Gap handling : Appended to previous track

Used output format : User Defined Encoder
Selected bitrate : 1024 kBit/s
Quality : High
Add ID3 tag : No
Command line compressor : C:\Program Files\Exact Audio Copy\Flac\flac.exe
Additional command line options : -8 -V -T "ARTIST=%artist%" -T "TITLE=%title%" -T "ALBUM=%albumtitle%" -T "DATE=%year%" -T "TRACKNUMBER=%tracknr%" -T "GENRE=%genre%" -T "PERFORMER=%albuminterpret%" -T "COMPOSER=%composer%" %haslyrics%–tag-from-file=LYRICS="%lyricsfile%"%haslyrics% -T "ALBUMARTIST=%albumartist%" -T "DISCNUMBER=%cdnumber%" -T "TOTALDISCS=%totalcds%" -T "TOTALTRACKS=%numtracks%" -T "COMMENT=%comment%" %source% -o %dest%


TOC of the extracted CD

Track | Start | Length | Start sector | End sector
––––––––––––––––––––––––––––-
1 | 0:00.00 | 4:53.17 | 0 | 21991
2 | 4:53.17 | 3:58.72 | 21992 | 39913
3 | 8:52.14 | 3:59.48 | 39914 | 57886
4 | 12:51.62 | 3:47.40 | 57887 | 74951
5 | 16:39.27 | 4:29.01 | 74952 | 95127
6 | 21:08.28 | 3:19.52 | 95128 | 110104
7 | 24:28.05 | 4:08.63 | 110105 | 128767
8 | 28:36.68 | 3:54.49 | 128768 | 146366
9 | 32:31.42 | 3:48.36 | 146367 | 163502
10 | 36:20.03 | 3:25.34 | 163503 | 178911
11 | 39:45.37 | 5:10.37 | 178912 | 202198
12 | 44:55.74 | 5:23.47 | 202199 | 226470
13 | 50:19.46 | 3:31.39 | 226471 | 242334
14 | 53:51.10 | 4:39.68 | 242335 | 263327
15 | 58:31.03 | 3:53.53 | 263328 | 280855
16 | 62:24.56 | 3:26.08 | 280856 | 296313
17 | 65:50.64 | 3:49.07 | 296314 | 313495


Track 1

Filename C:\FLAC\01 - Eric Burdon & War - Spill The Wine.wav

Pre-gap length 0:00:02.00

Peak level 97.2 %
Extraction speed 4.4 X
Track quality 100.0 %
Test CRC 2D59FD50
Copy CRC 2D59FD50
Accurately ripped (confidence 26) [87751DF1] (AR v2)
Copy OK

Track 2

Filename C:\FLAC\02 - Eric Burdon & War - Tobacco Road.wav

Peak level 99.8 %
Extraction speed 4.8 X
Track quality 100.0 %
Test CRC D1B4A212
Copy CRC D1B4A212
Accurately ripped (confidence 26) [428DEA3B] (AR v2)
Copy OK

Track 3

Filename C:\FLAC\03 - War - All Day Music.wav

Peak level 92.5 %
Extraction speed 5.2 X
Track quality 100.0 %
Test CRC 3D15D388
Copy CRC 3D15D388
Accurately ripped (confidence 26) [54792FD1] (AR v2)
Copy OK

Track 4

Filename C:\FLAC\04 - War - Slippin' Into Darkness.wav

Peak level 97.2 %
Extraction speed 5.7 X
Track quality 100.0 %
Test CRC 21D2B824
Copy CRC 21D2B824
Accurately ripped (confidence 26) [7C8B69E6] (AR v2)
Copy OK

Track 5

Filename C:\FLAC\05 - War - Get Down.wav

Peak level 95.3 %
Extraction speed 6.1 X
Track quality 100.0 %
Test CRC A4B10A03
Copy CRC A4B10A03
Accurately ripped (confidence 26) [64425696] (AR v2)
Copy OK

Track 6

Filename C:\FLAC\06 - War - Nappy Head (Theme From 'Ghetto Man').wav

Peak level 97.2 %
Extraction speed 2.3 X
Track quality 100.0 %
Test CRC 099535B0
Copy CRC 099535B0
Accurately ripped (confidence 26) [91795ABD] (AR v2)
Copy OK

Track 7

Filename C:\FLAC\07 - War - The World Is A Ghetto.wav

Peak level 95.0 %
Extraction speed 6.6 X
Track quality 100.0 %
Test CRC FF54B044
Copy CRC FF54B044
Accurately ripped (confidence 26) [78207C2E] (AR v2)
Copy OK

Track 8

Filename C:\FLAC\08 - War - City, Country, City.wav

Peak level 99.8 %
Extraction speed 6.8 X
Track quality 100.0 %
Test CRC A10EC7F8
Copy CRC A10EC7F8
Accurately ripped (confidence 26) [5269F720] (AR v2)
Copy OK

Track 9

Filename C:\FLAC\09 - War - The Cisco Kid.wav

Peak level 97.4 %
Extraction speed 7.3 X
Track quality 100.0 %
Test CRC 3355AACA
Copy CRC 3355AACA
Accurately ripped (confidence 26) [07235CF6] (AR v2)
Copy OK

Track 10

Filename C:\FLAC\10 - War - Where Was You At.wav

Peak level 98.0 %
Extraction speed 7.3 X
Track quality 100.0 %
Test CRC C6CC932A
Copy CRC C6CC932A
Accurately ripped (confidence 26) [AAB4975D] (AR v2)
Copy OK

Track 11

Filename C:\FLAC\11 - War - Four Cornered Room.wav

Peak level 97.2 %
Extraction speed 7.9 X
Track quality 100.0 %
Test CRC 05383BC9
Copy CRC 05383BC9
Accurately ripped (confidence 25) [28EBDE26] (AR v2)
Copy OK

Track 12

Filename C:\FLAC\12 - War - Gypsy Man.wav

Peak level 98.3 %
Extraction speed 8.0 X
Track quality 100.0 %
Test CRC 6BBD2AA9
Copy CRC 6BBD2AA9
Accurately ripped (confidence 26) [25AAE539] (AR v2)
Copy OK

Track 13

Filename C:\FLAC\13 - War - Me And Baby Brother.wav

Peak level 97.9 %
Extraction speed 8.5 X
Track quality 100.0 %
Test CRC EEACAD3B
Copy CRC EEACAD3B
Accurately ripped (confidence 26) [18BC60EC] (AR v2)
Copy OK

Track 14

Filename C:\FLAC\14 - War - Deliver The Word.wav

Peak level 83.6 %
Extraction speed 8.7 X
Track quality 100.0 %
Test CRC 81E4893A
Copy CRC 81E4893A
Accurately ripped (confidence 26) [17EF3A29] (AR v2)
Copy OK

Track 15

Filename C:\FLAC\15 - War - Southern Part of Texas.wav

Peak level 88.7 %
Extraction speed 8.6 X
Track quality 99.9 %
Test CRC 493BD0AF
Copy CRC 493BD0AF
Accurately ripped (confidence 26) [4BE81744] (AR v2)
Copy OK

Track 16

Filename C:\FLAC\16 - War - Ballero (Live, 1972).wav

Peak level 97.6 %
Extraction speed 8.8 X
Track quality 100.0 %
Test CRC 3BDFE180
Copy CRC 3BDFE180
Accurately ripped (confidence 26) [BA9E066A] (AR v2)
Copy OK

Track 17

Filename C:\FLAC\17 - War - Why Can't We Be Friends.wav

Peak level 90.8 %
Extraction speed 9.4 X
Track quality 99.9 %
Test CRC 237905CC
Copy CRC 237905CC
Accurately ripped (confidence 25) [17236F0D] (AR v2)
Copy OK


All tracks accurately ripped

No errors occurred

End of status report

–– CUETools DB Plugin V2.1.3

[CTDB TOCID: L2Xrh8tDiR4PwXQVLR1eTgkPqgU-] found, Submit result: L2Xrh8tDiR4PwXQVLR1eTgkPqgU- has been confirmed
[777b2257] (31/35) Accurately ripped
[e08b76ca] (01/35) No match
[c6e3888a] (01/35) No match
[f2a6716c] (01/35) No match
[5930b75e] (01/35) No match


==== Log checksum D416E15AE940A2B0EBCCF66C55C04F0D27F8EC16A03D09F67D2B76B77EF1109B ====

foobar2000 1.2 / Dynamic Range Meter 1.1.1
log date: 2014-08-04 14:33:21

––––––––––––––––––––––––––––––––––––––––
Analyzed: Eric Burdon & War / The Very Best Of CD01 (1-2)
War / The Very Best Of CD01 (3-17)
––––––––––––––––––––––––––––––––––––––––

DR Peak RMS Duration Track
––––––––––––––––––––––––––––––––––––––––
DR9 -0.24 dB -12.57 dB 4:53 01-Spill The Wine
DR12 -0.01 dB -14.46 dB 3:59 02-Tobacco Road
DR10 -0.68 dB -13.89 dB 4:00 03-All Day Music
DR11 -0.24 dB -14.06 dB 3:48 04-Slippin' Into Darkness
DR11 -0.42 dB -14.17 dB 4:29 05-Get Down
DR12 -0.24 dB -15.59 dB 3:20 06-Nappy Head (Theme From 'Ghetto Man')
DR12 -0.44 dB -15.31 dB 4:09 07-The World Is A Ghetto
DR10 -0.01 dB -12.11 dB 3:55 08-City, Country, City
DR11 -0.22 dB -12.66 dB 3:48 09-The Cisco Kid
DR11 -0.17 dB -13.00 dB 3:25 10-Where Was You At
DR13 -0.25 dB -16.23 dB 5:10 11-Four Cornered Room
DR9 -0.14 dB -12.30 dB 5:24 12-Gypsy Man
DR10 -0.18 dB -12.91 dB 3:32 13-Me And Baby Brother
DR9 -1.55 dB -14.77 dB 4:40 14-Deliver The Word
DR11 -1.04 dB -14.58 dB 3:54 15-Southern Part of Texas
DR11 -0.21 dB -13.37 dB 3:26 16-Ballero (Live, 1972)
DR11 -0.84 dB -13.19 dB 3:49 17-Why Can't We Be Friends
––––––––––––––––––––––––––––––––––––––––

Number of tracks: 17
Official DR value: DR11

Samplerate: 44100 Hz
Channels: 2
Bits per sample: 16
Bitrate: 877 kbps
Codec: FLAC
================================================================================


Exact Audio Copy V1.0 beta 3 from 29. August 2011

EAC extraction logfile from 2. August 2014, 11:24

WAR / The Very Best Of CD02

Used drive : HL-DT-STDVDRAM GSA-T50L Adapter: 1 ID: 0

Read mode : Secure
Utilize accurate stream : Yes
Defeat audio cache : No
Make use of C2 pointers : No

Read offset correction : 667
Overread into Lead-In and Lead-Out : No
Fill up missing offset samples with silence : Yes
Delete leading and trailing silent blocks : No
Null samples used in CRC calculations : Yes
Used interface : Native Win32 interface for Win NT & 2000
Gap handling : Appended to previous track

Used output format : User Defined Encoder
Selected bitrate : 1024 kBit/s
Quality : High
Add ID3 tag : No
Command line compressor : C:\Program Files\Exact Audio Copy\Flac\flac.exe
Additional command line options : -8 -V -T "ARTIST=%artist%" -T "TITLE=%title%" -T "ALBUM=%albumtitle%" -T "DATE=%year%" -T "TRACKNUMBER=%tracknr%" -T "GENRE=%genre%" -T "PERFORMER=%albuminterpret%" -T "COMPOSER=%composer%" %haslyrics%–tag-from-file=LYRICS="%lyricsfile%"%haslyrics% -T "ALBUMARTIST=%albumartist%" -T "DISCNUMBER=%cdnumber%" -T "TOTALDISCS=%totalcds%" -T "TOTALTRACKS=%numtracks%" -T "COMMENT=%comment%" %source% -o %dest%


TOC of the extracted CD

Track | Start | Length | Start sector | End sector
––––––––––––––––––––––––––––-
1 | 0:00.00 | 3:11.25 | 0 | 14349
2 | 3:11.25 | 4:01.05 | 14350 | 32429
3 | 7:12.30 | 4:11.61 | 32430 | 51315
4 | 11:24.16 | 4:23.58 | 51316 | 71098
5 | 15:47.74 | 4:59.44 | 71099 | 93567
6 | 20:47.43 | 4:03.33 | 93568 | 111825
7 | 24:51.01 | 4:01.38 | 111826 | 129938
8 | 28:52.39 | 5:17.68 | 129939 | 153781
9 | 34:10.32 | 4:46.54 | 153782 | 175285
10 | 38:57.11 | 4:02.41 | 175286 | 193476
11 | 42:59.52 | 4:50.18 | 193477 | 215244
12 | 47:49.70 | 4:07.39 | 215245 | 233808
13 | 51:57.34 | 4:02.67 | 233809 | 252025
14 | 56:00.26 | 3:59.72 | 252026 | 270022
15 | 60:00.23 | 5:56.18 | 270023 | 296740
16 | 65:56.41 | 4:29.35 | 296741 | 316950
17 | 70:26.01 | 5:41.40 | 316951 | 342565


Track 1

Filename C:\FLAC\01 Low Rider.wav

Pre-gap length 0:00:02.00

Peak level 97.9 %
Extraction speed 4.3 X
Track quality 100.0 %
Test CRC 1B84362B
Copy CRC 1B84362B
Accurately ripped (confidence 10) [BD423FD0] (AR v2)
Copy OK

Track 2

Filename C:\FLAC\02 Don't Let No One Get You Down.wav

Peak level 99.8 %
Extraction speed 4.7 X
Track quality 100.0 %
Test CRC 57B2C9FA
Copy CRC 57B2C9FA
Accurately ripped (confidence 10) [EA0C1B18] (AR v2)
Copy OK

Track 3

Filename C:\FLAC\03 Heartbeat.wav

Peak level 86.8 %
Extraction speed 5.0 X
Track quality 100.0 %
Test CRC 4027C2A8
Copy CRC 4027C2A8
Accurately ripped (confidence 10) [9C2A2CC0] (AR v2)
Copy OK

Track 4

Filename C:\FLAC\04 Smile Happy.wav

Peak level 96.5 %
Extraction speed 5.4 X
Track quality 100.0 %
Test CRC 49604F46
Copy CRC 49604F46
Accurately ripped (confidence 10) [DA4E3B02] (AR v2)
Copy OK

Track 5

Filename C:\FLAC\05 So.wav

Peak level 96.5 %
Extraction speed 5.9 X
Track quality 100.0 %
Test CRC B4906FDF
Copy CRC B4906FDF
Accurately ripped (confidence 10) [512D26F4] (AR v2)
Copy OK

Track 6

Filename C:\FLAC\06 Summer.wav

Peak level 99.8 %
Extraction speed 6.3 X
Track quality 100.0 %
Test CRC 3A0590C1
Copy CRC 3A0590C1
Accurately ripped (confidence 10) [38CE54B0] (AR v2)
Copy OK

Track 7

Filename C:\FLAC\07 L.A. Sunshine.wav

Peak level 98.5 %
Extraction speed 6.4 X
Track quality 100.0 %
Test CRC 146F4D7E
Copy CRC 146F4D7E
Accurately ripped (confidence 10) [7A850833] (AR v2)
Copy OK

Track 8

Filename C:\FLAC\08 River Niger.wav

Peak level 98.3 %
Extraction speed 6.8 X
Track quality 100.0 %
Test CRC 3C53022B
Copy CRC 3C53022B
Accurately ripped (confidence 10) [F5BD0F3F] (AR v2)
Copy OK

Track 9

Filename C:\FLAC\09 Galaxy.wav

Peak level 100.0 %
Extraction speed 7.1 X
Track quality 100.0 %
Test CRC AC08A058
Copy CRC AC08A058
Accurately ripped (confidence 10) [A19E69F5] (AR v2)
Copy OK

Track 10

Filename C:\FLAC\10 Youngblood (Livin' In The Streets).wav

Peak level 96.9 %
Extraction speed 7.3 X
Track quality 100.0 %
Test CRC F2BE8383
Copy CRC F2BE8383
Accurately ripped (confidence 10) [1AC76569] (AR v2)
Copy OK

Track 11

Filename C:\FLAC\11 I'm The One Who Understands.wav

Peak level 97.7 %
Extraction speed 7.9 X
Track quality 100.0 %
Test CRC 3E1E3FB9
Copy CRC 3E1E3FB9
Accurately ripped (confidence 10) [757F5BDF] (AR v2)
Copy OK

Track 12

Filename C:\FLAC\12 Cinco De Mayo.wav

Peak level 99.8 %
Extraction speed 7.9 X
Track quality 100.0 %
Test CRC 8F41C4BC
Copy CRC 8F41C4BC
Accurately ripped (confidence 10) [F542B34B] (AR v2)
Copy OK

Track 13

Filename C:\FLAC\13 You Got The Power.wav

Peak level 99.8 %
Extraction speed 8.1 X
Track quality 100.0 %
Test CRC AF34F006
Copy CRC AF34F006
Accurately ripped (confidence 10) [EE77979D] (AR v2)
Copy OK

Track 14

Filename C:\FLAC\14 Outlaw.wav

Peak level 99.8 %
Extraction speed 8.2 X
Track quality 100.0 %
Test CRC 75DA1475
Copy CRC 75DA1475
Accurately ripped (confidence 10) [3CBF1FA3] (AR v2)
Copy OK

Track 15

Filename C:\FLAC\15 Baby It's Cold Outside.wav

Peak level 97.9 %
Extraction speed 8.6 X
Track quality 99.9 %
Test CRC DACB76A1
Copy CRC DACB76A1
Accurately ripped (confidence 10) [0F3022CC] (AR v2)
Copy OK

Track 16

Filename C:\FLAC\16 Peace Sign.wav

Peak level 99.8 %
Extraction speed 8.9 X
Track quality 100.0 %
Test CRC 4A8B4700
Copy CRC 4A8B4700
Accurately ripped (confidence 10) [B983CAAE] (AR v2)
Copy OK

Track 17

Filename C:\FLAC\17 East L.A. (War & Jose Feliciano).wav

Peak level 99.8 %
Extraction speed 9.2 X
Track quality 100.0 %
Test CRC 21198505
Copy CRC 21198505
Accurately ripped (confidence 10) [7E267689] (AR v2)
Copy OK


All tracks accurately ripped

No errors occurred

End of status report

–– CUETools DB Plugin V2.1.3

[CTDB TOCID: B_MkEy3EdiQhgkWfCulmHnkI4pg-] found, Submit result: B_MkEy3EdiQhgkWfCulmHnkI4pg- has been confirmed
[ea72a769] (29/32) Accurately ripped
[2e00b611] (01/32) No match
[4f68499a] (01/32) No match
[7fe62421] (01/32) No match


==== Log checksum B528857FC14247D1363EFC62644AB622C53DAE0775190487B90DD5D277E86ED4 ====

––––––––––––––––––––––––––––––

Exact Audio Copy V1.0 beta 3 from 29. August 2011

EAC extraction logfile from 2. August 2014, 11:24

WAR / The Very Best Of CD02

Used drive : HL-DT-STDVDRAM GSA-T50L Adapter: 1 ID: 0

Read mode : Secure
Utilize accurate stream : Yes
Defeat audio cache : No
Make use of C2 pointers : No

Read offset correction : 667
Overread into Lead-In and Lead-Out : No
Fill up missing offset samples with silence : Yes
Delete leading and trailing silent blocks : No
Null samples used in CRC calculations : Yes
Used interface : Native Win32 interface for Win NT & 2000
Gap handling : Appended to previous track

Used output format : User Defined Encoder
Selected bitrate : 1024 kBit/s
Quality : High
Add ID3 tag : No
Command line compressor : C:\Program Files\Exact Audio Copy\Flac\flac.exe
Additional command line options : -8 -V -T "ARTIST=%artist%" -T "TITLE=%title%" -T "ALBUM=%albumtitle%" -T "DATE=%year%" -T "TRACKNUMBER=%tracknr%" -T "GENRE=%genre%" -T "PERFORMER=%albuminterpret%" -T "COMPOSER=%composer%" %haslyrics%–tag-from-file=LYRICS="%lyricsfile%"%haslyrics% -T "ALBUMARTIST=%albumartist%" -T "DISCNUMBER=%cdnumber%" -T "TOTALDISCS=%totalcds%" -T "TOTALTRACKS=%numtracks%" -T "COMMENT=%comment%" %source% -o %dest%


TOC of the extracted CD

Track | Start | Length | Start sector | End sector
––––––––––––––––––––––––––––-
1 | 0:00.00 | 3:11.25 | 0 | 14349
2 | 3:11.25 | 4:01.05 | 14350 | 32429
3 | 7:12.30 | 4:11.61 | 32430 | 51315
4 | 11:24.16 | 4:23.58 | 51316 | 71098
5 | 15:47.74 | 4:59.44 | 71099 | 93567
6 | 20:47.43 | 4:03.33 | 93568 | 111825
7 | 24:51.01 | 4:01.38 | 111826 | 129938
8 | 28:52.39 | 5:17.68 | 129939 | 153781
9 | 34:10.32 | 4:46.54 | 153782 | 175285
10 | 38:57.11 | 4:02.41 | 175286 | 193476
11 | 42:59.52 | 4:50.18 | 193477 | 215244
12 | 47:49.70 | 4:07.39 | 215245 | 233808
13 | 51:57.34 | 4:02.67 | 233809 | 252025
14 | 56:00.26 | 3:59.72 | 252026 | 270022
15 | 60:00.23 | 5:56.18 | 270023 | 296740
16 | 65:56.41 | 4:29.35 | 296741 | 316950
17 | 70:26.01 | 5:41.40 | 316951 | 342565


Track 1

Filename C:\FLAC\01 Low Rider.wav

Pre-gap length 0:00:02.00

Peak level 97.9 %
Extraction speed 4.3 X
Track quality 100.0 %
Test CRC 1B84362B
Copy CRC 1B84362B
Accurately ripped (confidence 10) [BD423FD0] (AR v2)
Copy OK

Track 2

Filename C:\FLAC\02 Don't Let No One Get You Down.wav

Peak level 99.8 %
Extraction speed 4.7 X
Track quality 100.0 %
Test CRC 57B2C9FA
Copy CRC 57B2C9FA
Accurately ripped (confidence 10) [EA0C1B18] (AR v2)
Copy OK

Track 3

Filename C:\FLAC\03 Heartbeat.wav

Peak level 86.8 %
Extraction speed 5.0 X
Track quality 100.0 %
Test CRC 4027C2A8
Copy CRC 4027C2A8
Accurately ripped (confidence 10) [9C2A2CC0] (AR v2)
Copy OK

Track 4

Filename C:\FLAC\04 Smile Happy.wav

Peak level 96.5 %
Extraction speed 5.4 X
Track quality 100.0 %
Test CRC 49604F46
Copy CRC 49604F46
Accurately ripped (confidence 10) [DA4E3B02] (AR v2)
Copy OK

Track 5

Filename C:\FLAC\05 So.wav

Peak level 96.5 %
Extraction speed 5.9 X
Track quality 100.0 %
Test CRC B4906FDF
Copy CRC B4906FDF
Accurately ripped (confidence 10) [512D26F4] (AR v2)
Copy OK

Track 6

Filename C:\FLAC\06 Summer.wav

Peak level 99.8 %
Extraction speed 6.3 X
Track quality 100.0 %
Test CRC 3A0590C1
Copy CRC 3A0590C1
Accurately ripped (confidence 10) [38CE54B0] (AR v2)
Copy OK

Track 7

Filename C:\FLAC\07 L.A. Sunshine.wav

Peak level 98.5 %
Extraction speed 6.4 X
Track quality 100.0 %
Test CRC 146F4D7E
Copy CRC 146F4D7E
Accurately ripped (confidence 10) [7A850833] (AR v2)
Copy OK

Track 8

Filename C:\FLAC\08 River Niger.wav

Peak level 98.3 %
Extraction speed 6.8 X
Track quality 100.0 %
Test CRC 3C53022B
Copy CRC 3C53022B
Accurately ripped (confidence 10) [F5BD0F3F] (AR v2)
Copy OK

Track 9

Filename C:\FLAC\09 Galaxy.wav

Peak level 100.0 %
Extraction speed 7.1 X
Track quality 100.0 %
Test CRC AC08A058
Copy CRC AC08A058
Accurately ripped (confidence 10) [A19E69F5] (AR v2)
Copy OK

Track 10

Filename C:\FLAC\10 Youngblood (Livin' In The Streets).wav

Peak level 96.9 %
Extraction speed 7.3 X
Track quality 100.0 %
Test CRC F2BE8383
Copy CRC F2BE8383
Accurately ripped (confidence 10) [1AC76569] (AR v2)
Copy OK

Track 11

Filename C:\FLAC\11 I'm The One Who Understands.wav

Peak level 97.7 %
Extraction speed 7.9 X
Track quality 100.0 %
Test CRC 3E1E3FB9
Copy CRC 3E1E3FB9
Accurately ripped (confidence 10) [757F5BDF] (AR v2)
Copy OK

Track 12

Filename C:\FLAC\12 Cinco De Mayo.wav

Peak level 99.8 %
Extraction speed 7.9 X
Track quality 100.0 %
Test CRC 8F41C4BC
Copy CRC 8F41C4BC
Accurately ripped (confidence 10) [F542B34B] (AR v2)
Copy OK

Track 13

Filename C:\FLAC\13 You Got The Power.wav

Peak level 99.8 %
Extraction speed 8.1 X
Track quality 100.0 %
Test CRC AF34F006
Copy CRC AF34F006
Accurately ripped (confidence 10) [EE77979D] (AR v2)
Copy OK

Track 14

Filename C:\FLAC\14 Outlaw.wav

Peak level 99.8 %
Extraction speed 8.2 X
Track quality 100.0 %
Test CRC 75DA1475
Copy CRC 75DA1475
Accurately ripped (confidence 10) [3CBF1FA3] (AR v2)
Copy OK

Track 15

Filename C:\FLAC\15 Baby It's Cold Outside.wav

Peak level 97.9 %
Extraction speed 8.6 X
Track quality 99.9 %
Test CRC DACB76A1
Copy CRC DACB76A1
Accurately ripped (confidence 10) [0F3022CC] (AR v2)
Copy OK

Track 16

Filename C:\FLAC\16 Peace Sign.wav

Peak level 99.8 %
Extraction speed 8.9 X
Track quality 100.0 %
Test CRC 4A8B4700
Copy CRC 4A8B4700
Accurately ripped (confidence 10) [B983CAAE] (AR v2)
Copy OK

Track 17

Filename C:\FLAC\17 East L.A. (War & Jose Feliciano).wav

Peak level 99.8 %
Extraction speed 9.2 X
Track quality 100.0 %
Test CRC 21198505
Copy CRC 21198505
Accurately ripped (confidence 10) [7E267689] (AR v2)
Copy OK


All tracks accurately ripped

No errors occurred

End of status report

–– CUETools DB Plugin V2.1.3

[CTDB TOCID: B_MkEy3EdiQhgkWfCulmHnkI4pg-] found, Submit result: B_MkEy3EdiQhgkWfCulmHnkI4pg- has been confirmed
[ea72a769] (29/32) Accurately ripped
[2e00b611] (01/32) No match
[4f68499a] (01/32) No match
[7fe62421] (01/32) No match


==== Log checksum B528857FC14247D1363EFC62644AB622C53DAE0775190487B90DD5D277E86ED4 ====

foobar2000 1.2 / Dynamic Range Meter 1.1.1
log date: 2014-08-04 14:33:43

––––––––––––––––––––––––––––––––––––––––
Analyzed: WAR / The Very Best Of CD02
––––––––––––––––––––––––––––––––––––––––

DR Peak RMS Duration Track
––––––––––––––––––––––––––––––––––––––––
DR11 -0.18 dB -12.42 dB 3:11 01-Low Rider
DR11 -0.01 dB -14.13 dB 4:01 02-Don't Let No One Get You Down
DR12 -1.23 dB -15.50 dB 4:12 03-Heartbeat
DR12 -0.31 dB -15.19 dB 4:24 04-Smile Happy
DR11 -0.31 dB -14.93 dB 5:00 05-So
DR11 -0.01 dB -13.50 dB 4:03 06-Summer
DR11 -0.13 dB -13.67 dB 4:02 07-L.A. Sunshine
DR12 -0.15 dB -15.04 dB 5:18 08-River Niger
DR11 0.00 dB -12.88 dB 4:47 09-Galaxy
DR12 -0.27 dB -13.72 dB 4:03 10-Youngblood (Livin' In The Streets)
DR11 -0.20 dB -14.40 dB 4:50 11-I'm The One Who Understands
DR12 -0.01 dB -13.67 dB 4:08 12-Cinco De Mayo
DR12 -0.01 dB -14.00 dB 4:03 13-You Got The Power
DR11 -0.01 dB -12.67 dB 4:00 14-Outlaw
DR12 -0.18 dB -15.18 dB 5:56 15-Baby It's Cold Outside
DR10 -0.01 dB -11.48 dB 4:29 16-Peace Sign
DR9 -0.01 dB -11.38 dB 5:42 17-East L.A. (War & Jose Feliciano)
––––––––––––––––––––––––––––––––––––––––

Number of tracks: 17
Official DR value: DR11

Samplerate: 44100 Hz
Channels: 2
Bits per sample: 16
Bitrate: 1011 kbps
Codec: FLAC
================================================================================

War - The Very Best of War (2003) 2CD

War - The Very Best of War (2003) 2CD

All thanks to original releaser - only1joe

More interesting music in My Blog