Subcategories

Warrior - Featuring: Vinnie Vincent, Jimmy Waldo, Gary Shea, Hirsh Gardner (2017)

Posted By: v3122
Warrior - Featuring: Vinnie Vincent, Jimmy Waldo, Gary Shea, Hirsh Gardner (2017)

Warrior - Featuring: Vinnie Vincent, Jimmy Waldo, Gary Shea, Hirsh Gardner (2017)
EAC | Flac(Image) + Cue + Log & MP3 CBR 320Kbps
HNE Recordings, Ltd HNECD092 | RU | ~ 425 or 177 Mb | Scans(jpg) -> 7.56 Mb
Heavy Metal, Glam Rock

The Warrior story starts in 1982 with the Boston based band New England, featuring keyboard player Jimmy Waldo, bassist Gary Shea and drummer Hirsh Gardner, and how their plans to record their fourth album with Todd Rundgren were skippered when their guitarist, John Fannon, unexpectedly quit the group. They put the word out that they required a new singer, and as they shared management with KISS, Gene Simmons recommended an unknown Vinnie Cusano, who was then helping KISS with their "Creatures Of The Night" opus. Although KISS liked Vinnie Cusano, it was felt that his lack of height was a hindrance to joining them as a full-time replacement for Ace Frehley! Vinnie sent New England a tape of his songs, and an audition was set-up. New England liked what they heard on Vinnie's cassette so much that they decided to learn the whole set of songs in preparation for Cusano's audition. The four hit it off, but it was obvious that this was a new band, soon to be christened Warrior, and not just a seamless continuation of New England. It was also agreed that the four would relocate from Massachusetts to Los Angeles, and began recording the songs that had appeared on Vinnie's demo tape. Fergie Henrikson was brought in to allow Vinnie to concentrate more on guitar. Despite making some very good music, Warrior's career came to an abrupt end before it had even started when Vinnie was offered the opportunity to join KISS full-time, and become Vinnie Vincent, before eventually forming Vinnie Vincent's Invasion. Hirsh Gardner returned to Boston to produce, whereas Jimmy Waldo and Gary Shea would stay in Los Angeles, forming Alcatrazz with former Rainbow and MSG vocalist Graham Bonnet and a relatively unknown 20 year old guitarist from Sweden called Yngwie Malmsteen. What we have here is a "what might have been" mini-album of previously unheard, original, classic hard rock by four respected musicians at the top of their game. As well as the original six studio tracks, we've been lucky enough to include five instrumental versions, plus a very rare rehearsal tape featuring the aforementioned Fergie Henrikson. Malcolm Dome's informative and detailed liner notes help tell the story, with the input of band members Jimmy Waldo and Gary Shea.
Warrior - Featuring: Vinnie Vincent, Jimmy Waldo, Gary Shea, Hirsh Gardner (2017)

Warrior - Featuring: Vinnie Vincent, Jimmy Waldo, Gary Shea, Hirsh Gardner (2017):

Warrior - Featuring: Vinnie Vincent, Jimmy Waldo, Gary Shea, Hirsh Gardner (2017)

Tracklist:

Studio Recordings (1982):
01. Boys Gonna Rock 03:36
02. It's Not Pretty (Being Easy) 04:08
03. Gypsy In Her Eyes 03:58
04. Back On The Street 04:51
05. I'm Need Love 03:56
06. Baby Oh Why 04:44

Instrumental Rehearsals:
07. Betrayed 04:45
08. Hot Nights 03:22
09. Baby Oh Why 04:58
10. Back On The Street 05:34
11. I Need Love 04:16

Rehearsals Featuring Fergie Frederiksen:
12. Back On The Street 05:35
13. Gypsy In Her Eyes 05:45
14. Baby Oh Why 06:07
15. Hot Nights 02:40
16. Betrayed 05:09

Musicians:

Vinnie Vincent - Guitar
Jimmy Waldo - Bass
Gary Shea - Keyboards
Hirsh Gardner - Drums


Exact Audio Copy V1.1 from 23. June 2015

EAC extraction logfile from 1. November 2017, 11:34

WARRIOR / Featuring: Vinnie Vincent / Jimmy Waldo / Gary

Used drive : TSSTcorpCDDVDW SH-224DB Adapter: 1 ID: 0

Read mode : Secure
Utilize accurate stream : Yes
Defeat audio cache : Yes
Make use of C2 pointers : No

Read offset correction : 6
Overread into Lead-In and Lead-Out : No
Fill up missing offset samples with silence : Yes
Delete leading and trailing silent blocks : No
Null samples used in CRC calculations : Yes
Used interface : Native Win32 interface for Win NT & 2000

Used output format : User Defined Encoder
Selected bitrate : 1024 kBit/s
Quality : High
Add ID3 tag : No
Command line compressor : C:\Program Files (x86)\Exact Audio Copy\win64\flac.exe
Additional command line options : -8 -V -T "ARTIST=%artist%" -T "TITLE=%title%" -T "ALBUM=%albumtitle%" -T "DATE=%year%" -T "TRACKNUMBER=%tracknr%" -T "GENRE=%genre%" -T "COMMENT=%comment%" %source% -o %dest%


TOC of the extracted CD

Track | Start | Length | Start sector | End sector
––––––––––––––––––––––––––––-
1 | 0:00.00 | 3:36.20 | 0 | 16219
2 | 3:36.20 | 4:08.24 | 16220 | 34843
3 | 7:44.44 | 3:58.26 | 34844 | 52719
4 | 11:42.70 | 4:51.15 | 52720 | 74559
5 | 16:34.10 | 3:55.45 | 74560 | 92229
6 | 20:29.55 | 4:43.51 | 92230 | 113505
7 | 25:13.31 | 4:45.15 | 113506 | 134895
8 | 29:58.46 | 3:22.16 | 134896 | 150061
9 | 33:20.62 | 4:58.34 | 150062 | 172445
10 | 38:19.21 | 5:34.17 | 172446 | 197512
11 | 43:53.38 | 4:15.39 | 197513 | 216676
12 | 48:09.02 | 5:35.35 | 216677 | 241836
13 | 53:44.37 | 5:44.53 | 241837 | 267689
14 | 59:29.15 | 6:07.28 | 267690 | 295242
15 | 65:36.43 | 2:40.35 | 295243 | 307277
16 | 68:17.03 | 5:09.18 | 307278 | 330470


Range status and errors

Selected range

Filename F:\Sket4er\WARRIOR – Featuring Vinnie Vincent Jimmy Waldo Gary 2017\WARRIOR - Featuring- Vinnie Vincent , Jimmy Waldo , Gary.wav

Peak level 98.9 %
Extraction speed 3.3 X
Range quality 99.9 %
Test CRC EF6C3217
Copy CRC EF6C3217
Copy OK

No errors occurred


AccurateRip summary

Track 1 accurately ripped (confidence 1) [7D9E834C] (AR v2)
Track 2 accurately ripped (confidence 1) [0B0C9665] (AR v2)
Track 3 accurately ripped (confidence 1) [AD69E1C9] (AR v2)
Track 4 accurately ripped (confidence 1) [5228628F] (AR v2)
Track 5 accurately ripped (confidence 1) [D24EEDAC] (AR v2)
Track 6 accurately ripped (confidence 1) [416BCEDA] (AR v2)
Track 7 accurately ripped (confidence 1) [56ACCF55] (AR v2)
Track 8 accurately ripped (confidence 1) [F9910D7E] (AR v2)
Track 9 accurately ripped (confidence 1) [B5033481] (AR v2)
Track 10 accurately ripped (confidence 1) [4CD77DCE] (AR v2)
Track 11 accurately ripped (confidence 1) [068D549B] (AR v2)
Track 12 accurately ripped (confidence 1) [F425BC2F] (AR v2)
Track 13 accurately ripped (confidence 1) [E03EA6E6] (AR v2)
Track 14 accurately ripped (confidence 1) [2909FC90] (AR v2)
Track 15 accurately ripped (confidence 1) [5CD3F93D] (AR v2)
Track 16 accurately ripped (confidence 1) [DE02D659] (AR v2)

All tracks accurately ripped

End of status report

–– CUETools DB Plugin V2.1.6

[CTDB TOCID: LmZyL59MptvQDwfzC7QgJf_bnp0-] found
Submit result: LmZyL59MptvQDwfzC7QgJf_bnp0- has been confirmed
Track | CTDB Status
1 | (2/2) Accurately ripped
2 | (2/2) Accurately ripped
3 | (2/2) Accurately ripped
4 | (2/2) Accurately ripped
5 | (2/2) Accurately ripped
6 | (2/2) Accurately ripped
7 | (2/2) Accurately ripped
8 | (2/2) Accurately ripped
9 | (2/2) Accurately ripped
10 | (2/2) Accurately ripped
11 | (2/2) Accurately ripped
12 | (2/2) Accurately ripped
13 | (2/2) Accurately ripped
14 | (2/2) Accurately ripped
15 | (2/2) Accurately ripped
16 | (2/2) Accurately ripped


==== Log checksum 3EF0E0CAE2BCA69FFAAB0F7F4684C0F883E918AE572748D1CAB8D6FF6C82F758 ====


[CUETools log; Date: 03.11.2017 22:26:57; Version: 2.1.5]
[AccurateRip ID: 00292bd1-01f540f9-d4113610] found.
Track [ CRC | V2 ] Status
01 [f3c2add8|7d9e834c] (0+1/1) Accurately ripped
02 [e424c297|0b0c9665] (0+1/1) Accurately ripped
03 [48c73e38|ad69e1c9] (0+1/1) Accurately ripped
04 [4c9dcf87|5228628f] (0+1/1) Accurately ripped
05 [43327c29|d24eedac] (0+1/1) Accurately ripped
06 [966aef0f|416bceda] (0+1/1) Accurately ripped
07 [6587dff7|56accf55] (0+1/1) Accurately ripped
08 [ba60f761|f9910d7e] (0+1/1) Accurately ripped
09 [5f94511c|b5033481] (0+1/1) Accurately ripped
10 [1f808881|4cd77dce] (0+1/1) Accurately ripped
11 [8a5a4f50|068d549b] (0+1/1) Accurately ripped
12 [ea3b94ea|f425bc2f] (0+1/1) Accurately ripped
13 [8ee1a2ea|e03ea6e6] (0+1/1) Accurately ripped
14 [64c2f92a|2909fc90] (0+1/1) Accurately ripped
15 [aa62653f|5cd3f93d] (0+1/1) Accurately ripped
16 [c95da09a|de02d659] (0+1/1) Accurately ripped

Track Peak [ CRC32 ] [W/O NULL] [ LOG ]
– 98,9 [EF6C3217] [4C52F98E] CRC32
01 98,9 [6858EA1E] [96A0BA90]
02 98,9 [58C9E849] [23B81AF1]
03 98,9 [15A0E6FF] [BE1BD34E]
04 98,9 [3765870E] [A6374816]
05 98,9 [3C981FF8] [EFE043A9]
06 98,9 [1BEDC4A3] [791943A6]
07 98,9 [D7B3DA31] [80DCC65A]
08 98,9 [DB57B3A7] [F7737794]
09 98,9 [0D645281] [FEFE3381]
10 98,9 [3C992ADC] [43C3E3E7]
11 98,9 [99205CED] [CA01581F]
12 98,9 [6CD2713F] [1391152B]
13 98,9 [97AF0BB9] [2B08BAE5]
14 98,9 [D67636A3] [87D9AB61]
15 98,9 [2249269D] [09E93504]
16 98,9 [87E34EC5] [DBA7AA88]


Warrior - Featuring: Vinnie Vincent, Jimmy Waldo, Gary Shea, Hirsh Gardner (2017)

All thanks go to Sket4er

Warrior or Warrior in my Blog

Download Warrior - Featuring: Vinnie Vincent, Jimmy Waldo, Gary Shea, Hirsh Gardner (2017):