Tags
Language
Tags

Wes Montgomery - The Silver Collection (1984) {Verve}

Posted By: tiburon
Wes Montgomery - The Silver Collection (1984) {Verve}

Wes Montgomery - The Silver Collection (1984) {Verve}
EAC 1.2 | FLAC tracks level 8 | Cue+Log+M3U | Full Scans 300dpi | 363MB + 5% Recovery
MP3 CBR 320 Kbps | 165MB + 5% Recovery
Genre: Jazz, Bop
Wes Montgomery - The Silver Collection (1984) {Verve}

One of the earliest Wes Montgomery collections to appear on CD (1984), this minimally (and at one point, misleadingly) annotated item concentrates mostly upon the guitarist's Verve small-group performances. Verve relies heavily upon the two albums Wes made with Wynton Kelly (Smokin' at the Half Note and Willow Weep for Me), adding a few tracks from the two he made with Jimmy Smith (Dynamic Duo and Further Adventures) and closing with a sole reminder of Wes' orchestral-backed work, Bumpin's glorious "Here's That Rainy Day." As such, we hear Montgomery stretching out with an eloquence and depth of tone that had actually deepened since his more critically celebrated Riverside period. Be warned: though the jewel box and disc claim that "Portrait of Jennie" is Track 9, the selection is actually "13 (Death March)" from the Dynamic Duo album – a superior choice that gives you a nice Oliver Nelson big-band chart and more playing time as a bonus. Also, on "Misty," the Claus Ogerman arrangement for winds and brass that was overdubbed after Wes' death and stripped from the track later has been restored here.
Track List
01. If You Could See Me Now (8:24)
02. Impressions (5:02)
03. Four on Six (6:45)
04. Unit 7 (6:46)
05. Mellow Mood (8:40)
06. James and Wes (8:09)
07. What's New (6:18)
08. Misty (6:45)
09. Portrait of Jenny (5:22)
10. Here's That Rainy Day (4:57)

musicians
Guitar – Wes Montgomery
Bass – Bob Cranshaw (tracks: 10), Paul Chambers (3) (tracks: 1 to 4, 7 to 9)
Drums – Grady Tate (tracks: 5, 6, 10), Helcio Milito* (tracks: 10), Jimmy Cobb (tracks: 1 to 4, 7 to 9)
Organ – Jimmy Smith (tracks: 5, 6)
Piano – Roger Kellaway (tracks: 10), Wynton Kelly (tracks: 1 to 4, 7 to 9)
Harp – Margaret Ross

Produced by Creed Taylor


Exact Audio Copy V1.2 from 12. August 2016

EAC extraction logfile from 14. December 2018, 14:59

Wes Montgomery / Verve: The Silver Collection

Used drive : HL-DT-STDVDRAM AP70NS50 Adapter: 1 ID: 1

Read mode : Secure
Utilize accurate stream : Yes
Defeat audio cache : Yes
Make use of C2 pointers : No

Read offset correction : 6
Overread into Lead-In and Lead-Out : No
Fill up missing offset samples with silence : Yes
Delete leading and trailing silent blocks : No
Null samples used in CRC calculations : Yes
Used interface : Native Win32 interface for Win NT & 2000
Gap handling : Not detected, thus appended to previous track

Used output format : Internal WAV Routines
Sample format : 44.100 Hz; 16 Bit; Stereo


TOC of the extracted CD

Track | Start | Length | Start sector | End sector
––––––––––––––––––––––––––––-
1 | 0:00.33 | 8:24.45 | 33 | 37877
2 | 8:25.03 | 5:02.35 | 37878 | 60562
3 | 13:27.38 | 6:45.70 | 60563 | 91007
4 | 20:13.33 | 6:46.32 | 91008 | 121489
5 | 26:59.65 | 8:40.43 | 121490 | 160532
6 | 35:40.33 | 8:09.45 | 160533 | 197252
7 | 43:50.03 | 6:18.17 | 197253 | 225619
8 | 50:08.20 | 6:46.08 | 225620 | 256077
9 | 56:54.28 | 5:22.55 | 256078 | 280282
10 | 62:17.08 | 4:57.37 | 280283 | 302594


Track 1

Filename C:\Users\Stan.Stan-PC\Music\[Lossless]\Wes Montgomery\1984 Verve Silver Collection\01 If You Could See Me Now (1965).wav

Peak level 65.6 %
Extraction speed 1.4 X
Track quality 100.0 %
Copy CRC A5969651
Accurately ripped (confidence 12) [70F28AC4] (AR v2)
Copy OK

Track 2

Filename C:\Users\Stan.Stan-PC\Music\[Lossless]\Wes Montgomery\1984 Verve Silver Collection\02 Impressions (1965).wav

Peak level 100.0 %
Extraction speed 1.4 X
Track quality 99.9 %
Copy CRC 5D55BD70
Cannot be verified as accurate (confidence 12) [EEBC1EA4], AccurateRip returned [78583FB2] (AR v2)
Copy OK

Track 3

Filename C:\Users\Stan.Stan-PC\Music\[Lossless]\Wes Montgomery\1984 Verve Silver Collection\03 Four On Six (1965).wav

Peak level 77.5 %
Extraction speed 1.7 X
Track quality 100.0 %
Copy CRC 8D54F4B4
Accurately ripped (confidence 12) [8CDE7EA5] (AR v2)
Copy OK

Track 4

Filename C:\Users\Stan.Stan-PC\Music\[Lossless]\Wes Montgomery\1984 Verve Silver Collection\04 Unit 7 (1965).wav

Peak level 69.5 %
Extraction speed 1.9 X
Track quality 100.0 %
Copy CRC D911D218
Accurately ripped (confidence 12) [6AF48C4E] (AR v2)
Copy OK

Track 5

Filename C:\Users\Stan.Stan-PC\Music\[Lossless]\Wes Montgomery\1984 Verve Silver Collection\05 Mellow Mood (1966).wav

Peak level 88.3 %
Extraction speed 2.0 X
Track quality 99.9 %
Copy CRC FF152B95
Accurately ripped (confidence 12) [785F163B] (AR v2)
Copy OK

Track 6

Filename C:\Users\Stan.Stan-PC\Music\[Lossless]\Wes Montgomery\1984 Verve Silver Collection\06 James and Wes (1966).wav

Peak level 85.3 %
Extraction speed 2.3 X
Track quality 100.0 %
Copy CRC 9C9589A6
Accurately ripped (confidence 12) [E0C93D4E] (AR v2)
Copy OK

Track 7

Filename C:\Users\Stan.Stan-PC\Music\[Lossless]\Wes Montgomery\1984 Verve Silver Collection\07 What's New (1965).wav

Peak level 65.4 %
Extraction speed 2.4 X
Track quality 100.0 %
Copy CRC CC6E9973
Accurately ripped (confidence 12) [0A7AD01C] (AR v2)
Copy OK

Track 8

Filename C:\Users\Stan.Stan-PC\Music\[Lossless]\Wes Montgomery\1984 Verve Silver Collection\08 Misty (1965).wav

Peak level 80.8 %
Extraction speed 2.5 X
Track quality 100.0 %
Copy CRC 741C119F
Accurately ripped (confidence 12) [3263E00D] (AR v2)
Copy OK

Track 9

Filename C:\Users\Stan.Stan-PC\Music\[Lossless]\Wes Montgomery\1984 Verve Silver Collection\09 Portrait of Jenny (1965).wav

Peak level 58.8 %
Extraction speed 2.5 X
Track quality 100.0 %
Copy CRC F6222234
Accurately ripped (confidence 12) [9EB7B39B] (AR v2)
Copy OK

Track 10

Filename C:\Users\Stan.Stan-PC\Music\[Lossless]\Wes Montgomery\1984 Verve Silver Collection\10 Here's That Rainy Day (1965).wav

Peak level 66.8 %
Extraction speed 2.3 X
Track quality 99.9 %
Copy CRC 240C3A51
Accurately ripped (confidence 12) [6913DE61] (AR v2)
Copy OK


9 track(s) accurately ripped
1 track(s) could not be verified as accurate

Some tracks could not be verified as accurate

No errors occurred

End of status report

–– CUETools DB Plugin V2.1.6

[CTDB TOCID: zqKGaBS3zSit_UCtNgc9T5TjqMM-] found
Submit result: zqKGaBS3zSit_UCtNgc9T5TjqMM- has been submitted
Track | CTDB Status
1 | (10/11) Accurately ripped
2 | ( 0/11) No match
3 | (11/11) Accurately ripped
4 | (11/11) Accurately ripped
5 | (11/11) Accurately ripped
6 | (10/11) Accurately ripped
7 | (10/11) Accurately ripped
8 | (11/11) Accurately ripped
9 | (11/11) Accurately ripped
10 | (11/11) Accurately ripped

Wes Montgomery - The Silver Collection (1984) {Verve}
Wes Montgomery - The Silver Collection (1984) {Verve}


Thanks to the original ripper