Subcategories

Ramin Djawadi - Westworld: Season 1 (Music from the HBO® Series) (2016)

Posted By: aasana
Ramin Djawadi - Westworld: Season 1 (Music from the HBO® Series) (2016)

Ramin Djawadi - Westworld - Season 1 (2016)
EAC Rip | FLAC (tracks+.cue+.log+.m3u) & Scans | 1:49:08 | 482 MB
Soundtrack | Label: WaterTower Music

Westworld: Season 1 (Music from the HBO® Series) is a 34-song collection that features the most poignant musical moments from the ten-episode first season. The collection includes composer Ramin Djawadi's (Game of Thrones, Iron Man, Person of Interest) Westworld theme, original compositions, and his celebrated arrangements of well known songs including 'Back To Black' (originally performed by Amy Winehouse), 'Black Hole Sun' (originally performed by Soundgarden), 'Paint It, Black' (originally performed by The Rolling Stones) 'A Forest' (originally performed by The Cure) and 'No Surprises' (originally performed by Radiohead), among others.

Tracklist:

CD1
01. Ramin Djawadi - Main Title Theme - Westworld
02. Ramin Djawadi - Sweetwater
03. Ramin Djawadi - Black Hole Sun
04. Ramin Djawadi - Paint It Black
05. Ramin Djawadi - This World
06. Ramin Djawadi - Online
07. Ramin Djawadi - No Surprises
08. Ramin Djawadi - Dr. Ford
09. Ramin Djawadi - A Forest
10. Ramin Djawadi - Reveries
11. Ramin Djawadi - Nitro Heist
12. Vitamin String Quartet - Motion Picture Soundtrack
13. Ramin Djawadi - Freeze All Motor Functions
14. Ramin Djawadi - Pariah
15. Ramin Djawadi - Fake Plastic Trees
16. Ramin Djawadi - MIB

CD2
01. Ramin Djawadi - The Maze
02. Ramin Djawadi - House of the Rising Sun
03. Ramin Djawadi - Trompe L'Oeil
04. Ramin Djawadi - What Does This Mean?
05. Vitamin String Quartet - Something I Can Never Have
06. Ramin Djawadi - White Hats
07. Ramin Djawadi - Back to Black
08. Ramin Djawadi - No One's Controlling Me
09. Ramin Djawadi - Memories
10. Ramin Djawadi - No Surprises (Stride Piano Version)
11. Ramin Djawadi - Violent Delights
12. Ramin Djawadi - Someday
13. Ramin Djawadi - Sweetwater Stride
14. Ramin Djawadi - Do They Dream?
15. Ramin Djawadi - The Stray
16. Ramin Djawadi - Bicameral Mind
17. Ramin Djawadi - Exit Music (For a Film)
18. Ramin Djawadi - Reverie

Exact Audio Copy V1.3 from 2. September 2016

EAC extraction logfile from 3. February 2017, 11:34

Ramin Djawadi / Westworld - Season 1 (CD 1)

Used drive : PLEXTOR CD-R PX-230A Adapter: 1 ID: 0

Read mode : Secure
Utilize accurate stream : Yes
Defeat audio cache : Yes
Make use of C2 pointers : No

Read offset correction : 738
Overread into Lead-In and Lead-Out : No
Fill up missing offset samples with silence : Yes
Delete leading and trailing silent blocks : No
Null samples used in CRC calculations : Yes
Used interface : Native Win32 interface for Win NT & 2000
Gap handling : Appended to previous track

Used output format : User Defined Encoder
Selected bitrate : 1024 kBit/s
Quality : High
Add ID3 tag : No
Command line compressor : C:\Program Files\Exact Audio Copy\Flac\flac.exe
Additional command line options : -6 -V -T "ARTIST=%artist%" -T "TITLE=%title%" -T "ALBUM=%albumtitle%" -T "DATE=%year%" -T "TRACKNUMBER=%tracknr%" -T "GENRE=%genre%" -T "COMMENT=%comment%" -T "ALBUMARTIST=%albuminterpret%" -T "COMPOSER=%composer%" -T "DISCNUMBER=%cdnumber%" -T "TOTALDISCS=%totalcds%" -T "TOTALTRACKS=%numtracks%" %source% -o %dest%


TOC of the extracted CD

Track | Start | Length | Start sector | End sector
––––––––––––––––––––––––––––-
1 | 0:00.00 | 1:41.34 | 0 | 7608
2 | 1:41.34 | 2:53.10 | 7609 | 20593
3 | 4:34.44 | 2:29.15 | 20594 | 31783
4 | 7:03.59 | 5:44.02 | 31784 | 57585
5 | 12:47.61 | 2:29.25 | 57586 | 68785
6 | 15:17.11 | 4:19.15 | 68786 | 88225
7 | 19:36.26 | 4:02.20 | 88226 | 106395
8 | 23:38.46 | 5:30.18 | 106396 | 131163
9 | 29:08.64 | 2:48.68 | 131164 | 143831
10 | 31:57.57 | 3:00.03 | 143832 | 157334
11 | 34:57.60 | 3:31.74 | 157335 | 173233
12 | 38:29.59 | 2:42.11 | 173234 | 185394
13 | 41:11.70 | 3:03.60 | 185395 | 199179
14 | 44:15.55 | 3:08.61 | 199180 | 213340
15 | 47:24.41 | 2:14.06 | 213341 | 223396
16 | 49:38.47 | 3:04.51 | 223397 | 237247


Track 1

Filename C:\Music\01 - Ramin Djawadi - Main Title Theme - Westworld.wav

Pre-gap length 0:00:02.00

Peak level 98.4 %
Extraction speed 4.4 X
Track quality 100.0 %
Test CRC B1E50B7D
Copy CRC B1E50B7D
Track not present in AccurateRip database
Copy OK

Track 2

Filename C:\Music\02 - Ramin Djawadi - Sweetwater.wav

Peak level 97.7 %
Extraction speed 4.8 X
Track quality 100.0 %
Test CRC AA0DB157
Copy CRC AA0DB157
Track not present in AccurateRip database
Copy OK

Track 3

Filename C:\Music\03 - Ramin Djawadi - Black Hole Sun.wav

Peak level 100.0 %
Extraction speed 5.2 X
Track quality 100.0 %
Test CRC 99A93485
Copy CRC 99A93485
Track not present in AccurateRip database
Copy OK

Track 4

Filename C:\Music\04 - Ramin Djawadi - Paint It Black.wav

Peak level 98.7 %
Extraction speed 6.0 X
Track quality 100.0 %
Test CRC D7098678
Copy CRC D7098678
Track not present in AccurateRip database
Copy OK

Track 5

Filename C:\Music\05 - Ramin Djawadi - This World.wav

Peak level 97.7 %
Extraction speed 6.0 X
Track quality 100.0 %
Test CRC 17D9CAC7
Copy CRC 17D9CAC7
Track not present in AccurateRip database
Copy OK

Track 6

Filename C:\Music\06 - Ramin Djawadi - Online.wav

Peak level 97.7 %
Extraction speed 6.6 X
Track quality 100.0 %
Test CRC 660300AA
Copy CRC 660300AA
Track not present in AccurateRip database
Copy OK

Track 7

Filename C:\Music\07 - Ramin Djawadi - No Surprises.wav

Peak level 99.8 %
Extraction speed 6.9 X
Track quality 100.0 %
Test CRC 71B4E3FB
Copy CRC 71B4E3FB
Track not present in AccurateRip database
Copy OK

Track 8

Filename C:\Music\08 - Ramin Djawadi - Dr. Ford.wav

Peak level 97.7 %
Extraction speed 7.4 X
Track quality 100.0 %
Test CRC D85AC410
Copy CRC D85AC410
Track not present in AccurateRip database
Copy OK

Track 9

Filename C:\Music\09 - Ramin Djawadi - A Forest.wav

Peak level 100.0 %
Extraction speed 6.8 X
Track quality 100.0 %
Test CRC F5D9488B
Copy CRC F5D9488B
Track not present in AccurateRip database
Copy OK

Track 10

Filename C:\Music\10 - Ramin Djawadi - Reveries.wav

Peak level 95.4 %
Extraction speed 7.1 X
Track quality 100.0 %
Test CRC 022E2CE6
Copy CRC 022E2CE6
Track not present in AccurateRip database
Copy OK

Track 11

Filename C:\Music\11 - Ramin Djawadi - Nitro Heist.wav

Peak level 97.7 %
Extraction speed 7.5 X
Track quality 100.0 %
Test CRC 07B82E4E
Copy CRC 07B82E4E
Track not present in AccurateRip database
Copy OK

Track 12

Filename C:\Music\12 - Vitamin String Quartet - Motion Picture Soundtrack.wav

Peak level 58.7 %
Extraction speed 7.4 X
Track quality 100.0 %
Test CRC C50CB6DF
Copy CRC C50CB6DF
Track not present in AccurateRip database
Copy OK

Track 13

Filename C:\Music\13 - Ramin Djawadi - Freeze All Motor Functions.wav

Peak level 98.8 %
Extraction speed 7.5 X
Track quality 100.0 %
Test CRC 711B5CDD
Copy CRC 711B5CDD
Track not present in AccurateRip database
Copy OK

Track 14

Filename C:\Music\14 - Ramin Djawadi - Pariah.wav

Peak level 97.7 %
Extraction speed 7.6 X
Track quality 100.0 %
Test CRC 80E9F759
Copy CRC 80E9F759
Track not present in AccurateRip database
Copy OK

Track 15

Filename C:\Music\15 - Ramin Djawadi - Fake Plastic Trees.wav

Peak level 97.7 %
Extraction speed 6.3 X
Track quality 99.9 %
Test CRC 8383121F
Copy CRC 8383121F
Track not present in AccurateRip database
Copy OK

Track 16

Filename C:\Music\16 - Ramin Djawadi - MIB.wav

Peak level 97.7 %
Extraction speed 8.2 X
Track quality 100.0 %
Test CRC A5FCB82A
Copy CRC A5FCB82A
Track not present in AccurateRip database
Copy OK


None of the tracks are present in the AccurateRip database

No errors occurred

End of status report

–– CUETools DB Plugin V2.1.6

[CTDB TOCID: tnWJdA4lLoxRRb9tzXFhXYCKg4Y-] disk not present in database
Submit result: tnWJdA4lLoxRRb9tzXFhXYCKg4Y- has been uploaded


==== Log checksum DE788F48EBB39E18AC87145DEC39D05C1F5A4A85597594C21B029C4D0ED5EB12 ====

Exact Audio Copy V1.3 from 2. September 2016

EAC extraction logfile from 3. February 2017, 13:09

Ramin Djawadi / Westworld - Season 1 (CD 2)

Used drive : PLEXTOR CD-R PX-230A Adapter: 1 ID: 0

Read mode : Secure
Utilize accurate stream : Yes
Defeat audio cache : Yes
Make use of C2 pointers : No

Read offset correction : 738
Overread into Lead-In and Lead-Out : No
Fill up missing offset samples with silence : Yes
Delete leading and trailing silent blocks : No
Null samples used in CRC calculations : Yes
Used interface : Native Win32 interface for Win NT & 2000
Gap handling : Appended to previous track

Used output format : User Defined Encoder
Selected bitrate : 1024 kBit/s
Quality : High
Add ID3 tag : No
Command line compressor : C:\Program Files\Exact Audio Copy\Flac\flac.exe
Additional command line options : -6 -V -T "ARTIST=%artist%" -T "TITLE=%title%" -T "ALBUM=%albumtitle%" -T "DATE=%year%" -T "TRACKNUMBER=%tracknr%" -T "GENRE=%genre%" -T "COMMENT=%comment%" -T "ALBUMARTIST=%albuminterpret%" -T "COMPOSER=%composer%" -T "DISCNUMBER=%cdnumber%" -T "TOTALDISCS=%totalcds%" -T "TOTALTRACKS=%numtracks%" %source% -o %dest%


TOC of the extracted CD

Track | Start | Length | Start sector | End sector
––––––––––––––––––––––––––––-
1 | 0:00.00 | 4:05.21 | 0 | 18395
2 | 4:05.21 | 1:24.42 | 18396 | 24737
3 | 5:29.63 | 5:04.30 | 24738 | 47567
4 | 10:34.18 | 3:04.23 | 47568 | 61390
5 | 13:38.41 | 5:56.10 | 61391 | 88100
6 | 19:34.51 | 2:27.38 | 88101 | 99163
7 | 22:02.14 | 1:58.13 | 99164 | 108026
8 | 24:00.27 | 1:59.66 | 108027 | 117017
9 | 26:00.18 | 3:44.67 | 117018 | 133884
10 | 29:45.10 | 2:37.06 | 133885 | 145665
11 | 32:22.16 | 4:58.71 | 145666 | 168086
12 | 37:21.12 | 3:40.26 | 168087 | 184612
13 | 41:01.38 | 0:41.41 | 184613 | 187728
14 | 41:43.04 | 1:48.66 | 187729 | 195894
15 | 43:31.70 | 2:18.24 | 195895 | 206268
16 | 45:50.19 | 4:25.51 | 206269 | 226194
17 | 50:15.70 | 4:26.53 | 226195 | 246197
18 | 54:42.48 | 1:42.34 | 246198 | 253881


Track 1

Filename C:\Music\01 - Ramin Djawadi - The Maze.wav

Pre-gap length 0:00:02.00

Peak level 98.8 %
Extraction speed 2.2 X
Track quality 100.0 %
Test CRC DDAD837F
Copy CRC DDAD837F
Track not present in AccurateRip database
Copy OK

Track 2

Filename C:\Music\02 - Ramin Djawadi - House of the Rising Sun.wav

Peak level 100.0 %
Extraction speed 2.3 X
Track quality 100.0 %
Test CRC 53FC0A92
Copy CRC 53FC0A92
Track not present in AccurateRip database
Copy OK

Track 3

Filename C:\Music\03 - Ramin Djawadi - Trompe L'Oeil.wav

Peak level 97.7 %
Extraction speed 2.8 X
Track quality 100.0 %
Test CRC 67AC7725
Copy CRC 67AC7725
Track not present in AccurateRip database
Copy OK

Track 4

Filename C:\Music\04 - Ramin Djawadi - What Does This Mean.wav

Peak level 97.7 %
Extraction speed 2.2 X
Track quality 100.0 %
Test CRC 2D51ED04
Copy CRC 2D51ED04
Track not present in AccurateRip database
Copy OK

Track 5

Filename C:\Music\05 - Vitamin String Quartet - Something I Can Never Have.wav

Peak level 97.5 %
Extraction speed 2.1 X
Track quality 100.0 %
Test CRC 753D4DA2
Copy CRC 753D4DA2
Track not present in AccurateRip database
Copy OK

Track 6

Filename C:\Music\06 - Ramin Djawadi - White Hats.wav

Peak level 98.8 %
Extraction speed 1.9 X
Track quality 100.0 %
Test CRC 6AD75E6A
Copy CRC 6AD75E6A
Track not present in AccurateRip database
Copy OK

Track 7

Filename C:\Music\07 - Ramin Djawadi - Back to Black.wav

Peak level 99.9 %
Extraction speed 1.5 X
Track quality 99.9 %
Test CRC 18477189
Copy CRC 18477189
Track not present in AccurateRip database
Copy OK

Track 8

Filename C:\Music\08 - Ramin Djawadi - No One's Controlling Me.wav

Peak level 97.7 %
Extraction speed 2.4 X
Track quality 99.9 %
Test CRC B98CC278
Copy CRC B98CC278
Track not present in AccurateRip database
Copy OK

Track 9

Filename C:\Music\09 - Ramin Djawadi - Memories.wav

Peak level 97.7 %
Extraction speed 2.8 X
Track quality 100.0 %
Test CRC 8C440929
Copy CRC 8C440929
Track not present in AccurateRip database
Copy OK

Track 10

Filename C:\Music\10 - Ramin Djawadi - No Surprises (Stride Piano Version).wav

Peak level 100.0 %
Extraction speed 2.8 X
Track quality 100.0 %
Test CRC 0B9C1071
Copy CRC 0B9C1071
Track not present in AccurateRip database
Copy OK

Track 11

Filename C:\Music\11 - Ramin Djawadi - Violent Delights.wav

Peak level 98.8 %
Extraction speed 2.9 X
Track quality 100.0 %
Test CRC 366EAEBC
Copy CRC 366EAEBC
Track not present in AccurateRip database
Copy OK

Track 12

Filename C:\Music\12 - Ramin Djawadi - Someday.wav

Peak level 95.9 %
Extraction speed 2.8 X
Track quality 100.0 %
Test CRC 7A4A1AE8
Copy CRC 7A4A1AE8
Track not present in AccurateRip database
Copy OK

Track 13

Filename C:\Music\13 - Ramin Djawadi - Sweetwater Stride.wav

Peak level 100.0 %
Extraction speed 2.6 X
Track quality 100.0 %
Test CRC 7F4E59EE
Copy CRC 7F4E59EE
Track not present in AccurateRip database
Copy OK

Track 14

Filename C:\Music\14 - Ramin Djawadi - Do They Dream.wav

Peak level 97.7 %
Extraction speed 2.6 X
Track quality 99.9 %
Test CRC D11B54C8
Copy CRC D11B54C8
Track not present in AccurateRip database
Copy OK

Track 15

Filename C:\Music\15 - Ramin Djawadi - The Stray.wav

Peak level 97.7 %
Extraction speed 2.9 X
Track quality 100.0 %
Test CRC 886269B5
Copy CRC 886269B5
Track not present in AccurateRip database
Copy OK

Track 16

Filename C:\Music\16 - Ramin Djawadi - Bicameral Mind.wav

Peak level 97.7 %
Extraction speed 3.1 X
Track quality 100.0 %
Test CRC 0859C746
Copy CRC 0859C746
Track not present in AccurateRip database
Copy OK

Track 17

Filename C:\Music\17 - Ramin Djawadi - Exit Music (For a Film).wav

Peak level 98.8 %
Extraction speed 3.0 X
Track quality 100.0 %
Test CRC 67268744
Copy CRC 67268744
Track not present in AccurateRip database
Copy OK

Track 18

Filename C:\Music\18 - Ramin Djawadi - Reverie.wav

Peak level 98.8 %
Extraction speed 2.1 X
Track quality 100.0 %
Test CRC 4FD177B1
Copy CRC 4FD177B1
Track not present in AccurateRip database
Copy OK


None of the tracks are present in the AccurateRip database

No errors occurred

End of status report

–– CUETools DB Plugin V2.1.6

[CTDB TOCID: u99RkB1TpPZNvX2qIVRcMU11zgI-] found
Submit result: already submitted
Track | CTDB Status
1 | (1/1) Accurately ripped
2 | (1/1) Accurately ripped
3 | (1/1) Accurately ripped
4 | (1/1) Accurately ripped
5 | (1/1) Accurately ripped
6 | (1/1) Accurately ripped
7 | (1/1) Accurately ripped
8 | (1/1) Accurately ripped
9 | (1/1) Accurately ripped
10 | (1/1) Accurately ripped
11 | (1/1) Accurately ripped
12 | (1/1) Accurately ripped
13 | (1/1) Accurately ripped
14 | (1/1) Accurately ripped
15 | (1/1) Accurately ripped
16 | (1/1) Accurately ripped
17 | (1/1) Accurately ripped
18 | (1/1) Accurately ripped


==== Log checksum 1B115EFA77856486438AE74503DC51620A9030C5C8914F39746DEA2A52C83103 ====