Tags
Language
Tags

Wilhelm Furtwängler: Das Vermächtnis / The Legacy - Box 1: Bach, Handel, Gluck (2010)

Posted By:
Wilhelm Furtwängler: Das Vermächtnis / The Legacy - Box 1: Bach, Handel, Gluck (2010)

Wilhelm Furtwängler: Das Vermächtnis / The Legacy - Box 1: Bach, Handel, Gluck (2010)
EAC | FLAC | Image (Cue & Log) ~ 1.46 Gb | Total time: 06:41:27 | Scans included
Classical | Label: Membran Music | # 233110 | Recorded: 1926-1954

Conductor Wilhelm Furtwangler already enjoyed a worldwide legendary standing during his lifetime - he was considered the German conductor and performances were greeted with rapturous applause. Today, more than 50 years after his death, Wilhelm Furtwangler is still an icon and his work has become an integral part ofthe music scene.
But just what makes up this fascination? And what makes his recordings so special? This edition provides the answers.
These 107 CDs contain all the works Furtwangler ever recorded for release on record - and the "live" recordings he made for radio broadcast. In the case of different versions of the same work having been produced (for example there are 12 recordings of Beethoven's Eroica!.0 the best, most beautiful, or the most exciting interpretations have been chosen for this edition. In addition the numerous bonus CDs and tracks present excerpts taken from alternative recordings.
From his very first recording (Weber's Freischiitz Overture, 1928) to his very last (Wagner's Valkyrie, 1954), this edition features productions of all the Beethoven and Brahms symphonies, the complete Rome recording of Wagner's Ring, recordings of the famous symphonies composed by Schubert, Schumann, Bruckner and Mozart, highlights taken from the Salzburg recordings of Don Giovanni, Magic Flute and Figaro, a live Bayreuth recording of Mastersingers etc. etc. etc.
The edition has been complemented by recordings of rehearsals and interviews. In addition the recording of the famous Salzburg song recital in 1953 reflects on the pianist Wilhelm Furtwangler as accompanist to Elisabeth Schwarzkopf.
Furthermore, the edition contains a DVD with a video clip featuring the famous music critic Prof. Dr. Joachim Kaiser, who provides the answer to the question: why is Wilhelm Furtwangler still the most famous conductor in the world?

Contents:
CD 1: Johann Sebastian Bach (1685-1750)
- Orchestral Suite No. 3, BWV 1068 - Berlin Philharmonic 10/22/1948
- Brandenburg Concerto No. 3, BWV 1048 - Vienna Philharmonic 08/31/1950
- Brandenburg Concerto No. 5, BWV 1050 - Vienna Philharmonic 08/31/1950
CD 2-4: Johann Sebastian Bach (1685-1750)
Matthäus-Passion, BWV 244 - Elisabeth Grümmer, Marga Höffgen, Anton Dermota, Dietrich Fischer-Dieskau, Otto Edelmann, - Vienna Philharmonic, Vienna Singverein, Vienna Boys' Choir 04/14-17/1954
CD 5: Georg Friedrich Händel (1685-1759)
- Concerto grosso in D major Op. 6 no. 5 - Berlin Philharmonic 04/22/1954
- Concerto grosso in D minor op. 6 no. 10 - Berlin Philharmonic 12/19/1949
Christoph Willibald Gluck (1714-1787)
- Alceste: Overture - Berlin Philharmonic 10/28/1942
- Iphigénie en Aulide: Overture - Vienna Philharmonic 03/08/1954
Johann Sebastian Bach (1685-1750)
- Brandenburg Concerto No. 3, BWV 1048 (excerpts) - Berlin Philharmonic 1930
- Orchestral Suite No. 3, BWV 1068: Air - Berlin Philharmonic 1929
CD 6-7: Christoph Willibald Gluck (1714-1787)
- Orfeo ed Euridice - Fedora Barbieri, Hilde Güden, Magda Gabory, Chorus & Orchestra of Milan Scala 04/07/1951



Exact Audio Copy V1.5 from 20. February 2020

EAC extraction logfile from 11. January 2021, 16:11

Wilhelm Furtwängler / Das Vermächtnis (The Legacy) - CD 01

Used drive : HL-DT-STDVDRAM GH24NS95 Adapter: 1 ID: 0

Read mode : Secure
Utilize accurate stream : Yes
Defeat audio cache : Yes
Make use of C2 pointers : No

Read offset correction : 6
Overread into Lead-In and Lead-Out : No
Fill up missing offset samples with silence : Yes
Delete leading and trailing silent blocks : No
Null samples used in CRC calculations : Yes
Used interface : Native Win32 interface for Win NT & 2000

Used output format : User Defined Encoder
Selected bitrate : 128 kBit/s
Quality : High
Add ID3 tag : No
Command line compressor : C:\Program Files\Exact Audio Copy\Flac\flac.exe
Additional command line options : -V -8 -T "Date=%year%" -T "Genre=%genre%" %source%


TOC of the extracted CD

Track | Start | Length | Start sector | End sector
––––––––––––––––––––––––––––-
1 | 0:00.00 | 8:38.38 | 0 | 38887
2 | 8:38.38 | 4:34.53 | 38888 | 59490
3 | 13:13.16 | 3:08.45 | 59491 | 73635
4 | 16:21.61 | 1:35.72 | 73636 | 80832
5 | 17:57.58 | 2:36.33 | 80833 | 92565
6 | 20:34.16 | 8:08.73 | 92566 | 129238
7 | 28:43.14 | 0:18.15 | 129239 | 130603
8 | 29:01.29 | 5:57.04 | 130604 | 157382
9 | 34:58.33 | 14:27.65 | 157383 | 222472
10 | 49:26.23 | 8:49.23 | 222473 | 262170
11 | 58:15.46 | 6:23.49 | 262171 | 290944


Range status and errors

Selected range

Filename C:\ArlegZ\Wilhelm Furtwangler - Das Vermachtnis (The Legacy) - CD 01.wav

Peak level 97.7 %
Extraction speed 1.8 X
Range quality 100.0 %
Test CRC 878DCAE7
Copy CRC 878DCAE7
Copy OK

No errors occurred


AccurateRip summary

Track 1 accurately ripped (confidence 27) [63E43777] (AR v2)
Track 2 accurately ripped (confidence 28) [ECEDB458] (AR v2)
Track 3 accurately ripped (confidence 28) [BBCAE427] (AR v2)
Track 4 accurately ripped (confidence 28) [062663CC] (AR v2)
Track 5 accurately ripped (confidence 28) [E195581D] (AR v2)
Track 6 accurately ripped (confidence 28) [7BC2E233] (AR v2)
Track 7 accurately ripped (confidence 28) [61580208] (AR v2)
Track 8 accurately ripped (confidence 28) [0BC634EA] (AR v2)
Track 9 accurately ripped (confidence 27) [48D6EE55] (AR v2)
Track 10 accurately ripped (confidence 26) [438749FC] (AR v2)
Track 11 accurately ripped (confidence 27) [C25FA597] (AR v2)

All tracks accurately ripped

End of status report

–– CUETools DB Plugin V2.1.6

[CTDB TOCID: FdqRgNFYjYso3sgFqVGjrf9t5Ak-] found
Submit result: FdqRgNFYjYso3sgFqVGjrf9t5Ak- has been confirmed
Track | CTDB Status
1 | (52/54) Accurately ripped
2 | (54/54) Accurately ripped
3 | (54/54) Accurately ripped
4 | (54/54) Accurately ripped
5 | (54/54) Accurately ripped
6 | (54/54) Accurately ripped
7 | (54/54) Accurately ripped
8 | (54/54) Accurately ripped
9 | (52/54) Accurately ripped
10 | (53/54) Accurately ripped
11 | (53/54) Accurately ripped


==== Log checksum 3BD2B418E9F7C5E8A199C6D59632414969DB8D78AA197EE67DA1B5FD030F9579 ====


Exact Audio Copy V1.5 from 20. February 2020

EAC extraction logfile from 11. January 2021, 17:03

Wilhelm Furtwängler, Wiener Philharmoniker, Wiener Sängerknaben / Das Vermächtnis (The Legacy) - CD 02

Used drive : HL-DT-STDVDRAM GH24NS95 Adapter: 1 ID: 0

Read mode : Secure
Utilize accurate stream : Yes
Defeat audio cache : Yes
Make use of C2 pointers : No

Read offset correction : 6
Overread into Lead-In and Lead-Out : No
Fill up missing offset samples with silence : Yes
Delete leading and trailing silent blocks : No
Null samples used in CRC calculations : Yes
Used interface : Native Win32 interface for Win NT & 2000

Used output format : User Defined Encoder
Selected bitrate : 128 kBit/s
Quality : High
Add ID3 tag : No
Command line compressor : C:\Program Files\Exact Audio Copy\Flac\flac.exe
Additional command line options : -V -8 -T "Date=%year%" -T "Genre=%genre%" %source%


TOC of the extracted CD

Track | Start | Length | Start sector | End sector
––––––––––––––––––––––––––––-
1 | 0:00.00 | 8:45.09 | 0 | 39383
2 | 8:45.09 | 5:37.42 | 39384 | 64700
3 | 14:22.51 | 7:16.30 | 64701 | 97430
4 | 21:39.06 | 8:16.70 | 97431 | 134700
5 | 29:56.01 | 5:37.48 | 134701 | 160023
6 | 35:33.49 | 3:22.40 | 160024 | 175213
7 | 38:56.14 | 5:21.55 | 175214 | 199343
8 | 44:17.69 | 10:13.40 | 199344 | 245358
9 | 54:31.34 | 3:13.43 | 245359 | 259876


Range status and errors

Selected range

Filename C:\ArlegZ\Wilhelm Furtwangler - Das Vermachtnis (The Legacy) - CD 02.wav

Peak level 97.7 %
Extraction speed 1.8 X
Range quality 100.0 %
Test CRC 053DD61A
Copy CRC 053DD61A
Copy OK

No errors occurred


AccurateRip summary

Track 1 accurately ripped (confidence 27) [B8B9A78F] (AR v2)
Track 2 accurately ripped (confidence 26) [9124C349] (AR v2)
Track 3 accurately ripped (confidence 26) [6C8DB846] (AR v2)
Track 4 accurately ripped (confidence 26) [435E064C] (AR v2)
Track 5 accurately ripped (confidence 26) [C4176019] (AR v2)
Track 6 accurately ripped (confidence 26) [6B7DB113] (AR v2)
Track 7 accurately ripped (confidence 26) [C98C4E33] (AR v2)
Track 8 accurately ripped (confidence 25) [EF26E5A3] (AR v2)
Track 9 accurately ripped (confidence 26) [7BE88652] (AR v2)

All tracks accurately ripped

End of status report

–– CUETools DB Plugin V2.1.6

[CTDB TOCID: LACBPFwq7BrfgxNx__Tox9E5vYs-] found
Submit result: LACBPFwq7BrfgxNx__Tox9E5vYs- has been confirmed
Track | CTDB Status
1 | (53/53) Accurately ripped
2 | (53/53) Accurately ripped
3 | (53/53) Accurately ripped
4 | (52/53) Accurately ripped
5 | (53/53) Accurately ripped
6 | (53/53) Accurately ripped
7 | (53/53) Accurately ripped
8 | (53/53) Accurately ripped
9 | (52/53) Accurately ripped


==== Log checksum 68DA38AB88A55B392AD1929D51C3C33EF5D0A16797E5B4DCEDD1BFDF76C498AA ====


Exact Audio Copy V1.5 from 20. February 2020

EAC extraction logfile from 11. January 2021, 17:44

Wilhelm Furtwängler, Wiener Philharmoniker, Wiener Sängerknaben / Das Vermächtnis (The Legacy) - CD 03

Used drive : HL-DT-STDVDRAM GH24NS95 Adapter: 1 ID: 0

Read mode : Secure
Utilize accurate stream : Yes
Defeat audio cache : Yes
Make use of C2 pointers : No

Read offset correction : 6
Overread into Lead-In and Lead-Out : No
Fill up missing offset samples with silence : Yes
Delete leading and trailing silent blocks : No
Null samples used in CRC calculations : Yes
Used interface : Native Win32 interface for Win NT & 2000

Used output format : User Defined Encoder
Selected bitrate : 128 kBit/s
Quality : High
Add ID3 tag : No
Command line compressor : C:\Program Files\Exact Audio Copy\Flac\flac.exe
Additional command line options : -V -8 -T "Date=%year%" -T "Genre=%genre%" %source%


TOC of the extracted CD

Track | Start | Length | Start sector | End sector
––––––––––––––––––––––––––––-
1 | 0:00.00 | 4:39.43 | 0 | 20967
2 | 4:39.43 | 6:05.12 | 20968 | 48354
3 | 10:44.55 | 8:19.28 | 48355 | 85807
4 | 19:04.08 | 9:16.20 | 85808 | 127527
5 | 28:20.28 | 4:23.02 | 127528 | 147254
6 | 32:43.30 | 9:40.33 | 147255 | 190787
7 | 42:23.63 | 4:39.47 | 190788 | 211759


Range status and errors

Selected range

Filename C:\ArlegZ\Wilhelm Furtwangler - Das Vermachtnis (The Legacy) - CD 03.wav

Peak level 97.7 %
Extraction speed 1.7 X
Range quality 100.0 %
Test CRC 2E60F748
Copy CRC 2E60F748
Copy OK

No errors occurred


AccurateRip summary

Track 1 accurately ripped (confidence 26) [54F8BE44] (AR v2)
Track 2 accurately ripped (confidence 27) [6213299E] (AR v2)
Track 3 accurately ripped (confidence 26) [F6F3DCC0] (AR v2)
Track 4 accurately ripped (confidence 27) [9DFD3711] (AR v2)
Track 5 accurately ripped (confidence 27) [9F2982B6] (AR v2)
Track 6 accurately ripped (confidence 26) [6CBC3B6F] (AR v2)
Track 7 accurately ripped (confidence 27) [33C477C7] (AR v2)

All tracks accurately ripped

End of status report

–– CUETools DB Plugin V2.1.6

[CTDB TOCID: aEJz0F4ZCljGaz3iOdm4rNzXbA8-] found
Submit result: aEJz0F4ZCljGaz3iOdm4rNzXbA8- has been confirmed
Track | CTDB Status
1 | (52/52) Accurately ripped
2 | (51/52) Accurately ripped
3 | (52/52) Accurately ripped
4 | (52/52) Accurately ripped
5 | (52/52) Accurately ripped
6 | (50/52) Accurately ripped
7 | (51/52) Accurately ripped


==== Log checksum 5332A5E0BCF282447135323B45349A4DA0985843D28D8DC48327F219E395D18A ====


Exact Audio Copy V1.5 from 20. February 2020

EAC extraction logfile from 11. January 2021, 18:27

Wilhelm Furtwängler, Wiener Philharmoniker, Wiener Sängerknaben / Das Vermächtnis (The Legacy) - CD 04

Used drive : HL-DT-STDVDRAM GH24NS95 Adapter: 1 ID: 0

Read mode : Secure
Utilize accurate stream : Yes
Defeat audio cache : Yes
Make use of C2 pointers : No

Read offset correction : 6
Overread into Lead-In and Lead-Out : No
Fill up missing offset samples with silence : Yes
Delete leading and trailing silent blocks : No
Null samples used in CRC calculations : Yes
Used interface : Native Win32 interface for Win NT & 2000

Used output format : User Defined Encoder
Selected bitrate : 128 kBit/s
Quality : High
Add ID3 tag : No
Command line compressor : C:\Program Files\Exact Audio Copy\Flac\flac.exe
Additional command line options : -V -8 -T "Date=%year%" -T "Genre=%genre%" %source%


TOC of the extracted CD

Track | Start | Length | Start sector | End sector
––––––––––––––––––––––––––––-
1 | 0:00.00 | 0:16.08 | 0 | 1207
2 | 0:16.08 | 9:04.22 | 1208 | 42029
3 | 9:20.30 | 3:06.48 | 42030 | 56027
4 | 12:27.03 | 2:15.60 | 56028 | 66212
5 | 14:42.63 | 11:16.20 | 66213 | 116932
6 | 25:59.08 | 5:05.50 | 116933 | 139857
7 | 31:04.58 | 5:18.60 | 139858 | 163767
8 | 36:23.43 | 5:38.35 | 163768 | 189152
9 | 42:02.03 | 8:03.27 | 189153 | 225404


Range status and errors

Selected range

Filename C:\ArlegZ\Wilhelm Furtwangler - Das Vermachtnis (The Legacy) - CD 04.wav

Peak level 97.7 %
Extraction speed 1.7 X
Range quality 100.0 %
Test CRC F0B0FBA7
Copy CRC F0B0FBA7
Copy OK

No errors occurred


AccurateRip summary

Track 1 accurately ripped (confidence 28) [7F3F490E] (AR v2)
Track 2 accurately ripped (confidence 28) [EF94241C] (AR v2)
Track 3 accurately ripped (confidence 28) [F898939E] (AR v2)
Track 4 accurately ripped (confidence 28) [94931001] (AR v2)
Track 5 accurately ripped (confidence 28) [6C02E6C5] (AR v2)
Track 6 accurately ripped (confidence 27) [60B3C4B2] (AR v2)
Track 7 accurately ripped (confidence 28) [6731B7C1] (AR v2)
Track 8 accurately ripped (confidence 28) [D0FFA811] (AR v2)
Track 9 accurately ripped (confidence 27) [ECEF2592] (AR v2)

All tracks accurately ripped

End of status report

–– CUETools DB Plugin V2.1.6

[CTDB TOCID: aIVHphfB7._0N8uO7nAy1vcrrdE-] found
Submit result: aIVHphfB7._0N8uO7nAy1vcrrdE- has been confirmed
Track | CTDB Status
1 | (55/55) Accurately ripped
2 | (55/55) Accurately ripped
3 | (55/55) Accurately ripped
4 | (55/55) Accurately ripped
5 | (54/55) Accurately ripped
6 | (55/55) Accurately ripped
7 | (55/55) Accurately ripped
8 | (54/55) Accurately ripped
9 | (50/55) Accurately ripped


==== Log checksum A21FE77FCC5D2708F5628AC8EB5E0EDF43427B51BEC71723B056793834683212 ====


Exact Audio Copy V1.5 from 20. February 2020

EAC extraction logfile from 11. January 2021, 19:23

Wilhelm Furtwängler / Das Vermächtnis (The Legacy) - CD 05

Used drive : HL-DT-STDVDRAM GH24NS95 Adapter: 1 ID: 0

Read mode : Secure
Utilize accurate stream : Yes
Defeat audio cache : Yes
Make use of C2 pointers : No

Read offset correction : 6
Overread into Lead-In and Lead-Out : No
Fill up missing offset samples with silence : Yes
Delete leading and trailing silent blocks : No
Null samples used in CRC calculations : Yes
Used interface : Native Win32 interface for Win NT & 2000

Used output format : User Defined Encoder
Selected bitrate : 128 kBit/s
Quality : High
Add ID3 tag : No
Command line compressor : C:\Program Files\Exact Audio Copy\Flac\flac.exe
Additional command line options : -V -8 -T "Date=%year%" -T "Genre=%genre%" %source%


TOC of the extracted CD

Track | Start | Length | Start sector | End sector
––––––––––––––––––––––––––––-
1 | 0:00.00 | 1:43.68 | 0 | 7792
2 | 1:43.68 | 3:02.28 | 7793 | 21470
3 | 4:46.21 | 2:15.37 | 21471 | 31632
4 | 7:01.58 | 3:47.47 | 31633 | 48704
5 | 10:49.30 | 3:46.45 | 48705 | 65699
6 | 14:36.00 | 3:21.06 | 65700 | 80780
7 | 17:57.06 | 2:11.37 | 80781 | 90642
8 | 20:08.43 | 2:53.69 | 90643 | 103686
9 | 23:02.37 | 4:44.16 | 103687 | 125002
10 | 27:46.53 | 4:00.65 | 125003 | 143067
11 | 31:47.43 | 2:53.59 | 143068 | 156101
12 | 34:41.27 | 8:36.71 | 156102 | 194872
13 | 43:18.23 | 10:06.29 | 194873 | 240351
14 | 53:24.52 | 7:10.24 | 240352 | 272625
15 | 60:35.01 | 3:22.57 | 272626 | 287832
16 | 63:57.58 | 5:01.61 | 287833 | 310468


Range status and errors

Selected range

Filename C:\ArlegZ\Wilhelm Furtwangler - Das Vermachtnis (The Legacy) - CD 05.wav

Peak level 97.7 %
Extraction speed 1.8 X
Range quality 100.0 %
Test CRC 60A2D01A
Copy CRC 60A2D01A
Copy OK

No errors occurred


AccurateRip summary

Track 1 accurately ripped (confidence 28) [17630B2B] (AR v2)
Track 2 accurately ripped (confidence 29) [C1C543A6] (AR v2)
Track 3 accurately ripped (confidence 29) [C45063B9] (AR v2)
Track 4 accurately ripped (confidence 29) [FEA26BB8] (AR v2)
Track 5 accurately ripped (confidence 28) [10C6BB03] (AR v2)
Track 6 accurately ripped (confidence 29) [623805F4] (AR v2)
Track 7 accurately ripped (confidence 29) [30EC1D30] (AR v2)
Track 8 accurately ripped (confidence 29) [3AC26E82] (AR v2)
Track 9 accurately ripped (confidence 29) [E862D3BA] (AR v2)
Track 10 accurately ripped (confidence 29) [0E6C91D3] (AR v2)
Track 11 accurately ripped (confidence 29) [A6A6A5C2] (AR v2)
Track 12 accurately ripped (confidence 28) [165A0A90] (AR v2)
Track 13 accurately ripped (confidence 26) [96C453D4] (AR v2)
Track 14 accurately ripped (confidence 28) [C0CC07AB] (AR v2)
Track 15 accurately ripped (confidence 28) [18E38DA9] (AR v2)
Track 16 accurately ripped (confidence 28) [5018FDAA] (AR v2)

All tracks accurately ripped

End of status report

–– CUETools DB Plugin V2.1.6

[CTDB TOCID: 2Q91JnNmcMNDUmr67OF4BgO9Sfw-] found
Submit result: 2Q91JnNmcMNDUmr67OF4BgO9Sfw- has been confirmed
Track | CTDB Status
1 | (49/49) Accurately ripped
2 | (49/49) Accurately ripped
3 | (49/49) Accurately ripped
4 | (49/49) Accurately ripped
5 | (49/49) Accurately ripped
6 | (49/49) Accurately ripped
7 | (49/49) Accurately ripped
8 | (49/49) Accurately ripped
9 | (49/49) Accurately ripped
10 | (49/49) Accurately ripped
11 | (49/49) Accurately ripped
12 | (49/49) Accurately ripped
13 | (49/49) Accurately ripped
14 | (49/49) Accurately ripped
15 | (49/49) Accurately ripped
16 | (49/49) Accurately ripped


==== Log checksum 8D30DE7D201BCE6D0B157C99A291CD27176D2403E11FECE93EA319845D1FD1A5 ====


Exact Audio Copy V1.5 from 20. February 2020

EAC extraction logfile from 11. January 2021, 20:18

Wilhelm Furtwängler, Coro e Orchestra del Teatro alla Scala / Das Vermächtnis (The Legacy) - CD 06

Used drive : HL-DT-STDVDRAM GH24NS95 Adapter: 1 ID: 0

Read mode : Secure
Utilize accurate stream : Yes
Defeat audio cache : Yes
Make use of C2 pointers : No

Read offset correction : 6
Overread into Lead-In and Lead-Out : No
Fill up missing offset samples with silence : Yes
Delete leading and trailing silent blocks : No
Null samples used in CRC calculations : Yes
Used interface : Native Win32 interface for Win NT & 2000

Used output format : User Defined Encoder
Selected bitrate : 128 kBit/s
Quality : High
Add ID3 tag : No
Command line compressor : C:\Program Files\Exact Audio Copy\Flac\flac.exe
Additional command line options : -V -8 -T "Date=%year%" -T "Genre=%genre%" %source%


TOC of the extracted CD

Track | Start | Length | Start sector | End sector
––––––––––––––––––––––––––––-
1 | 0:00.00 | 3:48.30 | 0 | 17129
2 | 3:48.30 | 9:55.25 | 17130 | 61779
3 | 13:43.55 | 5:13.71 | 61780 | 85325
4 | 18:57.51 | 2:59.36 | 85326 | 98786
5 | 21:57.12 | 2:52.27 | 98787 | 111713
6 | 24:49.39 | 3:13.35 | 111714 | 126223
7 | 28:02.74 | 7:47.12 | 126224 | 161260
8 | 35:50.11 | 4:09.11 | 161261 | 179946
9 | 39:59.22 | 3:53.70 | 179947 | 197491
10 | 43:53.17 | 4:34.60 | 197492 | 218101
11 | 48:28.02 | 4:29.20 | 218102 | 238296
12 | 52:57.22 | 6:11.04 | 238297 | 266125


Range status and errors

Selected range

Filename C:\ArlegZ\Wilhelm Furtwangler - Das Vermachtnis (The Legacy) - CD 06.wav

Peak level 97.7 %
Extraction speed 1.8 X
Range quality 100.0 %
Test CRC 802FF118
Copy CRC 802FF118
Copy OK

No errors occurred


AccurateRip summary

Track 1 accurately ripped (confidence 25) [5663A0E4] (AR v2)
Track 2 accurately ripped (confidence 25) [E6207E2D] (AR v2)
Track 3 accurately ripped (confidence 24) [0B640446] (AR v2)
Track 4 accurately ripped (confidence 25) [E6AF02FA] (AR v2)
Track 5 accurately ripped (confidence 25) [F990DE62] (AR v2)
Track 6 accurately ripped (confidence 25) [5DF1845E] (AR v2)
Track 7 accurately ripped (confidence 25) [D835B0BA] (AR v2)
Track 8 accurately ripped (confidence 25) [2E5CC3CD] (AR v2)
Track 9 accurately ripped (confidence 25) [5FB64084] (AR v2)
Track 10 accurately ripped (confidence 24) [A8A6759C] (AR v2)
Track 11 accurately ripped (confidence 26) [93953A9F] (AR v2)
Track 12 accurately ripped (confidence 26) [43F44936] (AR v2)

All tracks accurately ripped

End of status report

–– CUETools DB Plugin V2.1.6

[CTDB TOCID: VQm9sJ1DSAtSkxG3QPfkRarZqZ4-] found
Submit result: VQm9sJ1DSAtSkxG3QPfkRarZqZ4- has been confirmed
Track | CTDB Status
1 | (50/51) Accurately ripped
2 | (51/51) Accurately ripped
3 | (51/51) Accurately ripped
4 | (51/51) Accurately ripped
5 | (51/51) Accurately ripped
6 | (51/51) Accurately ripped
7 | (50/51) Accurately ripped
8 | (51/51) Accurately ripped
9 | (51/51) Accurately ripped
10 | (50/51) Accurately ripped
11 | (51/51) Accurately ripped
12 | (51/51) Accurately ripped


==== Log checksum 6497C49A681ED59FEF51145FDB7D86C78CF9ADDCF067C7526187256BF51BEC23 ====


Exact Audio Copy V1.5 from 20. February 2020

EAC extraction logfile from 11. January 2021, 21:19

Wilhelm Furtwängler, Coro e Orchestra del Teatro alla Scala / Das Vermächtnis (The Legacy) - CD 07

Used drive : HL-DT-STDVDRAM GH24NS95 Adapter: 1 ID: 0

Read mode : Secure
Utilize accurate stream : Yes
Defeat audio cache : Yes
Make use of C2 pointers : No

Read offset correction : 6
Overread into Lead-In and Lead-Out : No
Fill up missing offset samples with silence : Yes
Delete leading and trailing silent blocks : No
Null samples used in CRC calculations : Yes
Used interface : Native Win32 interface for Win NT & 2000

Used output format : User Defined Encoder
Selected bitrate : 128 kBit/s
Quality : High
Add ID3 tag : No
Command line compressor : C:\Program Files\Exact Audio Copy\Flac\flac.exe
Additional command line options : -V -8 -T "Date=%year%" -T "Genre=%genre%" %source%


TOC of the extracted CD

Track | Start | Length | Start sector | End sector
––––––––––––––––––––––––––––-
1 | 0:00.00 | 5:15.04 | 0 | 23628
2 | 5:15.04 | 5:00.50 | 23629 | 46178
3 | 10:15.54 | 2:52.25 | 46179 | 59103
4 | 13:08.04 | 2:02.10 | 59104 | 68263
5 | 15:10.14 | 0:45.10 | 68264 | 71648
6 | 15:55.24 | 4:06.57 | 71649 | 90155
7 | 20:02.06 | 3:46.21 | 90156 | 107126
8 | 23:48.27 | 5:02.46 | 107127 | 129822
9 | 28:50.73 | 1:45.29 | 129823 | 137726
10 | 30:36.27 | 3:58.00 | 137727 | 155576
11 | 34:34.27 | 2:37.53 | 155577 | 167404
12 | 37:12.05 | 6:01.55 | 167405 | 194534
13 | 43:13.60 | 1:42.63 | 194535 | 202247
14 | 44:56.48 | 2:31.54 | 202248 | 213626
15 | 47:28.27 | 5:36.28 | 213627 | 238854
16 | 53:04.55 | 0:57.13 | 238855 | 243142


Range status and errors

Selected range

Filename C:\ArlegZ\Wilhelm Furtwangler - Das Vermachtnis (The Legacy) - CD 07.wav

Peak level 97.7 %
Extraction speed 1.7 X
Range quality 100.0 %
Test CRC C6EA1A62
Copy CRC C6EA1A62
Copy OK

No errors occurred


AccurateRip summary

Track 1 accurately ripped (confidence 30) [664DEB14] (AR v2)
Track 2 accurately ripped (confidence 30) [586504E2] (AR v2)
Track 3 accurately ripped (confidence 30) [FBB769CA] (AR v2)
Track 4 accurately ripped (confidence 30) [978CD7D4] (AR v2)
Track 5 accurately ripped (confidence 30) [C0C48F5C] (AR v2)
Track 6 accurately ripped (confidence 30) [8C0D45A1] (AR v2)
Track 7 accurately ripped (confidence 30) [90826E59] (AR v2)
Track 8 accurately ripped (confidence 30) [40B07988] (AR v2)
Track 9 accurately ripped (confidence 30) [C99001BD] (AR v2)
Track 10 accurately ripped (confidence 30) [94033CD6] (AR v2)
Track 11 accurately ripped (confidence 30) [FFA3E6EC] (AR v2)
Track 12 accurately ripped (confidence 30) [D68828A0] (AR v2)
Track 13 accurately ripped (confidence 29) [725BF2F2] (AR v2)
Track 14 accurately ripped (confidence 29) [A2DA7807] (AR v2)
Track 15 accurately ripped (confidence 29) [413CBDDB] (AR v2)
Track 16 accurately ripped (confidence 29) [2C94091C] (AR v2)

All tracks accurately ripped

End of status report

–– CUETools DB Plugin V2.1.6

[CTDB TOCID: QpPm1iLeB_ZDhFJHWKU7wKnZMw4-] found
Submit result: QpPm1iLeB_ZDhFJHWKU7wKnZMw4- has been confirmed
Track | CTDB Status
1 | (53/54) Accurately ripped
2 | (54/54) Accurately ripped
3 | (54/54) Accurately ripped
4 | (54/54) Accurately ripped
5 | (54/54) Accurately ripped
6 | (54/54) Accurately ripped
7 | (54/54) Accurately ripped
8 | (54/54) Accurately ripped
9 | (54/54) Accurately ripped
10 | (54/54) Accurately ripped
11 | (54/54) Accurately ripped
12 | (54/54) Accurately ripped
13 | (54/54) Accurately ripped
14 | (54/54) Accurately ripped
15 | (54/54) Accurately ripped
16 | (54/54) Accurately ripped


==== Log checksum DF15E6082CF0CC7D341889268CB631F37CA52A56307FB4EE149A27A077C5EE62 ====


Wilhelm Furtwängler: Das Vermächtnis / The Legacy - Box 1: Bach, Handel, Gluck (2010)