Tags
Language
Tags

Wilhelm Furtwängler: Das Vermächtnis / The Legacy - Box 10: Wagner - The Ring of the Nibelungen (2010)

Posted By: ArlegZ
Wilhelm Furtwängler: Das Vermächtnis / The Legacy - Box 10: Wagner - The Ring of the Nibelungen (2010)

Wilhelm Furtwängler: Das Vermächtnis / The Legacy - Box 10: Wagner - The Ring of the Nibelungen (2010)
EAC | FLAC | Image (Cue & Log) ~ 3.40 Gb | Total time: 15:04:33 | Scans included
Classical | Label: Membran Music | # 233110 | Recorded: 1953

Conductor Wilhelm Furtwangler already enjoyed a worldwide legendary standing during his lifetime - he was considered the German conductor and performances were greeted with rapturous applause. Today, more than 50 years after his death, Wilhelm Furtwangler is still an icon and his work has become an integral part ofthe music scene.
But just what makes up this fascination? And what makes his recordings so special? This edition provides the answers.
These 107 CDs contain all the works Furtwangler ever recorded for release on record - and the "live" recordings he made for radio broadcast. In the case of different versions of the same work having been produced (for example there are 12 recordings of Beethoven's Eroica!.0 the best, most beautiful, or the most exciting interpretations have been chosen for this edition. In addition the numerous bonus CDs and tracks present excerpts taken from alternative recordings.
From his very first recording (Weber's Freischiitz Overture, 1928) to his very last (Wagner's Valkyrie, 1954), this edition features productions of all the Beethoven and Brahms symphonies, the complete Rome recording of Wagner's Ring, recordings of the famous symphonies composed by Schubert, Schumann, Bruckner and Mozart, highlights taken from the Salzburg recordings of Don Giovanni, Magic Flute and Figaro, a live Bayreuth recording of Mastersingers etc. etc. etc.
The edition has been complemented by recordings of rehearsals and interviews. In addition the recording of the famous Salzburg song recital in 1953 reflects on the pianist Wilhelm Furtwangler as accompanist to Elisabeth Schwarzkopf.
Furthermore, the edition contains a DVD with a video clip featuring the famous music critic Prof. Dr. Joachim Kaiser, who provides the answer to the question: why is Wilhelm Furtwangler still the most famous conductor in the world?

Contents:
Richard Wagner (1813-1883)
The Ring of the Nibelungen
CD 73-74: Das Rheingold - RAI Symphony Orchestra 10/26/1953
CD 75-77: Die Walküre - RAI Symphony Orchestra 10/29-11/06/1953
CD 78-81: Siegfried - RAI Symphony Orchestra 11/1953
CD 82-85: Götterdämmerung - RAI Symphony Orchestra 09/1953



Exact Audio Copy V1.5 from 20. February 2020

EAC extraction logfile from 30. January 2021, 10:42

Wilhelm Furtwängler, Orchestra Sinfonica e Coro della Radio Italiana / Das Vermächtnis (The Legacy) - CD 73

Used drive : HL-DT-STDVDRAM GH24NS95 Adapter: 1 ID: 0

Read mode : Secure
Utilize accurate stream : Yes
Defeat audio cache : Yes
Make use of C2 pointers : No

Read offset correction : 6
Overread into Lead-In and Lead-Out : No
Fill up missing offset samples with silence : Yes
Delete leading and trailing silent blocks : No
Null samples used in CRC calculations : Yes
Used interface : Native Win32 interface for Win NT & 2000

Used output format : User Defined Encoder
Selected bitrate : 128 kBit/s
Quality : High
Add ID3 tag : No
Command line compressor : C:\Program Files\Exact Audio Copy\Flac\flac.exe
Additional command line options : -V -8 -T "Date=%year%" -T "Genre=%genre%" %source%


TOC of the extracted CD

Track | Start | Length | Start sector | End sector
––––––––––––––––––––––––––––-
1 | 0:00.00 | 4:44.07 | 0 | 21306
2 | 4:44.07 | 1:30.40 | 21307 | 28096
3 | 6:14.47 | 1:35.73 | 28097 | 35294
4 | 7:50.45 | 8:38.67 | 35295 | 74211
5 | 16:29.37 | 2:30.08 | 74212 | 85469
6 | 18:59.45 | 4:11.15 | 85470 | 104309
7 | 23:10.60 | 0:53.70 | 104310 | 108354
8 | 24:04.55 | 5:12.22 | 108355 | 131776
9 | 29:17.02 | 4:17.53 | 131777 | 151104
10 | 33:34.55 | 2:39.67 | 151105 | 163096
11 | 36:14.47 | 1:58.05 | 163097 | 171951
12 | 38:12.52 | 3:21.13 | 171952 | 187039
13 | 41:33.65 | 4:29.17 | 187040 | 207231
14 | 46:03.07 | 1:39.53 | 207232 | 214709
15 | 47:42.60 | 3:56.52 | 214710 | 232461
16 | 51:39.37 | 2:54.00 | 232462 | 245511
17 | 54:33.37 | 2:07.58 | 245512 | 255094
18 | 56:41.20 | 2:20.30 | 255095 | 265624
19 | 59:01.50 | 4:17.12 | 265625 | 284911
20 | 63:18.62 | 2:22.33 | 284912 | 295594
21 | 65:41.20 | 2:44.20 | 295595 | 307914
22 | 68:25.40 | 2:51.40 | 307915 | 320779
23 | 71:17.05 | 4:27.57 | 320780 | 340861
24 | 75:44.62 | 0:47.33 | 340862 | 344419


Range status and errors

Selected range

Filename C:\ArlegZ\Wilhelm Furtwangler - Das Vermachtnis (The Legacy) - CD 73.wav

Peak level 96.6 %
Extraction speed 2.0 X
Range quality 100.0 %
Test CRC 6F323902
Copy CRC 6F323902
Copy OK

No errors occurred


AccurateRip summary

Track 1 accurately ripped (confidence 23) [725C1E71] (AR v2)
Track 2 accurately ripped (confidence 23) [11690CB6] (AR v2)
Track 3 accurately ripped (confidence 23) [0FAA9777] (AR v2)
Track 4 accurately ripped (confidence 23) [9CC299C0] (AR v2)
Track 5 accurately ripped (confidence 23) [237E98BC] (AR v2)
Track 6 accurately ripped (confidence 23) [829EB531] (AR v2)
Track 7 accurately ripped (confidence 23) [62597D9A] (AR v2)
Track 8 accurately ripped (confidence 23) [446017BF] (AR v2)
Track 9 accurately ripped (confidence 23) [CACA66A9] (AR v2)
Track 10 accurately ripped (confidence 23) [65860973] (AR v2)
Track 11 accurately ripped (confidence 23) [A5AE0E81] (AR v2)
Track 12 accurately ripped (confidence 23) [26ECBE8A] (AR v2)
Track 13 accurately ripped (confidence 23) [D1C356AA] (AR v2)
Track 14 accurately ripped (confidence 23) [20995EB3] (AR v2)
Track 15 accurately ripped (confidence 23) [B20F8CEB] (AR v2)
Track 16 accurately ripped (confidence 23) [D788FD6B] (AR v2)
Track 17 accurately ripped (confidence 23) [6A0C570C] (AR v2)
Track 18 accurately ripped (confidence 23) [5901806B] (AR v2)
Track 19 accurately ripped (confidence 23) [DDA99801] (AR v2)
Track 20 accurately ripped (confidence 23) [674D5287] (AR v2)
Track 21 accurately ripped (confidence 23) [9ABA47FA] (AR v2)
Track 22 accurately ripped (confidence 23) [C93F2BB3] (AR v2)
Track 23 accurately ripped (confidence 23) [EECD7A40] (AR v2)
Track 24 accurately ripped (confidence 23) [1A90154D] (AR v2)

All tracks accurately ripped

End of status report

–– CUETools DB Plugin V2.1.6

[CTDB TOCID: .3L61nHkTnczW_iB0HyG00eZ1Bs-] found
Submit result: .3L61nHkTnczW_iB0HyG00eZ1Bs- has been confirmed
Track | CTDB Status
1 | (74/74) Accurately ripped
2 | (74/74) Accurately ripped
3 | (74/74) Accurately ripped
4 | (74/74) Accurately ripped
5 | (74/74) Accurately ripped
6 | (74/74) Accurately ripped
7 | (74/74) Accurately ripped
8 | (74/74) Accurately ripped
9 | (74/74) Accurately ripped
10 | (74/74) Accurately ripped
11 | (74/74) Accurately ripped
12 | (74/74) Accurately ripped
13 | (74/74) Accurately ripped
14 | (74/74) Accurately ripped
15 | (74/74) Accurately ripped
16 | (74/74) Accurately ripped
17 | (74/74) Accurately ripped
18 | (73/74) Accurately ripped
19 | (73/74) Accurately ripped
20 | (74/74) Accurately ripped
21 | (73/74) Accurately ripped
22 | (73/74) Accurately ripped
23 | (62/74) Accurately ripped
24 | (73/74) Accurately ripped


==== Log checksum 49C9AAFF675285C7C28DA50514D1B3235877BFB36DD491CCFACC9DF28BC6D6EE ====


Exact Audio Copy V1.5 from 20. February 2020

EAC extraction logfile from 30. January 2021, 11:35

Wilhelm Furtwängler, Orchestra Sinfonica e Coro della Radio Italiana / Das Vermächtnis (The Legacy) - CD 74

Used drive : HL-DT-STDVDRAM GH24NS95 Adapter: 1 ID: 0

Read mode : Secure
Utilize accurate stream : Yes
Defeat audio cache : Yes
Make use of C2 pointers : No

Read offset correction : 6
Overread into Lead-In and Lead-Out : No
Fill up missing offset samples with silence : Yes
Delete leading and trailing silent blocks : No
Null samples used in CRC calculations : Yes
Used interface : Native Win32 interface for Win NT & 2000

Used output format : User Defined Encoder
Selected bitrate : 128 kBit/s
Quality : High
Add ID3 tag : No
Command line compressor : C:\Program Files\Exact Audio Copy\Flac\flac.exe
Additional command line options : -V -8 -T "Date=%year%" -T "Genre=%genre%" %source%


TOC of the extracted CD

Track | Start | Length | Start sector | End sector
––––––––––––––––––––––––––––-
1 | 0:00.00 | 2:04.27 | 0 | 9326
2 | 2:04.27 | 5:24.58 | 9327 | 33684
3 | 7:29.10 | 2:37.00 | 33685 | 45459
4 | 10:06.10 | 3:14.37 | 45460 | 60046
5 | 13:20.47 | 3:00.10 | 60047 | 73556
6 | 16:20.57 | 3:50.08 | 73557 | 90814
7 | 20:10.65 | 3:19.60 | 90815 | 105799
8 | 23:30.50 | 4:06.12 | 105800 | 124261
9 | 27:36.62 | 2:38.60 | 124262 | 136171
10 | 30:15.47 | 3:08.20 | 136172 | 150291
11 | 33:23.67 | 5:54.40 | 150292 | 176881
12 | 39:18.32 | 4:04.05 | 176882 | 195186
13 | 43:22.37 | 2:44.55 | 195187 | 207541
14 | 46:07.17 | 3:02.53 | 207542 | 221244
15 | 49:09.70 | 2:32.10 | 221245 | 232654
16 | 51:42.05 | 2:42.60 | 232655 | 244864
17 | 54:24.65 | 5:23.17 | 244865 | 269106
18 | 59:48.07 | 2:04.60 | 269107 | 278466
19 | 61:52.67 | 2:00.33 | 278467 | 287499
20 | 63:53.25 | 2:22.65 | 287500 | 298214
21 | 66:16.15 | 2:26.32 | 298215 | 309196
22 | 68:42.47 | 5:21.25 | 309197 | 333296
23 | 74:03.72 | 0:47.28 | 333297 | 336849
24 | 74:51.25 | 3:48.70 | 336850 | 354019


Range status and errors

Selected range

Filename C:\ArlegZ\Wilhelm Furtwangler - Das Vermachtnis (The Legacy) - CD 74.wav

Peak level 96.6 %
Extraction speed 2.0 X
Range quality 100.0 %
Test CRC 0B4B8FA5
Copy CRC 0B4B8FA5
Copy OK

No errors occurred


AccurateRip summary

Track 1 accurately ripped (confidence 21) [93B894FA] (AR v2)
Track 2 accurately ripped (confidence 21) [6D01295C] (AR v2)
Track 3 accurately ripped (confidence 21) [A087E89C] (AR v2)
Track 4 accurately ripped (confidence 21) [96230789] (AR v2)
Track 5 accurately ripped (confidence 21) [B730D065] (AR v2)
Track 6 accurately ripped (confidence 21) [DF17446A] (AR v2)
Track 7 accurately ripped (confidence 21) [4837A250] (AR v2)
Track 8 accurately ripped (confidence 21) [38ABDA8A] (AR v2)
Track 9 accurately ripped (confidence 21) [69B50A93] (AR v2)
Track 10 accurately ripped (confidence 21) [F497ED25] (AR v2)
Track 11 accurately ripped (confidence 21) [2820043B] (AR v2)
Track 12 accurately ripped (confidence 21) [D8B42D2A] (AR v2)
Track 13 accurately ripped (confidence 21) [26BADED6] (AR v2)
Track 14 accurately ripped (confidence 21) [1C405C89] (AR v2)
Track 15 accurately ripped (confidence 21) [C485CDC6] (AR v2)
Track 16 accurately ripped (confidence 21) [DF266269] (AR v2)
Track 17 accurately ripped (confidence 21) [318F4B69] (AR v2)
Track 18 accurately ripped (confidence 21) [5F000F77] (AR v2)
Track 19 accurately ripped (confidence 21) [E58DCC2C] (AR v2)
Track 20 accurately ripped (confidence 21) [091DB739] (AR v2)
Track 21 accurately ripped (confidence 21) [C40F7D4A] (AR v2)
Track 22 accurately ripped (confidence 20) [C6A39927] (AR v2)
Track 23 accurately ripped (confidence 21) [4967013A] (AR v2)
Track 24 accurately ripped (confidence 21) [B8DAB218] (AR v2)

All tracks accurately ripped

End of status report

–– CUETools DB Plugin V2.1.6

[CTDB TOCID: qzpANoIGMoEGr70ah6jfuietzx8-] found
Submit result: qzpANoIGMoEGr70ah6jfuietzx8- has been confirmed
Track | CTDB Status
1 | (68/69) Accurately ripped
2 | (69/69) Accurately ripped
3 | (68/69) Accurately ripped
4 | (69/69) Accurately ripped
5 | (69/69) Accurately ripped
6 | (69/69) Accurately ripped
7 | (69/69) Accurately ripped
8 | (69/69) Accurately ripped
9 | (69/69) Accurately ripped
10 | (69/69) Accurately ripped
11 | (69/69) Accurately ripped
12 | (69/69) Accurately ripped
13 | (69/69) Accurately ripped
14 | (69/69) Accurately ripped
15 | (69/69) Accurately ripped
16 | (69/69) Accurately ripped
17 | (69/69) Accurately ripped
18 | (69/69) Accurately ripped
19 | (68/69) Accurately ripped
20 | (69/69) Accurately ripped
21 | (69/69) Accurately ripped
22 | (68/69) Accurately ripped
23 | (69/69) Accurately ripped
24 | (68/69) Accurately ripped


==== Log checksum E02691529117750CD32AADFFCD9DCD4D8555655459CBE17753C2E1D12C583DEE ====


Exact Audio Copy V1.5 from 20. February 2020

EAC extraction logfile from 30. January 2021, 12:30

Wilhelm Furtwängler, Orchestra Sinfonica e Coro della Radio Italiana / Das Vermächtnis (The Legacy) - CD 75

Used drive : HL-DT-STDVDRAM GH24NS95 Adapter: 1 ID: 0

Read mode : Secure
Utilize accurate stream : Yes
Defeat audio cache : Yes
Make use of C2 pointers : No

Read offset correction : 6
Overread into Lead-In and Lead-Out : No
Fill up missing offset samples with silence : Yes
Delete leading and trailing silent blocks : No
Null samples used in CRC calculations : Yes
Used interface : Native Win32 interface for Win NT & 2000

Used output format : User Defined Encoder
Selected bitrate : 128 kBit/s
Quality : High
Add ID3 tag : No
Command line compressor : C:\Program Files\Exact Audio Copy\Flac\flac.exe
Additional command line options : -V -8 -T "Date=%year%" -T "Genre=%genre%" %source%


TOC of the extracted CD

Track | Start | Length | Start sector | End sector
––––––––––––––––––––––––––––-
1 | 0:00.00 | 3:53.52 | 0 | 17526
2 | 3:53.52 | 5:04.58 | 17527 | 40384
3 | 8:58.35 | 3:54.62 | 40385 | 57996
4 | 12:53.22 | 3:59.68 | 57997 | 75989
5 | 16:53.15 | 2:57.10 | 75990 | 89274
6 | 19:50.25 | 1:59.42 | 89275 | 98241
7 | 21:49.67 | 3:20.50 | 98242 | 113291
8 | 25:10.42 | 2:48.57 | 113292 | 125948
9 | 27:59.24 | 4:27.41 | 125949 | 146014
10 | 32:26.65 | 5:46.12 | 146015 | 171976
11 | 38:13.02 | 6:21.35 | 171977 | 200586
12 | 44:34.37 | 1:05.23 | 200587 | 205484
13 | 45:39.60 | 4:41.70 | 205485 | 226629
14 | 50:21.55 | 1:22.60 | 226630 | 232839
15 | 51:44.40 | 3:08.70 | 232840 | 247009
16 | 54:53.35 | 2:03.20 | 247010 | 256254
17 | 56:56.55 | 3:02.00 | 256255 | 269904
18 | 59:58.55 | 3:37.07 | 269905 | 286186
19 | 63:35.62 | 1:32.68 | 286187 | 293154
20 | 65:08.55 | 2:51.40 | 293155 | 306019
21 | 68:00.20 | 2:37.62 | 306020 | 317856
22 | 70:38.07 | 2:21.38 | 317857 | 328469
23 | 72:59.45 | 2:00.72 | 328470 | 337541
24 | 75:00.42 | 1:41.14 | 337542 | 345130


Range status and errors

Selected range

Filename C:\ArlegZ\Wilhelm Furtwangler - Das Vermachtnis (The Legacy) - CD 75.wav

Peak level 96.6 %
Extraction speed 2.0 X
Range quality 100.0 %
Test CRC AB46724D
Copy CRC AB46724D
Copy OK

No errors occurred


AccurateRip summary

Track 1 accurately ripped (confidence 20) [B938F750] (AR v2)
Track 2 accurately ripped (confidence 20) [9AF6612C] (AR v2)
Track 3 accurately ripped (confidence 20) [A0D44142] (AR v2)
Track 4 accurately ripped (confidence 20) [E16F6DFC] (AR v2)
Track 5 accurately ripped (confidence 20) [32046178] (AR v2)
Track 6 accurately ripped (confidence 20) [727A273C] (AR v2)
Track 7 accurately ripped (confidence 20) [3AC6938D] (AR v2)
Track 8 accurately ripped (confidence 20) [99159E96] (AR v2)
Track 9 accurately ripped (confidence 20) [9EE4C50F] (AR v2)
Track 10 accurately ripped (confidence 20) [B6147996] (AR v2)
Track 11 accurately ripped (confidence 20) [0CD2BF6E] (AR v2)
Track 12 accurately ripped (confidence 20) [5CCDBFCF] (AR v2)
Track 13 accurately ripped (confidence 20) [8877B13A] (AR v2)
Track 14 accurately ripped (confidence 20) [60E5ADD4] (AR v2)
Track 15 accurately ripped (confidence 20) [E03A9171] (AR v2)
Track 16 accurately ripped (confidence 20) [B9D94A71] (AR v2)
Track 17 accurately ripped (confidence 20) [896BF6B4] (AR v2)
Track 18 accurately ripped (confidence 20) [77D434CF] (AR v2)
Track 19 accurately ripped (confidence 20) [3A57986C] (AR v2)
Track 20 accurately ripped (confidence 20) [1984992A] (AR v2)
Track 21 accurately ripped (confidence 20) [26AF55BF] (AR v2)
Track 22 accurately ripped (confidence 20) [18DCA1BC] (AR v2)
Track 23 accurately ripped (confidence 20) [0744AD7D] (AR v2)
Track 24 accurately ripped (confidence 20) [32C0EC49] (AR v2)

All tracks accurately ripped

End of status report

–– CUETools DB Plugin V2.1.6

[CTDB TOCID: ygl6SiLobFW4vzynRrx_tvwgR_g-] found
Submit result: ygl6SiLobFW4vzynRrx_tvwgR_g- has been confirmed
Track | CTDB Status
1 | (68/68) Accurately ripped
2 | (68/68) Accurately ripped
3 | (68/68) Accurately ripped
4 | (68/68) Accurately ripped
5 | (68/68) Accurately ripped
6 | (68/68) Accurately ripped
7 | (68/68) Accurately ripped
8 | (68/68) Accurately ripped
9 | (68/68) Accurately ripped
10 | (68/68) Accurately ripped
11 | (68/68) Accurately ripped
12 | (68/68) Accurately ripped
13 | (58/68) Accurately ripped
14 | (68/68) Accurately ripped
15 | (68/68) Accurately ripped
16 | (68/68) Accurately ripped
17 | (68/68) Accurately ripped
18 | (58/68) Accurately ripped
19 | (68/68) Accurately ripped
20 | (68/68) Accurately ripped
21 | (68/68) Accurately ripped
22 | (68/68) Accurately ripped
23 | (68/68) Accurately ripped
24 | (57/68) Accurately ripped


==== Log checksum 9C0AE0173C32BD8C21E6212F78396D55507B5C2BCCE41F6137D786C6540A702D ====


Exact Audio Copy V1.5 from 20. February 2020

EAC extraction logfile from 30. January 2021, 13:38

Wilhelm Furtwängler, Orchestra Sinfonica e Coro della Radio Italiana / Das Vermächtnis (The Legacy) - CD 76

Used drive : HL-DT-STDVDRAM GH24NS95 Adapter: 1 ID: 0

Read mode : Secure
Utilize accurate stream : Yes
Defeat audio cache : Yes
Make use of C2 pointers : No

Read offset correction : 6
Overread into Lead-In and Lead-Out : No
Fill up missing offset samples with silence : Yes
Delete leading and trailing silent blocks : No
Null samples used in CRC calculations : Yes
Used interface : Native Win32 interface for Win NT & 2000

Used output format : User Defined Encoder
Selected bitrate : 128 kBit/s
Quality : High
Add ID3 tag : No
Command line compressor : C:\Program Files\Exact Audio Copy\Flac\flac.exe
Additional command line options : -V -8 -T "Date=%year%" -T "Genre=%genre%" %source%


TOC of the extracted CD

Track | Start | Length | Start sector | End sector
––––––––––––––––––––––––––––-
1 | 0:00.00 | 1:06.25 | 0 | 4974
2 | 1:06.25 | 3:14.38 | 4975 | 19562
3 | 4:20.63 | 5:42.22 | 19563 | 45234
4 | 10:03.10 | 2:06.15 | 45235 | 54699
5 | 12:09.25 | 3:29.48 | 54700 | 70422
6 | 15:38.73 | 4:56.47 | 70423 | 92669
7 | 20:35.45 | 2:36.45 | 92670 | 104414
8 | 23:12.15 | 2:58.05 | 104415 | 117769
9 | 26:10.20 | 2:32.30 | 117770 | 129199
10 | 28:42.50 | 2:49.58 | 129200 | 141932
11 | 31:32.33 | 1:20.02 | 141933 | 147934
12 | 32:52.35 | 4:00.73 | 147935 | 166007
13 | 36:53.33 | 1:37.65 | 166008 | 173347
14 | 38:31.23 | 3:36.25 | 173348 | 189572
15 | 42:07.48 | 4:04.35 | 189573 | 207907
16 | 46:12.08 | 2:50.65 | 207908 | 220722
17 | 49:02.73 | 4:16.57 | 220723 | 239979
18 | 53:19.55 | 5:05.15 | 239980 | 262869
19 | 58:24.70 | 3:12.43 | 262870 | 277312
20 | 61:37.38 | 4:41.05 | 277313 | 298392
21 | 66:18.43 | 3:36.47 | 298393 | 314639
22 | 69:55.15 | 4:24.30 | 314640 | 334469
23 | 74:19.45 | 2:23.33 | 334470 | 345227
24 | 76:43.03 | 2:06.60 | 345228 | 354737


Range status and errors

Selected range

Filename C:\ArlegZ\Wilhelm Furtwangler - Das Vermachtnis (The Legacy) - CD 76.wav

Peak level 96.6 %
Extraction speed 2.0 X
Range quality 100.0 %
Test CRC FA972415
Copy CRC FA972415
Copy OK

No errors occurred


AccurateRip summary

Track 1 accurately ripped (confidence 22) [8D6C9074] (AR v2)
Track 2 accurately ripped (confidence 22) [9AA47C35] (AR v2)
Track 3 accurately ripped (confidence 22) [FFAB3AE9] (AR v2)
Track 4 accurately ripped (confidence 22) [BB7680E7] (AR v2)
Track 5 accurately ripped (confidence 22) [30EBBA20] (AR v2)
Track 6 accurately ripped (confidence 22) [0BDBE1F4] (AR v2)
Track 7 accurately ripped (confidence 22) [28C658E3] (AR v2)
Track 8 accurately ripped (confidence 22) [AE11E611] (AR v2)
Track 9 accurately ripped (confidence 22) [F856B82C] (AR v2)
Track 10 accurately ripped (confidence 22) [29E800A3] (AR v2)
Track 11 accurately ripped (confidence 22) [C710B090] (AR v2)
Track 12 accurately ripped (confidence 22) [EB7D6C75] (AR v2)
Track 13 accurately ripped (confidence 22) [29FE5842] (AR v2)
Track 14 accurately ripped (confidence 22) [5961AC74] (AR v2)
Track 15 accurately ripped (confidence 22) [10593F76] (AR v2)
Track 16 accurately ripped (confidence 22) [C0E5EAE3] (AR v2)
Track 17 accurately ripped (confidence 22) [30AE9338] (AR v2)
Track 18 accurately ripped (confidence 21) [8B27617C] (AR v2)
Track 19 accurately ripped (confidence 21) [316069BE] (AR v2)
Track 20 accurately ripped (confidence 21) [C1C797ED] (AR v2)
Track 21 accurately ripped (confidence 21) [0BF0ABD5] (AR v2)
Track 22 accurately ripped (confidence 21) [9DEAB2FF] (AR v2)
Track 23 accurately ripped (confidence 21) [E0C6E1B7] (AR v2)
Track 24 accurately ripped (confidence 21) [2C29F6FA] (AR v2)

All tracks accurately ripped

End of status report

–– CUETools DB Plugin V2.1.6

[CTDB TOCID: vg_O3BPp6V8sZOlAxMWIOGrd2mE-] found
Submit result: vg_O3BPp6V8sZOlAxMWIOGrd2mE- has been confirmed
Track | CTDB Status
1 | (70/70) Accurately ripped
2 | (70/70) Accurately ripped
3 | (70/70) Accurately ripped
4 | (70/70) Accurately ripped
5 | (69/70) Accurately ripped
6 | (70/70) Accurately ripped
7 | (70/70) Accurately ripped
8 | (70/70) Accurately ripped
9 | (70/70) Accurately ripped
10 | (70/70) Accurately ripped
11 | (70/70) Accurately ripped
12 | (70/70) Accurately ripped
13 | (70/70) Accurately ripped
14 | (70/70) Accurately ripped
15 | (70/70) Accurately ripped
16 | (70/70) Accurately ripped
17 | (70/70) Accurately ripped
18 | (61/70) Accurately ripped
19 | (70/70) Accurately ripped
20 | (61/70) Accurately ripped
21 | (61/70) Accurately ripped
22 | (61/70) Accurately ripped
23 | (61/70) Accurately ripped
24 | (61/70) Accurately ripped


==== Log checksum BFC3D3D2DFF8A70F21B46918F2D5823B8E04FAFA8C53617D8E457465AB046481 ====


Exact Audio Copy V1.5 from 20. February 2020

EAC extraction logfile from 30. January 2021, 14:31

Wilhelm Furtwängler, Orchestra Sinfonica e Coro della Radio Italiana / Das Vermächtnis (The Legacy) - CD 77

Used drive : HL-DT-STDVDRAM GH24NS95 Adapter: 1 ID: 0

Read mode : Secure
Utilize accurate stream : Yes
Defeat audio cache : Yes
Make use of C2 pointers : No

Read offset correction : 6
Overread into Lead-In and Lead-Out : No
Fill up missing offset samples with silence : Yes
Delete leading and trailing silent blocks : No
Null samples used in CRC calculations : Yes
Used interface : Native Win32 interface for Win NT & 2000

Used output format : User Defined Encoder
Selected bitrate : 128 kBit/s
Quality : High
Add ID3 tag : No
Command line compressor : C:\Program Files\Exact Audio Copy\Flac\flac.exe
Additional command line options : -V -8 -T "Date=%year%" -T "Genre=%genre%" %source%


TOC of the extracted CD

Track | Start | Length | Start sector | End sector
––––––––––––––––––––––––––––-
1 | 0:00.00 | 2:35.02 | 0 | 11626
2 | 2:35.02 | 5:02.08 | 11627 | 34284
3 | 7:37.10 | 8:11.25 | 34285 | 71134
4 | 15:48.35 | 1:16.60 | 71135 | 76894
5 | 17:05.20 | 2:24.45 | 76895 | 87739
6 | 19:29.65 | 3:25.72 | 87740 | 103186
7 | 22:55.62 | 1:11.63 | 103187 | 108574
8 | 24:07.50 | 1:49.12 | 108575 | 116761
9 | 25:56.62 | 1:30.43 | 116762 | 123554
10 | 27:27.30 | 2:42.02 | 123555 | 135706
11 | 30:09.32 | 2:33.15 | 135707 | 147196
12 | 32:42.47 | 3:00.05 | 147197 | 160701
13 | 35:42.52 | 4:34.58 | 160702 | 181309
14 | 40:17.35 | 3:51.12 | 181310 | 198646
15 | 44:08.47 | 4:08.55 | 198647 | 217301
16 | 48:17.27 | 4:18.15 | 217302 | 236666
17 | 52:35.42 | 0:55.00 | 236667 | 240791
18 | 53:30.42 | 3:12.28 | 240792 | 255219
19 | 56:42.70 | 2:42.55 | 255220 | 267424
20 | 59:25.50 | 2:53.45 | 267425 | 280444
21 | 62:19.20 | 4:54.32 | 280445 | 302526
22 | 67:13.52 | 6:16.50 | 302527 | 330776
23 | 73:30.27 | 1:20.33 | 330777 | 336809
24 | 74:50.60 | 3:46.62 | 336810 | 353821


Range status and errors

Selected range

Filename C:\ArlegZ\Wilhelm Furtwangler - Das Vermachtnis (The Legacy) - CD 77.wav

Peak level 96.6 %
Extraction speed 2.0 X
Range quality 100.0 %
Test CRC BECF93FD
Copy CRC BECF93FD
Copy OK

No errors occurred


AccurateRip summary

Track 1 accurately ripped (confidence 23) [BA4EB41E] (AR v2)
Track 2 accurately ripped (confidence 23) [F913499B] (AR v2)
Track 3 accurately ripped (confidence 23) [604FEFCE] (AR v2)
Track 4 accurately ripped (confidence 23) [4FFF2E30] (AR v2)
Track 5 accurately ripped (confidence 23) [4E4AD66C] (AR v2)
Track 6 accurately ripped (confidence 23) [258C931F] (AR v2)
Track 7 accurately ripped (confidence 23) [8D49EB79] (AR v2)
Track 8 accurately ripped (confidence 23) [01FA1665] (AR v2)
Track 9 accurately ripped (confidence 23) [F58EF5C2] (AR v2)
Track 10 accurately ripped (confidence 23) [C5C5D21C] (AR v2)
Track 11 accurately ripped (confidence 23) [C7C16DFF] (AR v2)
Track 12 accurately ripped (confidence 23) [8296F037] (AR v2)
Track 13 accurately ripped (confidence 23) [B5C5F186] (AR v2)
Track 14 accurately ripped (confidence 23) [E357F1EF] (AR v2)
Track 15 accurately ripped (confidence 23) [4812C168] (AR v2)
Track 16 accurately ripped (confidence 23) [A541B352] (AR v2)
Track 17 accurately ripped (confidence 23) [53CA50A7] (AR v2)
Track 18 accurately ripped (confidence 23) [D0B41D04] (AR v2)
Track 19 accurately ripped (confidence 23) [26A3FDE7] (AR v2)
Track 20 accurately ripped (confidence 23) [3F8DF56B] (AR v2)
Track 21 accurately ripped (confidence 23) [6804F791] (AR v2)
Track 22 accurately ripped (confidence 23) [8B7AD66A] (AR v2)
Track 23 accurately ripped (confidence 23) [DA5B1FCB] (AR v2)
Track 24 accurately ripped (confidence 23) [AC0D30BF] (AR v2)

All tracks accurately ripped

End of status report

–– CUETools DB Plugin V2.1.6

[CTDB TOCID: IxI9EB5BrvJaKeefQgqQ_GpyTVs-] found
Submit result: IxI9EB5BrvJaKeefQgqQ_GpyTVs- has been confirmed
Track | CTDB Status
1 | (70/70) Accurately ripped
2 | (70/70) Accurately ripped
3 | (70/70) Accurately ripped
4 | (70/70) Accurately ripped
5 | (70/70) Accurately ripped
6 | (70/70) Accurately ripped
7 | (70/70) Accurately ripped
8 | (70/70) Accurately ripped
9 | (70/70) Accurately ripped
10 | (70/70) Accurately ripped
11 | (69/70) Accurately ripped
12 | (69/70) Accurately ripped
13 | (70/70) Accurately ripped
14 | (69/70) Accurately ripped
15 | (70/70) Accurately ripped
16 | (69/70) Accurately ripped
17 | (69/70) Accurately ripped
18 | (70/70) Accurately ripped
19 | (70/70) Accurately ripped
20 | (70/70) Accurately ripped
21 | (70/70) Accurately ripped
22 | (70/70) Accurately ripped
23 | (70/70) Accurately ripped
24 | (70/70) Accurately ripped


==== Log checksum C508621BFE911ADC4C7154D321A897CB61ADFA4BC1D237B28D5AA73BBF1F8778 ====


Wilhelm Furtwängler: Das Vermächtnis / The Legacy - Box 10: Wagner - The Ring of the Nibelungen (2010)