Tags
Language
Tags

Wilhelm Furtwängler: Das Vermächtnis / The Legacy - Box 3: Brahms (2010)

Posted By:
Wilhelm Furtwängler: Das Vermächtnis / The Legacy - Box 3: Brahms (2010)

Wilhelm Furtwängler: Das Vermächtnis / The Legacy - Box 3: Brahms (2010)
EAC | FLAC | Image (Cue & Log) ~ 1.86 Gb | Total time: 07:40:49 | Scans included
Classical | Label: Membran Music | # 233110 | Recorded: 1926-1954

Conductor Wilhelm Furtwangler already enjoyed a worldwide legendary standing during his lifetime - he was considered the German conductor and performances were greeted with rapturous applause. Today, more than 50 years after his death, Wilhelm Furtwangler is still an icon and his work has become an integral part ofthe music scene.
But just what makes up this fascination? And what makes his recordings so special? This edition provides the answers.
These 107 CDs contain all the works Furtwangler ever recorded for release on record - and the "live" recordings he made for radio broadcast. In the case of different versions of the same work having been produced (for example there are 12 recordings of Beethoven's Eroica!.0 the best, most beautiful, or the most exciting interpretations have been chosen for this edition. In addition the numerous bonus CDs and tracks present excerpts taken from alternative recordings.
From his very first recording (Weber's Freischiitz Overture, 1928) to his very last (Wagner's Valkyrie, 1954), this edition features productions of all the Beethoven and Brahms symphonies, the complete Rome recording of Wagner's Ring, recordings of the famous symphonies composed by Schubert, Schumann, Bruckner and Mozart, highlights taken from the Salzburg recordings of Don Giovanni, Magic Flute and Figaro, a live Bayreuth recording of Mastersingers etc. etc. etc.
The edition has been complemented by recordings of rehearsals and interviews. In addition the recording of the famous Salzburg song recital in 1953 reflects on the pianist Wilhelm Furtwangler as accompanist to Elisabeth Schwarzkopf.
Furthermore, the edition contains a DVD with a video clip featuring the famous music critic Prof. Dr. Joachim Kaiser, who provides the answer to the question: why is Wilhelm Furtwangler still the most famous conductor in the world?

Contents:
Johannes Brahms (1833-1897)
CD 21:
- Symphony No. 1 - Berlin Philharmonic 02/10/1952
- Variations on a Theme by Haydn - Berlin Philharmonic 06/20/1950
CD 22:
- Symphony No. 2 - Berlin Philharmonic 05/07/1952
- Symphony No. 3 - Berlin Philharmonic 04/27/1954
CD 23:
- Symphony No. 4 - Vienna Philharmonic 08/15/1950
- Hungarian Dances Nos. 1, 3 and 10 - Vienna Philharmonic 04/04/1949
CD 24:
- Piano Concerto No. 2 - Edwin Fischer piano, Berlin Philharmonic 11/08/1942
CD 25:
- Violin Concerto - Yehudi Menuhin violin, Lucerne Festival Orchestra 09/1949
- Concerto for Violin and Cello - Willi Boskovsky violin, Emanuel Brabec cello, Vienna Philharmonic 01/1952
CD 26:
- A German Requiem - Kerstin Lindberg-Torlind, Bernhard Sönnerstedt, Stockholm Philharmonic Orchestra and Chorus 11/19/1948
CD 27:
- Symphony No. 1: IV - Berlin Philharmonic 01/23/1945
- Symphony No. 2: I - Vienna Philharmonic 01/28/1945
- Variations on a Theme by Haydn - Northwest German Radio Symphony Orchestra 10/27/1951
- Violin Concerto: III - Gioconda de Vito violin, RAI Symphony Orchestra of Torino 03/11/1952
- Hungarian Dances Nos. 1 and 10 - Berlin Philharmonic 1930



Exact Audio Copy V1.5 from 20. February 2020

EAC extraction logfile from 13. January 2021, 17:22

Wilhelm Furtwängler, Berliner Philharmoniker / Das Vermachtnis (The Legacy) - CD 21

Used drive : HL-DT-STDVDRAM GH24NS95 Adapter: 1 ID: 0

Read mode : Secure
Utilize accurate stream : Yes
Defeat audio cache : Yes
Make use of C2 pointers : No

Read offset correction : 6
Overread into Lead-In and Lead-Out : No
Fill up missing offset samples with silence : Yes
Delete leading and trailing silent blocks : No
Null samples used in CRC calculations : Yes
Used interface : Native Win32 interface for Win NT & 2000

Used output format : User Defined Encoder
Selected bitrate : 128 kBit/s
Quality : High
Add ID3 tag : No
Command line compressor : C:\Program Files\Exact Audio Copy\Flac\flac.exe
Additional command line options : -V -8 -T "Date=%year%" -T "Genre=%genre%" %source%


TOC of the extracted CD

Track | Start | Length | Start sector | End sector
––––––––––––––––––––––––––––-
1 | 0:00.00 | 14:43.33 | 0 | 66257
2 | 14:43.33 | 10:41.02 | 66258 | 114334
3 | 25:24.35 | 5:22.52 | 114335 | 138536
4 | 30:47.12 | 17:09.00 | 138537 | 215711
5 | 47:56.12 | 20:16.60 | 215712 | 306971


Range status and errors

Selected range

Filename C:\ArlegZ\Wilhelm Furtwangler - Das Vermachtnis (The Legacy) - CD 21.wav

Peak level 97.7 %
Extraction speed 1.8 X
Range quality 100.0 %
Test CRC 097CAB62
Copy CRC 097CAB62
Copy OK

No errors occurred


AccurateRip summary

Track 1 accurately ripped (confidence 28) [A6CDEB84] (AR v2)
Track 2 accurately ripped (confidence 28) [F6F4EDA4] (AR v2)
Track 3 accurately ripped (confidence 28) [04EECB6F] (AR v2)
Track 4 accurately ripped (confidence 28) [B75F9BF1] (AR v2)
Track 5 accurately ripped (confidence 28) [7E7D52FF] (AR v2)

All tracks accurately ripped

End of status report

–– CUETools DB Plugin V2.1.6

[CTDB TOCID: Q4_zyuEEVQl.Ry6I5zfCgjOp63Q-] found
Submit result: Q4_zyuEEVQl.Ry6I5zfCgjOp63Q- has been confirmed
Track | CTDB Status
1 | (51/51) Accurately ripped
2 | (50/51) Accurately ripped
3 | (51/51) Accurately ripped
4 | (51/51) Accurately ripped
5 | (51/51) Accurately ripped


==== Log checksum AD7F1B70922FA9E9F01A77632AB203D446FBDE37496E4AEF4E2082384B74DA78 ====


Exact Audio Copy V1.5 from 20. February 2020

EAC extraction logfile from 13. January 2021, 18:20

Wilhelm Furtwängler, Berliner Philharmoniker / Das Vermachtnis (The Legacy) - CD 22

Used drive : HL-DT-STDVDRAM GH24NS95 Adapter: 1 ID: 0

Read mode : Secure
Utilize accurate stream : Yes
Defeat audio cache : Yes
Make use of C2 pointers : No

Read offset correction : 6
Overread into Lead-In and Lead-Out : No
Fill up missing offset samples with silence : Yes
Delete leading and trailing silent blocks : No
Null samples used in CRC calculations : Yes
Used interface : Native Win32 interface for Win NT & 2000

Used output format : User Defined Encoder
Selected bitrate : 128 kBit/s
Quality : High
Add ID3 tag : No
Command line compressor : C:\Program Files\Exact Audio Copy\Flac\flac.exe
Additional command line options : -V -8 -T "Date=%year%" -T "Genre=%genre%" %source%


TOC of the extracted CD

Track | Start | Length | Start sector | End sector
––––––––––––––––––––––––––––-
1 | 0:00.00 | 15:36.17 | 0 | 70216
2 | 15:36.17 | 10:41.07 | 70217 | 118298
3 | 26:17.24 | 5:58.09 | 118299 | 145157
4 | 32:15.33 | 9:02.11 | 145158 | 185818
5 | 41:17.44 | 10:42.42 | 185819 | 234010
6 | 52:00.11 | 9:51.74 | 234011 | 278409
7 | 61:52.10 | 6:38.73 | 278410 | 308332
8 | 68:31.08 | 9:38.00 | 308333 | 351682


Range status and errors

Selected range

Filename C:\ArlegZ\Wilhelm Furtwangler - Das Vermachtnis (The Legacy) - CD 22.wav

Peak level 97.7 %
Extraction speed 2.0 X
Range quality 100.0 %
Test CRC FD71CF2B
Copy CRC FD71CF2B
Copy OK

No errors occurred


AccurateRip summary

Track 1 accurately ripped (confidence 31) [6AB79F1C] (AR v2)
Track 2 accurately ripped (confidence 31) [0B69DB06] (AR v2)
Track 3 accurately ripped (confidence 31) [6E4680EA] (AR v2)
Track 4 accurately ripped (confidence 31) [D43B1BA2] (AR v2)
Track 5 accurately ripped (confidence 31) [2F9DDE62] (AR v2)
Track 6 accurately ripped (confidence 31) [B7FAA607] (AR v2)
Track 7 accurately ripped (confidence 31) [478F1FE1] (AR v2)
Track 8 accurately ripped (confidence 29) [19D4A790] (AR v2)

All tracks accurately ripped

End of status report

–– CUETools DB Plugin V2.1.6

[CTDB TOCID: bBO8CwyQ5HvWOLvmxwz69kUzZd4-] found
Submit result: bBO8CwyQ5HvWOLvmxwz69kUzZd4- has been confirmed
Track | CTDB Status
1 | (52/52) Accurately ripped
2 | (51/52) Accurately ripped
3 | (52/52) Accurately ripped
4 | (52/52) Accurately ripped
5 | (51/52) Accurately ripped
6 | (52/52) Accurately ripped
7 | (52/52) Accurately ripped
8 | (51/52) Accurately ripped


==== Log checksum 5BEEC94AD4A1861E1137052E2CD9FC4012F5F84ABA4A52E7CF032CE27A87302A ====


Exact Audio Copy V1.5 from 20. February 2020

EAC extraction logfile from 13. January 2021, 19:41

Wilhelm Furtwängler, Wiener Philharmoniker / Das Vermachtnis (The Legacy) - CD 23

Used drive : HL-DT-STDVDRAM GH24NS95 Adapter: 1 ID: 0

Read mode : Secure
Utilize accurate stream : Yes
Defeat audio cache : Yes
Make use of C2 pointers : No

Read offset correction : 6
Overread into Lead-In and Lead-Out : No
Fill up missing offset samples with silence : Yes
Delete leading and trailing silent blocks : No
Null samples used in CRC calculations : Yes
Used interface : Native Win32 interface for Win NT & 2000

Used output format : User Defined Encoder
Selected bitrate : 128 kBit/s
Quality : High
Add ID3 tag : No
Command line compressor : C:\Program Files\Exact Audio Copy\Flac\flac.exe
Additional command line options : -V -8 -T "Date=%year%" -T "Genre=%genre%" %source%


TOC of the extracted CD

Track | Start | Length | Start sector | End sector
––––––––––––––––––––––––––––-
1 | 0:00.00 | 12:49.10 | 0 | 57684
2 | 12:49.10 | 11:59.25 | 57685 | 111634
3 | 24:48.35 | 6:22.32 | 111635 | 140316
4 | 31:10.67 | 9:31.06 | 140317 | 183147
5 | 40:41.73 | 3:03.51 | 183148 | 196923
6 | 43:45.49 | 2:29.58 | 196924 | 208156
7 | 46:15.32 | 1:45.49 | 208157 | 216080


Range status and errors

Selected range

Filename C:\ArlegZ\Wilhelm Furtwangler - Das Vermachtnis (The Legacy) - CD 23.wav

Peak level 97.7 %
Extraction speed 1.6 X
Range quality 99.9 %
Test CRC 367CE745
Copy CRC 367CE745
Copy OK

No errors occurred


AccurateRip summary

Track 1 accurately ripped (confidence 28) [81861E13] (AR v2)
Track 2 accurately ripped (confidence 28) [13E241CC] (AR v2)
Track 3 accurately ripped (confidence 28) [60E727FE] (AR v2)
Track 4 accurately ripped (confidence 28) [FBDA7F3C] (AR v2)
Track 5 accurately ripped (confidence 28) [C1A2F57E] (AR v2)
Track 6 accurately ripped (confidence 28) [9998BC6A] (AR v2)
Track 7 accurately ripped (confidence 28) [E1DC7549] (AR v2)

All tracks accurately ripped

End of status report

–– CUETools DB Plugin V2.1.6

[CTDB TOCID: iRqLE2LiD8OqxaVgyZRAQjnn2Oo-] found
Submit result: iRqLE2LiD8OqxaVgyZRAQjnn2Oo- has been confirmed
Track | CTDB Status
1 | (53/53) Accurately ripped
2 | (53/53) Accurately ripped
3 | (53/53) Accurately ripped
4 | (53/53) Accurately ripped
5 | (53/53) Accurately ripped
6 | (53/53) Accurately ripped
7 | (52/53) Accurately ripped


==== Log checksum 4FFD14431E9B4E5A10FFE489EC653755CDF90E18CE88BCF8C258452B844D604C ====


Exact Audio Copy V1.5 from 20. February 2020

EAC extraction logfile from 14. January 2021, 15:17

Edwin Fischer, Wilhelm Furtwängler, Berliner Philharmoniker / Das Vermachtnis (The Legacy) - CD 24

Used drive : HL-DT-STDVDRAM GH24NS95 Adapter: 1 ID: 0

Read mode : Secure
Utilize accurate stream : Yes
Defeat audio cache : Yes
Make use of C2 pointers : No

Read offset correction : 6
Overread into Lead-In and Lead-Out : No
Fill up missing offset samples with silence : Yes
Delete leading and trailing silent blocks : No
Null samples used in CRC calculations : Yes
Used interface : Native Win32 interface for Win NT & 2000

Used output format : User Defined Encoder
Selected bitrate : 128 kBit/s
Quality : High
Add ID3 tag : No
Command line compressor : C:\Program Files\Exact Audio Copy\Flac\flac.exe
Additional command line options : -V -8 -T "Date=%year%" -T "Genre=%genre%" %source%


TOC of the extracted CD

Track | Start | Length | Start sector | End sector
––––––––––––––––––––––––––––-
1 | 0:00.00 | 17:04.51 | 0 | 76850
2 | 17:04.51 | 8:33.50 | 76851 | 115375
3 | 25:38.26 | 12:40.04 | 115376 | 172379
4 | 38:18.30 | 9:10.17 | 172380 | 213646


Range status and errors

Selected range

Filename C:\ArlegZ\Wilhelm Furtwangler - Das Vermachtnis (The Legacy) - CD 24.wav

Peak level 97.7 %
Extraction speed 1.7 X
Range quality 100.0 %
Test CRC 2BEFE94F
Copy CRC 2BEFE94F
Copy OK

No errors occurred


AccurateRip summary

Track 1 accurately ripped (confidence 31) [BFB92347] (AR v2)
Track 2 accurately ripped (confidence 31) [5C5598B5] (AR v2)
Track 3 accurately ripped (confidence 31) [60A21467] (AR v2)
Track 4 accurately ripped (confidence 31) [41D49E0B] (AR v2)

All tracks accurately ripped

End of status report

–– CUETools DB Plugin V2.1.6

[CTDB TOCID: dRsXK_HwMuSHBO3Xzo2BPU5UQ6o-] found
Submit result: dRsXK_HwMuSHBO3Xzo2BPU5UQ6o- has been confirmed
Track | CTDB Status
1 | (52/52) Accurately ripped
2 | (52/52) Accurately ripped
3 | (52/52) Accurately ripped
4 | (52/52) Accurately ripped


==== Log checksum 62BBB1EEF8AE51969A76BA253C1A676B1BA653C8E3185B7221F83BB4AF23F361 ====


Exact Audio Copy V1.5 from 20. February 2020

EAC extraction logfile from 14. January 2021, 16:14

Wilhelm Furtwängler / Das Vermachtnis (The Legacy) - CD 25

Used drive : HL-DT-STDVDRAM GH24NS95 Adapter: 1 ID: 0

Read mode : Secure
Utilize accurate stream : Yes
Defeat audio cache : Yes
Make use of C2 pointers : No

Read offset correction : 6
Overread into Lead-In and Lead-Out : No
Fill up missing offset samples with silence : Yes
Delete leading and trailing silent blocks : No
Null samples used in CRC calculations : Yes
Used interface : Native Win32 interface for Win NT & 2000

Used output format : User Defined Encoder
Selected bitrate : 128 kBit/s
Quality : High
Add ID3 tag : No
Command line compressor : C:\Program Files\Exact Audio Copy\Flac\flac.exe
Additional command line options : -V -8 -T "Date=%year%" -T "Genre=%genre%" %source%


TOC of the extracted CD

Track | Start | Length | Start sector | End sector
––––––––––––––––––––––––––––-
1 | 0:00.00 | 22:10.50 | 0 | 99799
2 | 22:10.50 | 9:54.73 | 99800 | 144422
3 | 32:05.48 | 8:05.41 | 144423 | 180838
4 | 40:11.14 | 17:17.71 | 180839 | 258684
5 | 57:29.10 | 7:41.57 | 258685 | 293316
6 | 65:10.67 | 9:17.52 | 293317 | 335143


Range status and errors

Selected range

Filename C:\ArlegZ\Wilhelm Furtwangler - Das Vermachtnis (The Legacy) - CD 25.wav

Peak level 97.7 %
Extraction speed 1.9 X
Range quality 100.0 %
Test CRC 7E543276
Copy CRC 7E543276
Copy OK

No errors occurred


AccurateRip summary

Track 1 accurately ripped (confidence 29) [2CA89147] (AR v2)
Track 2 accurately ripped (confidence 29) [AD1E0F10] (AR v2)
Track 3 accurately ripped (confidence 29) [91D3D758] (AR v2)
Track 4 accurately ripped (confidence 29) [D94C900B] (AR v2)
Track 5 accurately ripped (confidence 30) [7175C1A2] (AR v2)
Track 6 accurately ripped (confidence 29) [34BAB1A1] (AR v2)

All tracks accurately ripped

End of status report

–– CUETools DB Plugin V2.1.6

[CTDB TOCID: 6hNiQ76aOE_oOdHEAmUcCnqR1vM-] found
Submit result: 6hNiQ76aOE_oOdHEAmUcCnqR1vM- has been confirmed
Track | CTDB Status
1 | (48/49) Accurately ripped
2 | (49/49) Accurately ripped
3 | (49/49) Accurately ripped
4 | (49/49) Accurately ripped
5 | (49/49) Accurately ripped
6 | (46/49) Accurately ripped


==== Log checksum CB53A0852804B5E64057EEEE9A7C0B1C50C00394497A4FFE6E011E07791E4CF0 ====


Exact Audio Copy V1.5 from 20. February 2020

EAC extraction logfile from 14. January 2021, 17:19

Wilhelm Furtwängler, Stockholm Philharmonic Orchestra & Chorus / Das Vermachtnis (The Legacy) - CD 26

Used drive : HL-DT-STDVDRAM GH24NS95 Adapter: 1 ID: 0

Read mode : Secure
Utilize accurate stream : Yes
Defeat audio cache : Yes
Make use of C2 pointers : No

Read offset correction : 6
Overread into Lead-In and Lead-Out : No
Fill up missing offset samples with silence : Yes
Delete leading and trailing silent blocks : No
Null samples used in CRC calculations : Yes
Used interface : Native Win32 interface for Win NT & 2000

Used output format : User Defined Encoder
Selected bitrate : 128 kBit/s
Quality : High
Add ID3 tag : No
Command line compressor : C:\Program Files\Exact Audio Copy\Flac\flac.exe
Additional command line options : -V -8 -T "Date=%year%" -T "Genre=%genre%" %source%


TOC of the extracted CD

Track | Start | Length | Start sector | End sector
––––––––––––––––––––––––––––-
1 | 0:00.00 | 12:49.66 | 0 | 57740
2 | 12:49.66 | 16:29.49 | 57741 | 131964
3 | 29:19.40 | 10:59.63 | 131965 | 181452
4 | 40:19.28 | 5:44.19 | 181453 | 207271
5 | 46:03.47 | 8:59.29 | 207272 | 247725
6 | 55:03.01 | 11:51.16 | 247726 | 301066
7 | 66:54.17 | 13:03.40 | 301067 | 359831


Range status and errors

Selected range

Filename C:\ArlegZ\Wilhelm Furtwangler - Das Vermachtnis (The Legacy) - CD 26.wav

Peak level 97.7 %
Extraction speed 2.1 X
Range quality 99.9 %
Test CRC 0390F376
Copy CRC 0390F376
Copy OK

No errors occurred


AccurateRip summary

Track 1 accurately ripped (confidence 26) [3F2C2BB9] (AR v2)
Track 2 accurately ripped (confidence 25) [5B08BE5C] (AR v2)
Track 3 accurately ripped (confidence 26) [A179824C] (AR v2)
Track 4 accurately ripped (confidence 26) [622856C0] (AR v2)
Track 5 accurately ripped (confidence 26) [D6CF0527] (AR v2)
Track 6 accurately ripped (confidence 26) [CF8B3226] (AR v2)
Track 7 accurately ripped (confidence 25) [238C5565] (AR v2)

All tracks accurately ripped

End of status report

–– CUETools DB Plugin V2.1.6

[CTDB TOCID: ._5wh8b4EofnsvhN2KLguVaQPOI-] found
Submit result: ._5wh8b4EofnsvhN2KLguVaQPOI- has been confirmed
Track | CTDB Status
1 | (51/51) Accurately ripped
2 | (50/51) Accurately ripped
3 | (49/51) Accurately ripped
4 | (49/51) Accurately ripped
5 | (51/51) Accurately ripped
6 | (50/51) Accurately ripped
7 | (50/51) Accurately ripped


==== Log checksum DE68CF034801F0B860649D3869D2AB0EE083D769E7BEC951B68A8151BEBCEB05 ====


Exact Audio Copy V1.5 from 20. February 2020

EAC extraction logfile from 14. January 2021, 18:55

Wilhelm Furtwängler / Das Vermachtnis (The Legacy) - CD 27

Used drive : HL-DT-STDVDRAM GH24NS95 Adapter: 1 ID: 0

Read mode : Secure
Utilize accurate stream : Yes
Defeat audio cache : Yes
Make use of C2 pointers : No

Read offset correction : 6
Overread into Lead-In and Lead-Out : No
Fill up missing offset samples with silence : Yes
Delete leading and trailing silent blocks : No
Null samples used in CRC calculations : Yes
Used interface : Native Win32 interface for Win NT & 2000

Used output format : User Defined Encoder
Selected bitrate : 128 kBit/s
Quality : High
Add ID3 tag : No
Command line compressor : C:\Program Files\Exact Audio Copy\Flac\flac.exe
Additional command line options : -V -8 -T "Date=%year%" -T "Genre=%genre%" %source%


TOC of the extracted CD

Track | Start | Length | Start sector | End sector
––––––––––––––––––––––––––––-
1 | 0:00.00 | 17:03.67 | 0 | 76791
2 | 17:03.67 | 13:51.62 | 76792 | 139178
3 | 30:55.54 | 21:04.36 | 139179 | 234014
4 | 52:00.15 | 7:58.18 | 234015 | 269882
5 | 59:58.33 | 2:54.56 | 269883 | 282988
6 | 62:53.14 | 1:54.15 | 282989 | 291553


Range status and errors

Selected range

Filename C:\ArlegZ\Wilhelm Furtwangler - Das Vermachtnis (The Legacy) - CD 27.wav

Peak level 97.7 %
Extraction speed 1.8 X
Range quality 99.9 %
Test CRC 1C3F51BB
Copy CRC 1C3F51BB
Copy OK

No errors occurred


AccurateRip summary

Track 1 accurately ripped (confidence 26) [E620B4D3] (AR v2)
Track 2 accurately ripped (confidence 26) [EC5EB6B7] (AR v2)
Track 3 accurately ripped (confidence 28) [363D616F] (AR v2)
Track 4 accurately ripped (confidence 26) [75EE9AEC] (AR v2)
Track 5 accurately ripped (confidence 27) [76C13173] (AR v2)
Track 6 accurately ripped (confidence 27) [626168B3] (AR v2)

All tracks accurately ripped

End of status report

–– CUETools DB Plugin V2.1.6

[CTDB TOCID: h9wBrb8wEsPyFGe1DuObyi6LjtM-] found
Submit result: h9wBrb8wEsPyFGe1DuObyi6LjtM- has been confirmed
Track | CTDB Status
1 | (48/48) Accurately ripped
2 | (48/48) Accurately ripped
3 | (48/48) Accurately ripped
4 | (48/48) Accurately ripped
5 | (48/48) Accurately ripped
6 | (48/48) Accurately ripped


==== Log checksum F12EE93CA9BFAD8446AB14121D66C93572814270BF85D3908CBD3557129B3958 ====


Wilhelm Furtwängler: Das Vermächtnis / The Legacy - Box 3: Brahms (2010)