Tags
Language
Tags

Wilhelm Furtwängler: Das Vermächtnis / The Legacy - Box 7: R.Strauss, Mahler, Hindemith, Strawinsky, Ptitzner (2010)

Posted By: ArlegZ
Wilhelm Furtwängler: Das Vermächtnis / The Legacy - Box 7: R.Strauss, Mahler, Hindemith, Strawinsky, Ptitzner (2010)

Wilhelm Furtwängler: Das Vermächtnis / The Legacy - Box 7: R.Strauss, Mahler, Hindemith, Strawinsky, Ptitzner (2010)
EAC | FLAC | Image (Cue & Log) ~ 1.29 Gb | Total time: 06:10:59 | Scans included
Classical | Label: Membran Music | # 233110 | Recorded: 1926-1954

Conductor Wilhelm Furtwangler already enjoyed a worldwide legendary standing during his lifetime - he was considered the German conductor and performances were greeted with rapturous applause. Today, more than 50 years after his death, Wilhelm Furtwangler is still an icon and his work has become an integral part ofthe music scene.
But just what makes up this fascination? And what makes his recordings so special? This edition provides the answers.
These 107 CDs contain all the works Furtwangler ever recorded for release on record - and the "live" recordings he made for radio broadcast. In the case of different versions of the same work having been produced (for example there are 12 recordings of Beethoven's Eroica!.0 the best, most beautiful, or the most exciting interpretations have been chosen for this edition. In addition the numerous bonus CDs and tracks present excerpts taken from alternative recordings.
From his very first recording (Weber's Freischiitz Overture, 1928) to his very last (Wagner's Valkyrie, 1954), this edition features productions of all the Beethoven and Brahms symphonies, the complete Rome recording of Wagner's Ring, recordings of the famous symphonies composed by Schubert, Schumann, Bruckner and Mozart, highlights taken from the Salzburg recordings of Don Giovanni, Magic Flute and Figaro, a live Bayreuth recording of Mastersingers etc. etc. etc.
The edition has been complemented by recordings of rehearsals and interviews. In addition the recording of the famous Salzburg song recital in 1953 reflects on the pianist Wilhelm Furtwangler as accompanist to Elisabeth Schwarzkopf.
Furthermore, the edition contains a DVD with a video clip featuring the famous music critic Prof. Dr. Joachim Kaiser, who provides the answer to the question: why is Wilhelm Furtwangler still the most famous conductor in the world?

Contents:
Richard Strauss (1864-1949)
CD 57:
- Sinfonia domestica - Berlin Philharmonic 01/12/1944
- Metamorphosen: Study for 23 Solo Strings - Berlin Philharmonic 02/10/1952
CD 58:
- Don Juan - Vienna Philharmonic 01/24/1951
- Till Eulenspiegel's Merry Pranks - Vienna Philharmonic 03/02-03/1954
- Death and Transfiguration - Vienna Philharmonic 01/1950
CD 59:
- Four Songs - Peter Anders, Berlin Philharmonic 02/15/1942
- Four Last Songs - Kirsten Flagstad, Philharmonia Orchestra 05/22/1950
Gustav Mahler (1860-1911)
- Lieder eines fahrenden Gesellen - Dietrich Fischer-Dieskau, Philharmonia Orchestra 06/24-25/1952
Paul Hindemith (1895-1963)
CD 60
- Symphonic Metamorphosis on a Theme by Carl Maria von Weber - Berlin Philharmonic 09/16/1947
- Concerto for Orchestra - Berlin Philharmonic 06/20/1950
- Symphony "Harmony Of The World" - Vienna Philharmonic 08/30/1953
Igor Stravinsky (1882-1971)
CD 61:
- Symphony in Three Movements - Vienna Philharmonic 08/15/1950
- Le Baiser de la fee - Berlin Philharmonic 03/18/1953
Hans Pfitzner (1869-1949)
- Symphony in C major - Vienna Philharmonic 08/07/1949
CD 62:
- Palestrina (excerpts) - Berlin Philharmonic 06/10/1949
Gustav Mahler
- Lieder eines fahrenden Gesellen: Die zwei blauen Augen - Dietrich Fischer-Dieskau, Vienna Philharmonic 08/19/1951
Richard Strauss
- Don Juan - Venezuela Symphony Orchestra 03/21/1954
- Till Eulenspiegel's Merry Pranks - Berlin Philharmonic 1930



Exact Audio Copy V1.5 from 20. February 2020

EAC extraction logfile from 22. January 2021, 16:59

Wilhelm Furtwängler, Berliner Philharmoniker / Das Vermächtnis (The Legacy) - CD 57

Used drive : HL-DT-STDVDRAM GH24NS95 Adapter: 1 ID: 0

Read mode : Secure
Utilize accurate stream : Yes
Defeat audio cache : Yes
Make use of C2 pointers : No

Read offset correction : 6
Overread into Lead-In and Lead-Out : No
Fill up missing offset samples with silence : Yes
Delete leading and trailing silent blocks : No
Null samples used in CRC calculations : Yes
Used interface : Native Win32 interface for Win NT & 2000

Used output format : User Defined Encoder
Selected bitrate : 128 kBit/s
Quality : High
Add ID3 tag : No
Command line compressor : C:\Program Files\Exact Audio Copy\Flac\flac.exe
Additional command line options : -V -8 -T "Date=%year%" -T "Genre=%genre%" %source%


TOC of the extracted CD

Track | Start | Length | Start sector | End sector
––––––––––––––––––––––––––––-
1 | 0:00.00 | 5:15.54 | 0 | 23678
2 | 5:15.54 | 6:17.21 | 23679 | 51974
3 | 11:33.00 | 5:24.34 | 51975 | 76308
4 | 16:57.34 | 12:34.71 | 76309 | 132929
5 | 29:32.30 | 13:08.52 | 132930 | 192081
6 | 42:41.07 | 23:16.62 | 192082 | 296843


Range status and errors

Selected range

Filename C:\ArlegZ\Wilhelm Furtwangler - Das Vermachtnis (The Legacy) - CD 57.wav

Peak level 99.4 %
Extraction speed 1.8 X
Range quality 100.0 %
Test CRC 4DFDDE75
Copy CRC 4DFDDE75
Copy OK

No errors occurred


AccurateRip summary

Track 1 accurately ripped (confidence 19) [6A7B7B7C] (AR v2)
Track 2 accurately ripped (confidence 20) [BBC8CAFA] (AR v2)
Track 3 accurately ripped (confidence 20) [77C13061] (AR v2)
Track 4 accurately ripped (confidence 20) [EA18D4DF] (AR v2)
Track 5 accurately ripped (confidence 20) [9C8CCD46] (AR v2)
Track 6 accurately ripped (confidence 22) [2DB18C3C] (AR v2)

All tracks accurately ripped

End of status report

–– CUETools DB Plugin V2.1.6

[CTDB TOCID: FPaGWPJ2hqNElHpOhvX2Wwc5ITg-] found
Submit result: FPaGWPJ2hqNElHpOhvX2Wwc5ITg- has been confirmed
Track | CTDB Status
1 | (33/33) Accurately ripped
2 | (33/33) Accurately ripped
3 | (33/33) Accurately ripped
4 | (33/33) Accurately ripped
5 | (33/33) Accurately ripped
6 | (33/33) Accurately ripped


==== Log checksum B333482C7E31A0CF19A8736471FCFAEB03F34F38897C314AD3C9EE2CC3C3E76E ====


Exact Audio Copy V1.5 from 20. February 2020

EAC extraction logfile from 23. January 2021, 13:22

Wilhelm Furtwängler, Wiener Philharmoniker / Das Vermächtnis (The Legacy) - CD 58

Used drive : PIONEER DVD-RW DVR-218L Adapter: 1 ID: 0

Read mode : Secure
Utilize accurate stream : Yes
Defeat audio cache : Yes
Make use of C2 pointers : No

Read offset correction : 6
Overread into Lead-In and Lead-Out : No
Fill up missing offset samples with silence : Yes
Delete leading and trailing silent blocks : No
Null samples used in CRC calculations : Yes
Used interface : Native Win32 interface for Win NT & 2000

Used output format : User Defined Encoder
Selected bitrate : 128 kBit/s
Quality : High
Add ID3 tag : No
Command line compressor : C:\Program Files\Exact Audio Copy\Flac\flac.exe
Additional command line options : -V -8 -T "Date=%year%" -T "Genre=%genre%" %source%


TOC of the extracted CD

Track | Start | Length | Start sector | End sector
––––––––––––––––––––––––––––-
1 | 0:00.00 | 18:51.11 | 0 | 84835
2 | 18:51.11 | 16:18.44 | 84836 | 158229
3 | 35:09.55 | 24:40.65 | 158230 | 269294


Range status and errors

Selected range

Filename C:\ArlegZ\Wilhelm Furtwangler - Das Vermachtnis (The Legacy) - CD 58.wav

Peak level 100.0 %
Extraction speed 1.8 X
Range quality 99.9 %
Test CRC EADDFAB6
Copy CRC EADDFAB6
Copy OK

No errors occurred


AccurateRip summary

Track 1 accurately ripped (confidence 23) [29167243] (AR v2)
Track 2 accurately ripped (confidence 22) [137E5E56] (AR v2)
Track 3 accurately ripped (confidence 21) [A1FF9B2D] (AR v2)

All tracks accurately ripped

End of status report

–– CUETools DB Plugin V2.1.6

[CTDB TOCID: zzBwxu0tTAWB5lhcLSYlNbHLaFo-] found
Submit result: zzBwxu0tTAWB5lhcLSYlNbHLaFo- has been confirmed
Track | CTDB Status
1 | (46/46) Accurately ripped
2 | (45/46) Accurately ripped
3 | (46/46) Accurately ripped


==== Log checksum B8C1A362590CCE30583E44611F09989DC374C6316B1572C02A2FD3D853E1DCCA ====


Exact Audio Copy V1.5 from 20. February 2020

EAC extraction logfile from 22. January 2021, 18:44

Wilhelm Furtwängler / Das Vermächtnis (The Legacy) - CD 59

Used drive : HL-DT-STDVDRAM GH24NS95 Adapter: 1 ID: 0

Read mode : Secure
Utilize accurate stream : Yes
Defeat audio cache : Yes
Make use of C2 pointers : No

Read offset correction : 6
Overread into Lead-In and Lead-Out : No
Fill up missing offset samples with silence : Yes
Delete leading and trailing silent blocks : No
Null samples used in CRC calculations : Yes
Used interface : Native Win32 interface for Win NT & 2000

Used output format : User Defined Encoder
Selected bitrate : 128 kBit/s
Quality : High
Add ID3 tag : No
Command line compressor : C:\Program Files\Exact Audio Copy\Flac\flac.exe
Additional command line options : -V -8 -T "Date=%year%" -T "Genre=%genre%" %source%


TOC of the extracted CD

Track | Start | Length | Start sector | End sector
––––––––––––––––––––––––––––-
1 | 0:00.00 | 2:37.34 | 0 | 11808
2 | 2:37.34 | 8:36.07 | 11809 | 50515
3 | 11:13.41 | 1:30.06 | 50516 | 57271
4 | 12:43.47 | 2:43.28 | 57272 | 69524
5 | 15:27.00 | 2:44.05 | 69525 | 81829
6 | 18:11.05 | 4:19.69 | 81830 | 101323
7 | 22:30.74 | 5:13.56 | 101324 | 124854
8 | 27:44.55 | 7:52.42 | 124855 | 160296
9 | 35:37.22 | 4:16.47 | 160297 | 179543
10 | 39:53.69 | 4:46.73 | 179544 | 201066
11 | 44:40.67 | 3:30.02 | 201067 | 216818
12 | 48:10.69 | 5:47.10 | 216819 | 242853


Range status and errors

Selected range

Filename C:\ArlegZ\Wilhelm Furtwangler - Das Vermachtnis (The Legacy) - CD 59.wav

Peak level 96.6 %
Extraction speed 1.7 X
Range quality 100.0 %
Test CRC 3625E780
Copy CRC 3625E780
Copy OK

No errors occurred


AccurateRip summary

Track 1 accurately ripped (confidence 20) [5239A64E] (AR v2)
Track 2 accurately ripped (confidence 20) [D70363E7] (AR v2)
Track 3 accurately ripped (confidence 20) [13AAACAF] (AR v2)
Track 4 accurately ripped (confidence 20) [0336A3F5] (AR v2)
Track 5 accurately ripped (confidence 21) [72590B4D] (AR v2)
Track 6 accurately ripped (confidence 21) [31190F16] (AR v2)
Track 7 accurately ripped (confidence 21) [A0D1EF91] (AR v2)
Track 8 accurately ripped (confidence 21) [559E968E] (AR v2)
Track 9 accurately ripped (confidence 22) [2C032EC5] (AR v2)
Track 10 accurately ripped (confidence 22) [4DF31DAF] (AR v2)
Track 11 accurately ripped (confidence 22) [F635AB90] (AR v2)
Track 12 accurately ripped (confidence 22) [B48E8385] (AR v2)

All tracks accurately ripped

End of status report

–– CUETools DB Plugin V2.1.6

[CTDB TOCID: HQXSkTn4RyehxAqGisB3vz4EMjc-] found
Submit result: HQXSkTn4RyehxAqGisB3vz4EMjc- has been confirmed
Track | CTDB Status
1 | (45/45) Accurately ripped
2 | (45/45) Accurately ripped
3 | (45/45) Accurately ripped
4 | (45/45) Accurately ripped
5 | (45/45) Accurately ripped
6 | (45/45) Accurately ripped
7 | (45/45) Accurately ripped
8 | (45/45) Accurately ripped
9 | (45/45) Accurately ripped
10 | (45/45) Accurately ripped
11 | (44/45) Accurately ripped
12 | (44/45) Accurately ripped


==== Log checksum 3295E1049EB3EA0BE677693C17D1638D605261E3A0910F7CA705B65F8140B455 ====


Exact Audio Copy V1.5 from 20. February 2020

EAC extraction logfile from 22. January 2021, 19:42

Wilhelm Furtwängler / Das Vermächtnis (The Legacy) - CD 60

Used drive : HL-DT-STDVDRAM GH24NS95 Adapter: 1 ID: 0

Read mode : Secure
Utilize accurate stream : Yes
Defeat audio cache : Yes
Make use of C2 pointers : No

Read offset correction : 6
Overread into Lead-In and Lead-Out : No
Fill up missing offset samples with silence : Yes
Delete leading and trailing silent blocks : No
Null samples used in CRC calculations : Yes
Used interface : Native Win32 interface for Win NT & 2000

Used output format : User Defined Encoder
Selected bitrate : 128 kBit/s
Quality : High
Add ID3 tag : No
Command line compressor : C:\Program Files\Exact Audio Copy\Flac\flac.exe
Additional command line options : -V -8 -T "Date=%year%" -T "Genre=%genre%" %source%


TOC of the extracted CD

Track | Start | Length | Start sector | End sector
––––––––––––––––––––––––––––-
1 | 0:00.00 | 4:09.70 | 0 | 18744
2 | 4:09.70 | 7:46.25 | 18745 | 53719
3 | 11:56.20 | 4:47.60 | 53720 | 75304
4 | 16:44.05 | 5:35.25 | 75305 | 100454
5 | 22:19.30 | 3:18.02 | 100455 | 115306
6 | 25:37.32 | 3:28.35 | 115307 | 130941
7 | 29:05.67 | 3:41.32 | 130942 | 147548
8 | 32:47.24 | 2:17.28 | 147549 | 157851
9 | 35:04.52 | 11:32.06 | 157852 | 209757
10 | 46:36.58 | 9:23.32 | 209758 | 252014
11 | 56:00.15 | 12:31.73 | 252015 | 308412


Range status and errors

Selected range

Filename C:\ArlegZ\Wilhelm Furtwangler - Das Vermachtnis (The Legacy) - CD 60.wav

Peak level 97.7 %
Extraction speed 1.8 X
Range quality 99.9 %
Test CRC DE41F591
Copy CRC DE41F591
Copy OK

No errors occurred


AccurateRip summary

Track 1 accurately ripped (confidence 20) [AEF0C542] (AR v2)
Track 2 accurately ripped (confidence 20) [B091620D] (AR v2)
Track 3 accurately ripped (confidence 20) [72454608] (AR v2)
Track 4 accurately ripped (confidence 20) [EFB40CAF] (AR v2)
Track 5 accurately ripped (confidence 20) [91E1FA32] (AR v2)
Track 6 accurately ripped (confidence 20) [8DAAF1C9] (AR v2)
Track 7 accurately ripped (confidence 20) [60965FD4] (AR v2)
Track 8 accurately ripped (confidence 20) [3D9A10FD] (AR v2)
Track 9 accurately ripped (confidence 20) [E37E6296] (AR v2)
Track 10 accurately ripped (confidence 20) [5B94D7F8] (AR v2)
Track 11 accurately ripped (confidence 20) [B5341E4B] (AR v2)

All tracks accurately ripped

End of status report

–– CUETools DB Plugin V2.1.6

[CTDB TOCID: 0Rnmskq.gkrEY1ePRsznczQ7Olk-] found
Submit result: 0Rnmskq.gkrEY1ePRsznczQ7Olk- has been confirmed
Track | CTDB Status
1 | (45/45) Accurately ripped
2 | (45/45) Accurately ripped
3 | (45/45) Accurately ripped
4 | (45/45) Accurately ripped
5 | (45/45) Accurately ripped
6 | (45/45) Accurately ripped
7 | (45/45) Accurately ripped
8 | (45/45) Accurately ripped
9 | (45/45) Accurately ripped
10 | (45/45) Accurately ripped
11 | (45/45) Accurately ripped


==== Log checksum BBE8B236FC1A9BF4FD84FBEA3A2B55416C33B9316FA300D6254487381FBD0E8B ====


Exact Audio Copy V1.5 from 20. February 2020

EAC extraction logfile from 22. January 2021, 20:49

Wilhelm Furtwängler / Das Vermächtnis (The Legacy) - CD 61

Used drive : HL-DT-STDVDRAM GH24NS95 Adapter: 1 ID: 0

Read mode : Secure
Utilize accurate stream : Yes
Defeat audio cache : Yes
Make use of C2 pointers : No

Read offset correction : 6
Overread into Lead-In and Lead-Out : No
Fill up missing offset samples with silence : Yes
Delete leading and trailing silent blocks : No
Null samples used in CRC calculations : Yes
Used interface : Native Win32 interface for Win NT & 2000

Used output format : User Defined Encoder
Selected bitrate : 128 kBit/s
Quality : High
Add ID3 tag : No
Command line compressor : C:\Program Files\Exact Audio Copy\Flac\flac.exe
Additional command line options : -V -8 -T "Date=%year%" -T "Genre=%genre%" %source%


TOC of the extracted CD

Track | Start | Length | Start sector | End sector
––––––––––––––––––––––––––––-
1 | 0:00.00 | 10:22.55 | 0 | 46704
2 | 10:22.55 | 6:04.62 | 46705 | 74066
3 | 16:27.42 | 6:11.05 | 74067 | 101896
4 | 22:38.47 | 6:38.14 | 101897 | 131760
5 | 29:16.61 | 7:10.62 | 131761 | 164072
6 | 36:27.48 | 3:45.13 | 164073 | 180960
7 | 40:12.61 | 3:36.70 | 180961 | 197230
8 | 43:49.56 | 1:23.70 | 197231 | 203525
9 | 45:13.51 | 2:25.47 | 203526 | 214447
10 | 47:39.23 | 15:19.36 | 214448 | 283408


Range status and errors

Selected range

Filename C:\ArlegZ\Wilhelm Furtwangler - Das Vermachtnis (The Legacy) - CD 61.wav

Peak level 97.7 %
Extraction speed 1.8 X
Range quality 99.9 %
Test CRC 2129BA9B
Copy CRC 2129BA9B
Copy OK

No errors occurred


AccurateRip summary

Track 1 accurately ripped (confidence 20) [66941F47] (AR v2)
Track 2 accurately ripped (confidence 20) [9873F2F1] (AR v2)
Track 3 accurately ripped (confidence 20) [2DEFAE6A] (AR v2)
Track 4 accurately ripped (confidence 20) [E49D916D] (AR v2)
Track 5 accurately ripped (confidence 20) [9F497C84] (AR v2)
Track 6 accurately ripped (confidence 20) [BA2F9D99] (AR v2)
Track 7 accurately ripped (confidence 20) [747BBD6C] (AR v2)
Track 8 accurately ripped (confidence 20) [1FC451B4] (AR v2)
Track 9 accurately ripped (confidence 20) [1B78D8D8] (AR v2)
Track 10 accurately ripped (confidence 20) [6054036A] (AR v2)

All tracks accurately ripped

End of status report

–– CUETools DB Plugin V2.1.6

[CTDB TOCID: vPIS1qWFDuKgCWZSnkA6Z5RsS7w-] found
Submit result: vPIS1qWFDuKgCWZSnkA6Z5RsS7w- has been confirmed
Track | CTDB Status
1 | (33/42) Accurately ripped
2 | (33/42) Accurately ripped
3 | (33/42) Accurately ripped
4 | (33/42) Accurately ripped
5 | (33/42) Accurately ripped
6 | (33/42) Accurately ripped
7 | (33/42) Accurately ripped
8 | (33/42) Accurately ripped
9 | (33/42) Accurately ripped
10 | (33/42) Accurately ripped


==== Log checksum 4E24E5D42F859409F3E9CB7CB058918928824930598164300AA783D5E8E16AD6 ====


Exact Audio Copy V1.5 from 20. February 2020

EAC extraction logfile from 22. January 2021, 21:48

Wilhelm Furtwängler / Das Vermächtnis (The Legacy) - CD 62

Used drive : HL-DT-STDVDRAM GH24NS95 Adapter: 1 ID: 0

Read mode : Secure
Utilize accurate stream : Yes
Defeat audio cache : Yes
Make use of C2 pointers : No

Read offset correction : 6
Overread into Lead-In and Lead-Out : No
Fill up missing offset samples with silence : Yes
Delete leading and trailing silent blocks : No
Null samples used in CRC calculations : Yes
Used interface : Native Win32 interface for Win NT & 2000

Used output format : User Defined Encoder
Selected bitrate : 128 kBit/s
Quality : High
Add ID3 tag : No
Command line compressor : C:\Program Files\Exact Audio Copy\Flac\flac.exe
Additional command line options : -V -8 -T "Date=%year%" -T "Genre=%genre%" %source%


TOC of the extracted CD

Track | Start | Length | Start sector | End sector
––––––––––––––––––––––––––––-
1 | 0:00.00 | 8:21.20 | 0 | 37594
2 | 8:21.20 | 6:12.70 | 37595 | 65564
3 | 14:34.15 | 7:43.65 | 65565 | 100354
4 | 22:18.05 | 5:24.58 | 100355 | 124712
5 | 27:42.63 | 17:29.24 | 124713 | 203411
6 | 45:12.12 | 14:58.31 | 203412 | 270792


Range status and errors

Selected range

Filename C:\ArlegZ\Wilhelm Furtwangler - Das Vermachtnis (The Legacy) - CD 62.wav

Peak level 97.7 %
Extraction speed 1.8 X
Range quality 100.0 %
Test CRC 5F98034A
Copy CRC 5F98034A
Copy OK

No errors occurred


AccurateRip summary

Track 1 accurately ripped (confidence 21) [4A13E155] (AR v2)
Track 2 accurately ripped (confidence 21) [10BE37D8] (AR v2)
Track 3 accurately ripped (confidence 21) [4182B441] (AR v2)
Track 4 accurately ripped (confidence 21) [D8678EC9] (AR v2)
Track 5 accurately ripped (confidence 21) [AB6794A9] (AR v2)
Track 6 accurately ripped (confidence 21) [F3E1E7DC] (AR v2)

All tracks accurately ripped

End of status report

–– CUETools DB Plugin V2.1.6

[CTDB TOCID: riSg8wyMvBgK4rQakCfRPsNF0lQ-] found
Submit result: riSg8wyMvBgK4rQakCfRPsNF0lQ- has been confirmed
Track | CTDB Status
1 | (45/45) Accurately ripped
2 | (45/45) Accurately ripped
3 | (45/45) Accurately ripped
4 | (45/45) Accurately ripped
5 | (45/45) Accurately ripped
6 | (45/45) Accurately ripped


==== Log checksum B72EA60E6980FDFE1137831F0C102F7897B3A66C911F0517809A270E2A521289 ====


Wilhelm Furtwängler: Das Vermächtnis / The Legacy - Box 7: R.Strauss, Mahler, Hindemith, Strawinsky, Ptitzner (2010)