Tags
Language
Tags

Wilhelm Furtwängler: Das Vermächtnis / The Legacy - Box 8: Tchaikovsky, Dvorak, Sibelius, Liszt, Smetana (2010)

Posted By:
Wilhelm Furtwängler: Das Vermächtnis / The Legacy - Box 8: Tchaikovsky, Dvorak, Sibelius, Liszt, Smetana (2010)

Wilhelm Furtwängler: Das Vermächtnis / The Legacy - Box 8: Tchaikovsky, Dvorak, Sibelius, Liszt, Smetana (2010)
EAC | FLAC | Image (Cue & Log) ~ 1.29 Gb | Total time: 03:55:21 | Scans included
Classical | Label: Membran Music | # 233110 | Recorded: 1926-1954

Conductor Wilhelm Furtwangler already enjoyed a worldwide legendary standing during his lifetime - he was considered the German conductor and performances were greeted with rapturous applause. Today, more than 50 years after his death, Wilhelm Furtwangler is still an icon and his work has become an integral part ofthe music scene.
But just what makes up this fascination? And what makes his recordings so special? This edition provides the answers.
These 107 CDs contain all the works Furtwangler ever recorded for release on record - and the "live" recordings he made for radio broadcast. In the case of different versions of the same work having been produced (for example there are 12 recordings of Beethoven's Eroica!.0 the best, most beautiful, or the most exciting interpretations have been chosen for this edition. In addition the numerous bonus CDs and tracks present excerpts taken from alternative recordings.
From his very first recording (Weber's Freischiitz Overture, 1928) to his very last (Wagner's Valkyrie, 1954), this edition features productions of all the Beethoven and Brahms symphonies, the complete Rome recording of Wagner's Ring, recordings of the famous symphonies composed by Schubert, Schumann, Bruckner and Mozart, highlights taken from the Salzburg recordings of Don Giovanni, Magic Flute and Figaro, a live Bayreuth recording of Mastersingers etc. etc. etc.
The edition has been complemented by recordings of rehearsals and interviews. In addition the recording of the famous Salzburg song recital in 1953 reflects on the pianist Wilhelm Furtwangler as accompanist to Elisabeth Schwarzkopf.
Furthermore, the edition contains a DVD with a video clip featuring the famous music critic Prof. Dr. Joachim Kaiser, who provides the answer to the question: why is Wilhelm Furtwangler still the most famous conductor in the world?

Contents:
CD 63:
Pyotr Ilyich Tchaikovsky (1840-1893)
- Symphony No. 4 - Vienna Philharmonic 01/08-10/1951
- Serenade For Strings Op. 48 (excerpts) - Vienna Philharmonic 01/01-02/1950
CD 64:
Pyotr Ilyich Tchaikovsky
- Symphony No. 5 - RAI Orchestra of Torino - 06/06/1952
Bedřich Smetana (1824-1884)
- Die Moldau (Vltava) - Vienna Philharmonic 01/24/1951
CD 65:
Pyotr Ilyich Tchaikovsky
- Symphony No. 6 "Pathétique" - Berlin Philharmonic 10-11/1938
Franz Liszt (1811-1886)
- Les Préludes - Vienna Philharmonic 03/03/1954
CD 66:
Jean Sibelius (1865-1957)
- Violin Concerto - Georg Kulenkampff violin, Berlin Philharmonic - 02/07/1943
- En Saga - Berlin Philharmonic 02/10/1943
Antonín Dvořák (1841-1904)
- Slavonic Dance Op. 46 no. 3 - Berlin Philharmonic 1930



Exact Audio Copy V1.5 from 20. February 2020

EAC extraction logfile from 24. January 2021, 20:22

Wilhelm Furtwängler, Wiener Philharmoniker / Das Vermächtnis (The Legacy) - CD 63

Used drive : PIONEER DVD-RW DVR-218L Adapter: 1 ID: 0

Read mode : Secure
Utilize accurate stream : Yes
Defeat audio cache : Yes
Make use of C2 pointers : No

Read offset correction : 6
Overread into Lead-In and Lead-Out : No
Fill up missing offset samples with silence : Yes
Delete leading and trailing silent blocks : No
Null samples used in CRC calculations : Yes
Used interface : Native Win32 interface for Win NT & 2000

Used output format : User Defined Encoder
Selected bitrate : 128 kBit/s
Quality : High
Add ID3 tag : No
Command line compressor : C:\Program Files\Exact Audio Copy\Flac\flac.exe
Additional command line options : -V -8 -T "Date=%year%" -T "Genre=%genre%" %source%


TOC of the extracted CD

Track | Start | Length | Start sector | End sector
––––––––––––––––––––––––––––-
1 | 0:00.00 | 19:10.23 | 0 | 86272
2 | 19:10.23 | 10:15.62 | 86273 | 132459
3 | 29:26.10 | 5:55.63 | 132460 | 159147
4 | 35:21.73 | 9:15.27 | 159148 | 200799
5 | 44:37.25 | 4:27.08 | 200800 | 220832
6 | 49:04.33 | 7:44.48 | 220833 | 255680


Range status and errors

Selected range

Filename C:\ArlegZ\Wilhelm Furtwangler - Das Vermachtnis (The Legacy) - CD 63.wav

Peak level 97.7 %
Extraction speed 1.8 X
Range quality 100.0 %
Test CRC B88BB875
Copy CRC B88BB875
Copy OK

No errors occurred


AccurateRip summary

Track 1 accurately ripped (confidence 24) [6DEE98E6] (AR v2)
Track 2 accurately ripped (confidence 24) [4723F47A] (AR v2)
Track 3 accurately ripped (confidence 24) [7E9EEAF0] (AR v2)
Track 4 accurately ripped (confidence 24) [4B02A2C7] (AR v2)
Track 5 accurately ripped (confidence 24) [BB38CD06] (AR v2)
Track 6 accurately ripped (confidence 24) [7535C86E] (AR v2)

All tracks accurately ripped

End of status report

–– CUETools DB Plugin V2.1.6

[CTDB TOCID: GBe956yYqSJM8dG0NjDsZnddyG0-] found
Submit result: GBe956yYqSJM8dG0NjDsZnddyG0- has been confirmed
Track | CTDB Status
1 | (47/47) Accurately ripped
2 | (47/47) Accurately ripped
3 | (47/47) Accurately ripped
4 | (47/47) Accurately ripped
5 | (47/47) Accurately ripped
6 | (45/47) Accurately ripped


==== Log checksum 76D9A8DC2349DEEBBEB278918EECB9D18E54B02F38FC4BB10D7039E87087AB9A ====


Exact Audio Copy V1.5 from 20. February 2020

EAC extraction logfile from 24. January 2021, 21:50

Wilhelm Furtwängler / Das Vermächtnis (The Legacy) - CD 64

Used drive : PIONEER DVD-RW DVR-218L Adapter: 1 ID: 0

Read mode : Secure
Utilize accurate stream : Yes
Defeat audio cache : Yes
Make use of C2 pointers : No

Read offset correction : 6
Overread into Lead-In and Lead-Out : No
Fill up missing offset samples with silence : Yes
Delete leading and trailing silent blocks : No
Null samples used in CRC calculations : Yes
Used interface : Native Win32 interface for Win NT & 2000

Used output format : User Defined Encoder
Selected bitrate : 128 kBit/s
Quality : High
Add ID3 tag : No
Command line compressor : C:\Program Files\Exact Audio Copy\Flac\flac.exe
Additional command line options : -V -8 -T "Date=%year%" -T "Genre=%genre%" %source%


TOC of the extracted CD

Track | Start | Length | Start sector | End sector
––––––––––––––––––––––––––––-
1 | 0:00.00 | 15:11.15 | 0 | 68339
2 | 15:11.15 | 13:56.60 | 68340 | 131099
3 | 29:08.00 | 6:52.30 | 131100 | 162029
4 | 36:00.30 | 10:47.33 | 162030 | 210587
5 | 46:47.63 | 12:48.45 | 210588 | 268232


Range status and errors

Selected range

Filename C:\ArlegZ\Wilhelm Furtwangler - Das Vermachtnis (The Legacy) - CD 64.wav

Peak level 97.7 %
Extraction speed 1.8 X
Range quality 100.0 %
Test CRC 3D0A2E48
Copy CRC 3D0A2E48
Copy OK

No errors occurred


AccurateRip summary

Track 1 accurately ripped (confidence 24) [D39EBD5F] (AR v2)
Track 2 accurately ripped (confidence 24) [FF752C20] (AR v2)
Track 3 accurately ripped (confidence 24) [B6AD0D5F] (AR v2)
Track 4 accurately ripped (confidence 24) [E99D7562] (AR v2)
Track 5 accurately ripped (confidence 24) [D60D19E5] (AR v2)

All tracks accurately ripped

End of status report

–– CUETools DB Plugin V2.1.6

[CTDB TOCID: 7pdq9ZtvBeaT.CJWS2xuTeN5Zig-] found
Submit result: 7pdq9ZtvBeaT.CJWS2xuTeN5Zig- has been confirmed
Track | CTDB Status
1 | (44/44) Accurately ripped
2 | (44/44) Accurately ripped
3 | (44/44) Accurately ripped
4 | (44/44) Accurately ripped
5 | (44/44) Accurately ripped


==== Log checksum D118A253CD15C074F5C6413D50DF6E1E7E0FAE2203BC18FBFB93EE0D3E1D26CA ====


Exact Audio Copy V1.5 from 20. February 2020

EAC extraction logfile from 24. January 2021, 23:07

Wilhelm Furtwängler / Das Vermächtnis (The Legacy) - CD 65

Used drive : PIONEER DVD-RW DVR-218L Adapter: 1 ID: 0

Read mode : Secure
Utilize accurate stream : Yes
Defeat audio cache : Yes
Make use of C2 pointers : No

Read offset correction : 6
Overread into Lead-In and Lead-Out : No
Fill up missing offset samples with silence : Yes
Delete leading and trailing silent blocks : No
Null samples used in CRC calculations : Yes
Used interface : Native Win32 interface for Win NT & 2000

Used output format : User Defined Encoder
Selected bitrate : 128 kBit/s
Quality : High
Add ID3 tag : No
Command line compressor : C:\Program Files\Exact Audio Copy\Flac\flac.exe
Additional command line options : -V -8 -T "Date=%year%" -T "Genre=%genre%" %source%


TOC of the extracted CD

Track | Start | Length | Start sector | End sector
––––––––––––––––––––––––––––-
1 | 0:00.00 | 20:10.60 | 0 | 90809
2 | 20:10.60 | 8:52.66 | 90810 | 130775
3 | 29:03.51 | 9:19.42 | 130776 | 172742
4 | 38:23.18 | 10:22.27 | 172743 | 219419
5 | 48:45.45 | 15:14.52 | 219420 | 288021


Range status and errors

Selected range

Filename C:\ArlegZ\Wilhelm Furtwangler - Das Vermachtnis (The Legacy) - CD 65.wav

Peak level 97.7 %
Extraction speed 1.8 X
Range quality 100.0 %
Test CRC 1FCA647D
Copy CRC 1FCA647D
Copy OK

No errors occurred


AccurateRip summary

Track 1 accurately ripped (confidence 25) [A1FA40F9] (AR v2)
Track 2 accurately ripped (confidence 25) [590ACD76] (AR v2)
Track 3 accurately ripped (confidence 25) [73D25FC9] (AR v2)
Track 4 accurately ripped (confidence 25) [1C68B145] (AR v2)
Track 5 accurately ripped (confidence 26) [269C0DA6] (AR v2)

All tracks accurately ripped

End of status report

–– CUETools DB Plugin V2.1.6

[CTDB TOCID: bT4MSskTk7fBN4ye0g6YH5DIUs8-] found
Submit result: bT4MSskTk7fBN4ye0g6YH5DIUs8- has been confirmed
Track | CTDB Status
1 | (47/47) Accurately ripped
2 | (47/47) Accurately ripped
3 | (47/47) Accurately ripped
4 | (47/47) Accurately ripped
5 | (46/47) Accurately ripped


==== Log checksum 8D11B98ADAEC495C511BD4A9B87332F8C2687C6BE167194484F597A5A47C1F4F ====


Exact Audio Copy V1.5 from 20. February 2020

EAC extraction logfile from 25. January 2021, 12:15

Wilhelm Furtwängler, Berliner Philharmoniker / Das Vermächtnis (The Legacy) - CD 66

Used drive : HL-DT-STDVDRAM GH24NS95 Adapter: 1 ID: 0

Read mode : Secure
Utilize accurate stream : Yes
Defeat audio cache : Yes
Make use of C2 pointers : No

Read offset correction : 6
Overread into Lead-In and Lead-Out : No
Fill up missing offset samples with silence : Yes
Delete leading and trailing silent blocks : No
Null samples used in CRC calculations : Yes
Used interface : Native Win32 interface for Win NT & 2000

Used output format : User Defined Encoder
Selected bitrate : 128 kBit/s
Quality : High
Add ID3 tag : No
Command line compressor : C:\Program Files\Exact Audio Copy\Flac\flac.exe
Additional command line options : -V -8 -T "Date=%year%" -T "Genre=%genre%" %source%


TOC of the extracted CD

Track | Start | Length | Start sector | End sector
––––––––––––––––––––––––––––-
1 | 0:00.00 | 15:15.02 | 0 | 68626
2 | 15:15.02 | 7:54.60 | 68627 | 104236
3 | 23:09.62 | 7:29.61 | 104237 | 137972
4 | 30:39.48 | 20:10.25 | 137973 | 228747
5 | 50:49.73 | 4:18.02 | 228748 | 248099


Range status and errors

Selected range

Filename C:\ArlegZ\Wilhelm Furtwangler - Das Vermachtnis (The Legacy) - CD 66.wav

Peak level 97.7 %
Extraction speed 1.7 X
Range quality 100.0 %
Test CRC F1B9F1E6
Copy CRC F1B9F1E6
Copy OK

No errors occurred


AccurateRip summary

Track 1 accurately ripped (confidence 24) [46D6169D] (AR v2)
Track 2 accurately ripped (confidence 24) [FEF8189D] (AR v2)
Track 3 accurately ripped (confidence 24) [AD8204EC] (AR v2)
Track 4 accurately ripped (confidence 24) [F4683BCF] (AR v2)
Track 5 accurately ripped (confidence 24) [CE9A378C] (AR v2)

All tracks accurately ripped

End of status report

–– CUETools DB Plugin V2.1.6

[CTDB TOCID: 7BTbT.tP0A6ickR9J4y4aRoPgOI-] found
Submit result: 7BTbT.tP0A6ickR9J4y4aRoPgOI- has been confirmed
Track | CTDB Status
1 | (47/47) Accurately ripped
2 | (47/47) Accurately ripped
3 | (46/47) Accurately ripped
4 | (47/47) Accurately ripped
5 | (46/47) Accurately ripped


==== Log checksum 68031E4A4427B0F300E8B7D8CF7452700E4164C5C502E341EFD41727C06F3DA2 ====


Wilhelm Furtwängler: Das Vermächtnis / The Legacy - Box 8: Tchaikovsky, Dvorak, Sibelius, Liszt, Smetana (2010)