Tags
Language
Tags

Wilhelm Furtwängler: Das Vermächtnis / The Legacy - Box 9: Wagner (2010)

Posted By:
Wilhelm Furtwängler: Das Vermächtnis / The Legacy - Box 9: Wagner (2010)

Wilhelm Furtwängler: Das Vermächtnis / The Legacy - Box 9: Wagner (2010)
EAC | FLAC | Image (Cue & Log) ~ 3.98 Gb | Total time: 15:24:51 | Scans included
Classical | Label: Membran Music | # 233110 | Recorded: 1926-1954

Conductor Wilhelm Furtwangler already enjoyed a worldwide legendary standing during his lifetime - he was considered the German conductor and performances were greeted with rapturous applause. Today, more than 50 years after his death, Wilhelm Furtwangler is still an icon and his work has become an integral part ofthe music scene.
But just what makes up this fascination? And what makes his recordings so special? This edition provides the answers.
These 107 CDs contain all the works Furtwangler ever recorded for release on record - and the "live" recordings he made for radio broadcast. In the case of different versions of the same work having been produced (for example there are 12 recordings of Beethoven's Eroica!.0 the best, most beautiful, or the most exciting interpretations have been chosen for this edition. In addition the numerous bonus CDs and tracks present excerpts taken from alternative recordings.
From his very first recording (Weber's Freischiitz Overture, 1928) to his very last (Wagner's Valkyrie, 1954), this edition features productions of all the Beethoven and Brahms symphonies, the complete Rome recording of Wagner's Ring, recordings of the famous symphonies composed by Schubert, Schumann, Bruckner and Mozart, highlights taken from the Salzburg recordings of Don Giovanni, Magic Flute and Figaro, a live Bayreuth recording of Mastersingers etc. etc. etc.
The edition has been complemented by recordings of rehearsals and interviews. In addition the recording of the famous Salzburg song recital in 1953 reflects on the pianist Wilhelm Furtwangler as accompanist to Elisabeth Schwarzkopf.
Furthermore, the edition contains a DVD with a video clip featuring the famous music critic Prof. Dr. Joachim Kaiser, who provides the answer to the question: why is Wilhelm Furtwangler still the most famous conductor in the world?

Contents:
Richard Wagner (1813-1883)
CD 67:
- Siegfried-Idyll - Vienna Philharmonic 02/16-17/1949
- The Flying Dutchman: Overture - Vienna Philharmonic 03/30-31/1949
- Tannhäuser Overture - Vienna Philharmonic 12/02-03/1952
- Parsifal (excerpts) - Berlin Philharmonic 03/15/1938
CD 68:
Lohengrin (Excerpts from Act 3) - Franz Völker, Maria Müller, Margarete Klose, Josef von Manowarda - Bayreuth Festspiel Chorus & Orchestra 07/19/1936
- Lohengrin, Prelude to Act 1 - Vienna Philharmonic 03/04-05/1954
CD 69-72:
- Die Meistersinger von Nürnberg - Jaro Prohaska, Josef Greindl, Benno Arnold, Bayreuth Festspiel Chorus & Orchestra 1943
CD 86-89:
- Tristan und Isolde - Ludwig Suthaus, Kirsten Flagstad, Dietrich Fischer-Dieskau, Philharmonia Orchestra 06/10-22/1952
CD 90-91: Ring excerpts - Live at Milan Scala 1950
- Das Rheingold - Ferdinand Frantz, Angelo Mattiello, Joachim Sattler, Alois Pernerstorfer, Milan Scala Orchestra 03/02-11/03/1950
- Die Walküre - Günther Treptow, Hilde Konentzni, Kirsten Flagstad, Ferdinand Frantz, Milan Scala Orchestra 03/09-16/1950
- Siegfried - Set Svanholm, Peter Markwort, Kirsten Flagstad, Milan Scala Orchestra 03/22/1950
- Götterdämmerung - Max Lorenz, Ludwig Weber, Kirsten Flagstad, Milan Scala Orchestra 04/04/1950
CD 92: Die Walküre Act I
- Die Walküre - Leonie Rysanek, Ludwig Suthaus - Vienna Philharmonic - 09-10/1954
CD 93-94:
- Tristan und Isolde: Prelude - Berlin Philharmonic - 04/27/1954
- Tristan und Isolde: Mild und leise wie er lächelt - Erna Schlüter, Staatskapelle Berlin 10/03/1947
- Die Meistersinger von Nürnberg: Was duftet doch der Flieder - Rudolf Bockelmann, Vienna Philharmonic 09/05/1938
- Die Meistersinger von Nürnberg - Vienna Philharmonic 04/04/1949
- Parsifal: Karfreitagszauber - Berlin Philharmonic 04/25/1951
- Die Walküre: Du bist der Lenz, nach dem ich verlangte - Maria Müller, Vienna State Opera Orchestra 02/13-17/1936
- Die Walküre - Rudolf Bockelmann, Covent Garden Opera Orchestra 1937
- Götterdämmerung: Trauermarsch - Berlin Philharmonic 1933
- Götterdämmerung: Starke Scheite schichtet mir dort - Kirsten Flagstad, Philharmonia Orchestra 07/23/1952
- Götterdämmerung: Siegfrieds Rheinfahrt - Rome Symphony Orchestra - 05/31/1952



Exact Audio Copy V1.5 from 20. February 2020

EAC extraction logfile from 25. January 2021, 13:11

Wilhelm Furtwängler / Das Vermächtnis (The Legacy) - CD 67

Used drive : HL-DT-STDVDRAM GH24NS95 Adapter: 1 ID: 0

Read mode : Secure
Utilize accurate stream : Yes
Defeat audio cache : Yes
Make use of C2 pointers : No

Read offset correction : 6
Overread into Lead-In and Lead-Out : No
Fill up missing offset samples with silence : Yes
Delete leading and trailing silent blocks : No
Null samples used in CRC calculations : Yes
Used interface : Native Win32 interface for Win NT & 2000

Used output format : User Defined Encoder
Selected bitrate : 128 kBit/s
Quality : High
Add ID3 tag : No
Command line compressor : C:\Program Files\Exact Audio Copy\Flac\flac.exe
Additional command line options : -V -8 -T "Date=%year%" -T "Genre=%genre%" %source%


TOC of the extracted CD

Track | Start | Length | Start sector | End sector
––––––––––––––––––––––––––––-
1 | 0:00.00 | 16:53.41 | 0 | 76015
2 | 16:53.41 | 11:26.30 | 76016 | 127495
3 | 28:19.71 | 13:57.70 | 127496 | 190340
4 | 42:17.66 | 14:09.38 | 190341 | 254053
5 | 56:27.29 | 10:35.02 | 254054 | 301680


Range status and errors

Selected range

Filename C:\ArlegZ\Wilhelm Furtwangler - Das Vermachtnis (The Legacy) - CD 67.wav

Peak level 96.6 %
Extraction speed 1.8 X
Range quality 100.0 %
Test CRC 859CF02D
Copy CRC 859CF02D
Copy OK

No errors occurred


AccurateRip summary

Track 1 accurately ripped (confidence 20) [8FD3BAA1] (AR v2)
Track 2 accurately ripped (confidence 20) [0EC88458] (AR v2)
Track 3 accurately ripped (confidence 20) [B4CE484B] (AR v2)
Track 4 accurately ripped (confidence 20) [969C2EE4] (AR v2)
Track 5 accurately ripped (confidence 20) [DFC77EEF] (AR v2)

All tracks accurately ripped

End of status report

–– CUETools DB Plugin V2.1.6

[CTDB TOCID: tYIhyA1spRnQbSpwaosUkTMUXI4-] found
Submit result: tYIhyA1spRnQbSpwaosUkTMUXI4- has been confirmed
Track | CTDB Status
1 | (46/46) Accurately ripped
2 | (46/46) Accurately ripped
3 | (46/46) Accurately ripped
4 | (46/46) Accurately ripped
5 | (44/46) Accurately ripped


==== Log checksum 56B66821987CD9D3BB7EC95A8F6CF62560EC0692AFA13DF3B41F00C2B697E541 ====


Exact Audio Copy V1.5 from 20. February 2020

EAC extraction logfile from 25. January 2021, 14:53

Wilhelm Furtwängler, Chor und Orchester der Bayreuther Festspiele / Das Vermächtnis (The Legacy) - CD 68

Used drive : HL-DT-STDVDRAM GH24NS95 Adapter: 1 ID: 0

Read mode : Secure
Utilize accurate stream : Yes
Defeat audio cache : Yes
Make use of C2 pointers : No

Read offset correction : 6
Overread into Lead-In and Lead-Out : No
Fill up missing offset samples with silence : Yes
Delete leading and trailing silent blocks : No
Null samples used in CRC calculations : Yes
Used interface : Native Win32 interface for Win NT & 2000

Used output format : User Defined Encoder
Selected bitrate : 128 kBit/s
Quality : High
Add ID3 tag : No
Command line compressor : C:\Program Files\Exact Audio Copy\Flac\flac.exe
Additional command line options : -V -8 -T "Date=%year%" -T "Genre=%genre%" %source%


TOC of the extracted CD

Track | Start | Length | Start sector | End sector
––––––––––––––––––––––––––––-
1 | 0:00.00 | 2:55.65 | 0 | 13189
2 | 2:55.65 | 5:10.70 | 13190 | 36509
3 | 8:06.60 | 4:23.49 | 36510 | 56283
4 | 12:30.34 | 3:59.39 | 56284 | 74247
5 | 16:29.73 | 1:54.31 | 74248 | 82828
6 | 18:24.29 | 4:44.30 | 82829 | 104158
7 | 23:08.59 | 4:43.64 | 104159 | 125447
8 | 27:52.48 | 3:40.74 | 125448 | 142021
9 | 31:33.47 | 9:52.55 | 142022 | 186476


Range status and errors

Selected range

Filename C:\ArlegZ\Wilhelm Furtwangler - Das Vermachtnis (The Legacy) - CD 68.wav

Peak level 96.6 %
Extraction speed 1.6 X
Range quality 99.9 %
Test CRC DDC575C8
Copy CRC DDC575C8
Copy OK

No errors occurred


AccurateRip summary

Track 1 accurately ripped (confidence 20) [4C4C51B2] (AR v2)
Track 2 accurately ripped (confidence 20) [18DA3809] (AR v2)
Track 3 accurately ripped (confidence 20) [64F415FD] (AR v2)
Track 4 accurately ripped (confidence 20) [8BECF235] (AR v2)
Track 5 accurately ripped (confidence 20) [72B9EBE3] (AR v2)
Track 6 accurately ripped (confidence 20) [5B115379] (AR v2)
Track 7 accurately ripped (confidence 20) [95C0EE5F] (AR v2)
Track 8 accurately ripped (confidence 20) [C22FB55E] (AR v2)
Track 9 accurately ripped (confidence 20) [F556B70E] (AR v2)

All tracks accurately ripped

End of status report

–– CUETools DB Plugin V2.1.6

[CTDB TOCID: RSfbsjCAILjESlEJot__GiX4MN4-] found
Submit result: RSfbsjCAILjESlEJot__GiX4MN4- has been confirmed
Track | CTDB Status
1 | (45/45) Accurately ripped
2 | (45/45) Accurately ripped
3 | (45/45) Accurately ripped
4 | (45/45) Accurately ripped
5 | (45/45) Accurately ripped
6 | (45/45) Accurately ripped
7 | (45/45) Accurately ripped
8 | (45/45) Accurately ripped
9 | (45/45) Accurately ripped


==== Log checksum E2148FCAE4E5170CF632F30701F18C669FBABCE8A1995C024CA42BAFD87C56AD ====


Exact Audio Copy V1.5 from 20. February 2020

EAC extraction logfile from 25. January 2021, 16:01

Wilhelm Furtwängler, Chor und Orchester der Bayreuther Festspiele / Das Vermächtnis (The Legacy) - CD 69

Used drive : HL-DT-STDVDRAM GH24NS95 Adapter: 1 ID: 0

Read mode : Secure
Utilize accurate stream : Yes
Defeat audio cache : Yes
Make use of C2 pointers : No

Read offset correction : 6
Overread into Lead-In and Lead-Out : No
Fill up missing offset samples with silence : Yes
Delete leading and trailing silent blocks : No
Null samples used in CRC calculations : Yes
Used interface : Native Win32 interface for Win NT & 2000

Used output format : User Defined Encoder
Selected bitrate : 128 kBit/s
Quality : High
Add ID3 tag : No
Command line compressor : C:\Program Files\Exact Audio Copy\Flac\flac.exe
Additional command line options : -V -8 -T "Date=%year%" -T "Genre=%genre%" %source%


TOC of the extracted CD

Track | Start | Length | Start sector | End sector
––––––––––––––––––––––––––––-
1 | 0:00.00 | 9:01.34 | 0 | 40608
2 | 9:01.34 | 3:30.37 | 40609 | 56395
3 | 12:31.71 | 3:00.38 | 56396 | 69933
4 | 15:32.34 | 5:22.62 | 69934 | 94145
5 | 20:55.21 | 1:29.13 | 94146 | 100833
6 | 22:24.34 | 3:07.00 | 100834 | 114858
7 | 25:31.34 | 4:00.00 | 114859 | 132858
8 | 29:31.34 | 3:01.50 | 132859 | 146483
9 | 32:33.09 | 6:44.25 | 146484 | 176808
10 | 39:17.34 | 5:10.00 | 176809 | 200058
11 | 44:27.34 | 2:30.00 | 200059 | 211308
12 | 46:57.34 | 5:18.00 | 211309 | 235158
13 | 52:15.34 | 5:12.50 | 235159 | 258608
14 | 57:28.09 | 3:15.25 | 258609 | 273258
15 | 60:43.34 | 2:12.50 | 273259 | 283208
16 | 62:56.09 | 7:01.10 | 283209 | 314793


Range status and errors

Selected range

Filename C:\ArlegZ\Wilhelm Furtwangler - Das Vermachtnis (The Legacy) - CD 69.wav

Peak level 97.7 %
Extraction speed 1.8 X
Range quality 100.0 %
Test CRC 71714B29
Copy CRC 71714B29
Copy OK

No errors occurred


AccurateRip summary

Track 1 accurately ripped (confidence 24) [C0FDBF56] (AR v2)
Track 2 accurately ripped (confidence 24) [286C0BFB] (AR v2)
Track 3 accurately ripped (confidence 24) [78C63362] (AR v2)
Track 4 accurately ripped (confidence 24) [ECA97386] (AR v2)
Track 5 accurately ripped (confidence 24) [DCABF729] (AR v2)
Track 6 accurately ripped (confidence 24) [D4A67547] (AR v2)
Track 7 accurately ripped (confidence 24) [BA47DF3C] (AR v2)
Track 8 accurately ripped (confidence 24) [D8E2857E] (AR v2)
Track 9 accurately ripped (confidence 24) [25675F7B] (AR v2)
Track 10 accurately ripped (confidence 24) [9BAE9B34] (AR v2)
Track 11 accurately ripped (confidence 24) [2FE4482A] (AR v2)
Track 12 accurately ripped (confidence 24) [CB082C08] (AR v2)
Track 13 accurately ripped (confidence 24) [186B9FAC] (AR v2)
Track 14 accurately ripped (confidence 24) [6C972046] (AR v2)
Track 15 accurately ripped (confidence 24) [1E0CBB97] (AR v2)
Track 16 accurately ripped (confidence 24) [D43DBEA7] (AR v2)

All tracks accurately ripped

End of status report

–– CUETools DB Plugin V2.1.6

[CTDB TOCID: I8fpq4YHC81Mpd9XElINGz5vcWc-] found
Submit result: I8fpq4YHC81Mpd9XElINGz5vcWc- has been confirmed
Track | CTDB Status
1 | (45/45) Accurately ripped
2 | (45/45) Accurately ripped
3 | (45/45) Accurately ripped
4 | (45/45) Accurately ripped
5 | (45/45) Accurately ripped
6 | (45/45) Accurately ripped
7 | (45/45) Accurately ripped
8 | (45/45) Accurately ripped
9 | (45/45) Accurately ripped
10 | (45/45) Accurately ripped
11 | (45/45) Accurately ripped
12 | (45/45) Accurately ripped
13 | (45/45) Accurately ripped
14 | (45/45) Accurately ripped
15 | (45/45) Accurately ripped
16 | (45/45) Accurately ripped


==== Log checksum B0F92A09A4015B91D4B8252C2B0741D78E0372414B1CE91DF6D9FFCFD1C3F246 ====


Exact Audio Copy V1.5 from 20. February 2020

EAC extraction logfile from 25. January 2021, 17:03

Wilhelm Furtwängler, Chor und Orchester der Bayreuther Festspiele / Das Vermächtnis (The Legacy) - CD 70

Used drive : HL-DT-STDVDRAM GH24NS95 Adapter: 1 ID: 0

Read mode : Secure
Utilize accurate stream : Yes
Defeat audio cache : Yes
Make use of C2 pointers : No

Read offset correction : 6
Overread into Lead-In and Lead-Out : No
Fill up missing offset samples with silence : Yes
Delete leading and trailing silent blocks : No
Null samples used in CRC calculations : Yes
Used interface : Native Win32 interface for Win NT & 2000

Used output format : User Defined Encoder
Selected bitrate : 128 kBit/s
Quality : High
Add ID3 tag : No
Command line compressor : C:\Program Files\Exact Audio Copy\Flac\flac.exe
Additional command line options : -V -8 -T "Date=%year%" -T "Genre=%genre%" %source%


TOC of the extracted CD

Track | Start | Length | Start sector | End sector
––––––––––––––––––––––––––––-
1 | 0:00.00 | 3:50.60 | 0 | 17309
2 | 3:50.60 | 6:20.00 | 17310 | 45809
3 | 10:10.60 | 0:52.50 | 45810 | 49759
4 | 11:03.35 | 5:55.00 | 49760 | 76384
5 | 16:58.35 | 8:53.00 | 76385 | 116359
6 | 25:51.35 | 1:53.25 | 116360 | 124859
7 | 27:44.60 | 3:49.50 | 124860 | 142084
8 | 31:34.35 | 2:04.12 | 142085 | 151396
9 | 33:38.47 | 1:43.25 | 151397 | 159146
10 | 35:21.72 | 1:02.38 | 159147 | 163834
11 | 36:24.35 | 5:20.25 | 163835 | 187859
12 | 41:44.60 | 7:42.50 | 187860 | 222559
13 | 49:27.35 | 11:48.56 | 222560 | 275715


Range status and errors

Selected range

Filename C:\ArlegZ\Wilhelm Furtwangler - Das Vermachtnis (The Legacy) - CD 70.wav

Peak level 97.7 %
Extraction speed 1.8 X
Range quality 99.9 %
Test CRC D2130EC5
Copy CRC D2130EC5
Copy OK

No errors occurred


AccurateRip summary

Track 1 accurately ripped (confidence 23) [9E5F6DCE] (AR v2)
Track 2 accurately ripped (confidence 23) [CF861D23] (AR v2)
Track 3 accurately ripped (confidence 23) [355C9D18] (AR v2)
Track 4 accurately ripped (confidence 23) [F8F3780B] (AR v2)
Track 5 accurately ripped (confidence 23) [34B1F533] (AR v2)
Track 6 accurately ripped (confidence 23) [93FD8D38] (AR v2)
Track 7 accurately ripped (confidence 23) [567F7C8D] (AR v2)
Track 8 accurately ripped (confidence 23) [C90357B3] (AR v2)
Track 9 accurately ripped (confidence 23) [600E680A] (AR v2)
Track 10 accurately ripped (confidence 23) [C6CD813C] (AR v2)
Track 11 accurately ripped (confidence 23) [CAE19FEA] (AR v2)
Track 12 accurately ripped (confidence 23) [EE213CED] (AR v2)
Track 13 accurately ripped (confidence 23) [32FC704D] (AR v2)

All tracks accurately ripped

End of status report

–– CUETools DB Plugin V2.1.6

[CTDB TOCID: E4kSUJX_nm1UGR9tR6d34jP9tIc-] found
Submit result: E4kSUJX_nm1UGR9tR6d34jP9tIc- has been confirmed
Track | CTDB Status
1 | (47/47) Accurately ripped
2 | (47/47) Accurately ripped
3 | (47/47) Accurately ripped
4 | (47/47) Accurately ripped
5 | (47/47) Accurately ripped
6 | (47/47) Accurately ripped
7 | (47/47) Accurately ripped
8 | (47/47) Accurately ripped
9 | (47/47) Accurately ripped
10 | (47/47) Accurately ripped
11 | (47/47) Accurately ripped
12 | (47/47) Accurately ripped
13 | (46/47) Accurately ripped


==== Log checksum 57D24F77A1F733630F63CD2B5AB0375F0F94B2751C932DE0C9AAB27497091553 ====


Exact Audio Copy V1.5 from 20. February 2020

EAC extraction logfile from 25. January 2021, 18:01

Wilhelm Furtwängler, Chor und Orchester der Bayreuther Festspiele / Das Vermächtnis (The Legacy) - CD 71

Used drive : HL-DT-STDVDRAM GH24NS95 Adapter: 1 ID: 0

Read mode : Secure
Utilize accurate stream : Yes
Defeat audio cache : Yes
Make use of C2 pointers : No

Read offset correction : 6
Overread into Lead-In and Lead-Out : No
Fill up missing offset samples with silence : Yes
Delete leading and trailing silent blocks : No
Null samples used in CRC calculations : Yes
Used interface : Native Win32 interface for Win NT & 2000

Used output format : User Defined Encoder
Selected bitrate : 128 kBit/s
Quality : High
Add ID3 tag : No
Command line compressor : C:\Program Files\Exact Audio Copy\Flac\flac.exe
Additional command line options : -V -8 -T "Date=%year%" -T "Genre=%genre%" %source%


TOC of the extracted CD

Track | Start | Length | Start sector | End sector
––––––––––––––––––––––––––––-
1 | 0:00.00 | 7:12.34 | 0 | 32433
2 | 7:12.34 | 4:25.50 | 32434 | 52358
3 | 11:38.09 | 3:27.00 | 52359 | 67883
4 | 15:05.09 | 6:57.62 | 67884 | 99220
5 | 22:02.71 | 4:24.00 | 99221 | 119020
6 | 26:26.71 | 4:48.63 | 119021 | 140683
7 | 31:15.59 | 11:00.12 | 140684 | 190195
8 | 42:15.71 | 6:21.38 | 190196 | 218808
9 | 48:37.34 | 7:30.37 | 218809 | 252595
10 | 56:07.71 | 6:26.38 | 252596 | 281583
11 | 62:34.34 | 5:18.34 | 281584 | 305467


Range status and errors

Selected range

Filename C:\ArlegZ\Wilhelm Furtwangler - Das Vermachtnis (The Legacy) - CD 71.wav

Peak level 97.7 %
Extraction speed 1.8 X
Range quality 100.0 %
Test CRC E96455A9
Copy CRC E96455A9
Copy OK

No errors occurred


AccurateRip summary

Track 1 accurately ripped (confidence 24) [7F3D39B6] (AR v2)
Track 2 accurately ripped (confidence 24) [D0753181] (AR v2)
Track 3 accurately ripped (confidence 24) [E46D684B] (AR v2)
Track 4 accurately ripped (confidence 24) [7EB80959] (AR v2)
Track 5 accurately ripped (confidence 24) [FA70BFA4] (AR v2)
Track 6 accurately ripped (confidence 24) [2CDA703A] (AR v2)
Track 7 accurately ripped (confidence 24) [DD5AB037] (AR v2)
Track 8 accurately ripped (confidence 24) [1D9FA584] (AR v2)
Track 9 accurately ripped (confidence 24) [0AE9D6B2] (AR v2)
Track 10 accurately ripped (confidence 24) [B36D32EC] (AR v2)
Track 11 accurately ripped (confidence 24) [61BE3374] (AR v2)

All tracks accurately ripped

End of status report

–– CUETools DB Plugin V2.1.6

[CTDB TOCID: clX5IWt.pp7vSZe6iVDB0qAxVUA-] found
Submit result: clX5IWt.pp7vSZe6iVDB0qAxVUA- has been confirmed
Track | CTDB Status
1 | (47/47) Accurately ripped
2 | (47/47) Accurately ripped
3 | (47/47) Accurately ripped
4 | (47/47) Accurately ripped
5 | (47/47) Accurately ripped
6 | (47/47) Accurately ripped
7 | (47/47) Accurately ripped
8 | (47/47) Accurately ripped
9 | (47/47) Accurately ripped
10 | (47/47) Accurately ripped
11 | (46/47) Accurately ripped


==== Log checksum 48E43B251FDD78E197995A8A368789B9A276ADE78FF2AA1935A50D88870E6536 ====


Wilhelm Furtwängler: Das Vermächtnis / The Legacy - Box 9: Wagner (2010)