Tags
Language
Tags

Wings - Back To The Egg (1979)

Posted By: v3122
Wings - Back To The Egg (1979)

Wings - Back To The Egg (1979)
EAC | Flac(Image) + Cue + Log & MP3 CBR 320Kbps
1989 | Parlophone CDP 7 48200 2 | UK | ~ 333 or 123 Mb | Scans(jpg) -> 6.61 Mb
Classic Rock / Pop Rock | Non Remastered

Back to the Egg is Paul McCartney's attempt to get back to rock & roll after the soft rock of London Town. Assembling a new lineup of Wings, McCartney leads the group through a set of his most undistinguished songs, ranging from the forced arena rock of "Old Siam, Sir" to the formulaic adult contemporary pap of "Arrow Through Me" – and those are two of the more memorable cuts on the record. Part of the problem is the weak sound of the record and Wings' faceless performances, but the true problem is the songs, which have no spark whatsoever. On the basis of Back to the Egg, it's no wonder that McCartney returned to solo recordings after its relative failure.

by Stephen Thomas Erlewine, allmusic
Wings - Back To The Egg (1979)


Wings - Back To The Egg (1979):

Wings - Back To The Egg (1979)

Tracklist:

01. Reception
02. Getting Closer
03. We're Open Tonight
04. Spin It On
05. Again and Again and Again
06. Old Siam, Sir
07. Arrow Through Me
08. Rockestra Theme
09. To You
10. After The Ball/Million Miles
11. Winter Rose/Love Awake
12. The Broadcast
13. So Glad To See You Here
14. Baby's Request
15. Daytime Nightime Suffering
16. Wonderful Christmastime
17. Rudolph The Red-Nosed Reggae

Exact Audio Copy V0.99 prebeta 5 from 4. May 2009

Отчёт EAC об извлечении, выполненном 13. апреля 2010, 18:37

Wings / Back To The Egg

Дисковод: Optiarc DVD RW AD-7240S Adapter: 1 ID: 0

Режим чтения : Достоверность
Использование точного потока : Да
Отключение кэша аудио : Да
Использование указателей C2 : Нет

Коррекция смещения при чтении : 48
Способность читать области Lead-in и Lead-out : Нет
Заполнение пропущенных сэмплов тишиной : Да
Удаление блоков с тишиной в начале и конце : Нет
При вычислениях CRC использовались нулевые сэмплы : Да
Интерфейс : Встроенный Win32-интерфейс для Win NT/2000

Выходной формат : Пользовательский кодировщик
Выбранный битрейт : 768 kBit/s
Качество : Высокий
Добавление ID3-тэга : Нет
Утилита сжатия : C:\Program Files\Exact Audio Copy\FLAC\FLAC.EXE
Дополнительные параметры : -6 -V -T "ARTIST=%a" -T "TITLE=%t" -T "ALBUM=%g" -T "DATE=%y" -T "TRACKNUMBER=%n" -T "GENRE=%m" -T "COMMENT=%e" %s -o %d


TOC извлечённого CD

Трек | Старт | Длительность | Начальный сектор | Конечный сектор
––––––––––––––––––––––––––––––––––-
1 | 0:00.72 | 1:07.38 | 72 | 5134
2 | 1:08.35 | 3:23.22 | 5135 | 20381
3 | 4:31.57 | 1:28.23 | 20382 | 27004
4 | 6:00.05 | 2:12.20 | 27005 | 36924
5 | 8:12.25 | 3:34.10 | 36925 | 52984
6 | 11:46.35 | 4:11.12 | 52985 | 71821
7 | 15:57.47 | 3:36.53 | 71822 | 88074
8 | 19:34.25 | 2:35.05 | 88075 | 99704
9 | 22:09.30 | 3:12.22 | 99705 | 114126
10 | 25:21.52 | 4:00.63 | 114127 | 132189
11 | 29:22.40 | 4:59.27 | 132190 | 154641
12 | 34:21.67 | 1:29.68 | 154642 | 161384
13 | 35:51.60 | 3:21.07 | 161385 | 176466
14 | 39:12.67 | 2:51.28 | 176467 | 189319
15 | 42:04.20 | 3:22.32 | 189320 | 204501
16 | 45:26.52 | 3:48.00 | 204502 | 221601
17 | 49:14.52 | 1:46.35 | 221602 | 229586


Характеристики диапазона извлечения и сообщения об ошибках

Выбранный диапазон

Имя файла E:\music\Музон\Paul McCartney Back To The Egg\Wings - Back To The Egg.wav

Пиковый уровень 100.0 %
Качество диапазона 100.0 %
CRC теста 90B72DA9
CRC копии 90B72DA9
Копирование… OK

Ошибок не произошло


AccurateRip: сводка

Трек 1 точное извлечение (доверие 11) [A7588A0E]
Трек 2 точное извлечение (доверие 12) [97DA7DA2]
Трек 3 точное извлечение (доверие 11) [A8AEAB86]
Трек 4 точное извлечение (доверие 11) [A1B916AC]
Трек 5 точное извлечение (доверие 10) [0BEAEE41]
Трек 6 точное извлечение (доверие 11) [58AF6A4B]
Трек 7 точное извлечение (доверие 11) [F0B338B6]
Трек 8 точное извлечение (доверие 11) [181DEA43]
Трек 9 точное извлечение (доверие 11) [87A771D1]
Трек 10 точное извлечение (доверие 11) [97ADB629]
Трек 11 точное извлечение (доверие 11) [F12A1E85]
Трек 12 точное извлечение (доверие 11) [A0E48105]
Трек 13 точное извлечение (доверие 11) [87596730]
Трек 14 точное извлечение (доверие 11) [C56D6B50]
Трек 15 точное извлечение (доверие 11) [E0516C64]
Трек 16 точное извлечение (доверие 10) [36EA2BDB]
Трек 17 точное извлечение (доверие 11) [2855F851]

Все треки извлечены точно

Конец отчёта


[CUETools log; Date: 05.12.2017 16:40:57; Version: 2.1.5]
Pregap length 00:00:72.
[AccurateRip ID: 001e4d88-0189f37d-e70bf511] found.
Track [ CRC | V2 ] Status
01 [a7588a0e|4f2628e9] (14+19/33) Accurately ripped
02 [97da7da2|f98a8712] (16+21/37) Accurately ripped
03 [a8aeab86|d8c6c6c2] (14+19/33) Accurately ripped
04 [a1b916ac|9c63ed06] (14+19/33) Accurately ripped
05 [0beaee41|9f519f3c] (13+19/32) Accurately ripped
06 [58af6a4b|853be959] (15+19/34) Accurately ripped
07 [f0b338b6|0f64e655] (14+19/33) Accurately ripped
08 [181dea43|864a2f6b] (14+19/33) Accurately ripped
09 [87a771d1|340f3687] (14+19/33) Accurately ripped
10 [97adb629|402fc225] (14+18/32) Accurately ripped
11 [f12a1e85|15d24ef9] (14+18/32) Accurately ripped
12 [a0e48105|8531f95e] (14+18/32) Accurately ripped
13 [87596730|7f91e61d] (14+18/32) Accurately ripped
14 [c56d6b50|d0c26572] (14+18/32) Accurately ripped
15 [e0516c64|6803ab8a] (15+17/32) Accurately ripped
16 [36ea2bdb|dbf811da] (13+18/31) Accurately ripped
17 [2855f851|aa830b62] (15+18/33) Accurately ripped

Track Peak [ CRC32 ] [W/O NULL] [ LOG ]
– 100,0 [90B72DA9] [603FE4FC] CRC32
01 86,3 [56F221A5] [32CCE72F]
02 89,2 [2AC8416B] [5197B4F8]
03 42,4 [DD5BD4A6] [0D1DB748]
04 92,8 [879B96F6] [9C6A546C]
05 88,7 [430A4FD3] [A5125AF5]
06 97,7 [4DE329E9] [7BE7ADDB]
07 96,6 [0A2E6CEA] [8150DCB9]
08 89,6 [4D0D3E6D] [CB250728]
09 87,5 [DEF7A845] [C3A5B824]
10 87,0 [3911A7EA] [5A364EC5]
11 83,2 [C81BC9E7] [6514B584]
12 50,2 [B9465B0E] [7816BC5F]
13 88,1 [3F4C9C3A] [C06930BF]
14 76,4 [3B6D26A7] [799F8913]
15 98,6 [E46BF310] [747BDB00]
16 96,3 [78A6FFF2] [585E4FEC]
17 100,0 [A56D392E] [AA1497A6]


Wings - Back To The Egg (1979)

All thanks go to alonzo

Paul McCartney in my Blog

Download Wings - Back To The Egg (1979):