Subcategories

Wizard - Odin (2003) [Japanese Ed.]

Posted By: Andi_Deris
Wizard - Odin (2003) [Japanese Ed.]

Wizard - Odin (2003) [Japanese Ed.]
EAC Rip | FLAC: Image+Cue+Log | 482 Mb | MP3 CBR 320 kbps | 154 Mb | Scans | 88 Mb | 01:01:08
Soundholic Co., Ltd. | TKCS-85065
Heavy/Speed Metal, Epic Power Metal

Prior to Odin, Wizard have quietly released four solid true metal albums that are a worthy part of any true metal collection: Son Of Darkness (1995), Battle of Metal (1997), Bound By Metal (1999), and Head of The Deceiver (2001). For the band's 2003 release, the services of Piet Sielck as producer have been utilized. 'Odin' is a powerful and versatile Power Metal epos, which starts at the point where Manowar have stopped with 'The Sign Of The Hammer'.

Wizard - Odin (2003) [Japanese Ed.]




Track Listing

01. The Prophecy (05:19)
02. Betrayer (04:53)
03. Dead Hope (06:02)
04. Dark God (05:43)
05. Loki's Punishment (05:09)
06. Beginning Of The End (04:02)
07. Thor's Hammer (05:02)
08. Hall Of Odin (05:07)
09. The Powergod (05:22)
10. March Of The Einheriers (05:40)
11. End Of All (03:56)
12. Ultimate War (Bonus Track) (04:53)

plus "Betrayer" video clip | 77 Mb

Produced by Piet Sielck

The Band

• Sven D'Anna - vocals
• Volker Leson - bass
• Snoppi van Heek - drums
• Michael Maass - guitars

Exact Audio Copy V1.3 from 2. September 2016

EAC extraction logfile from 10. July 2017, 15:28

Wizard / Odin (Japan)

Used drive : ATAPI iHAS122 W Adapter: 2 ID: 0

Read mode : Secure
Utilize accurate stream : Yes
Defeat audio cache : Yes
Make use of C2 pointers : No

Read offset correction : 48
Overread into Lead-In and Lead-Out : No
Fill up missing offset samples with silence : Yes
Delete leading and trailing silent blocks : No
Null samples used in CRC calculations : Yes
Used interface : Installed external ASPI interface

Used output format : User Defined Encoder
Selected bitrate : 1024 kBit/s
Quality : High
Add ID3 tag : No
Command line compressor : C:\Program Files\FLAC\flac.exe
Additional command line options : -V -8 -T "Date=%year%" -T "Genre=%genre%" -T"COMMENT=Ripped by Ilijan - ilko" -8 -V %source%


TOC of the extracted CD

Track | Start | Length | Start sector | End sector
––––––––––––––––––––––––––––-
1 | 0:00.00 | 5:19.13 | 0 | 23937
2 | 5:19.13 | 4:53.14 | 23938 | 45926
3 | 10:12.27 | 6:02.02 | 45927 | 73078
4 | 16:14.29 | 5:42.71 | 73079 | 98799
5 | 21:57.25 | 5:08.56 | 98800 | 121955
6 | 27:06.06 | 4:01.45 | 121956 | 140075
7 | 31:07.51 | 5:01.43 | 140076 | 162693
8 | 36:09.19 | 5:06.51 | 162694 | 185694
9 | 41:15.70 | 5:21.38 | 185695 | 209807
10 | 46:37.33 | 5:40.30 | 209808 | 235337
11 | 52:17.63 | 3:55.54 | 235338 | 253016
12 | 56:13.42 | 4:53.02 | 253017 | 274993
13 | 63:38.44 | 9:08.04 | 286394 | 327497


Range status and errors

Selected range

Filename D:\ilko\Wizard - Odin (Japan).wav

Peak level 96.2 %
Extraction speed 4.3 X
Range quality 99.9 %
Test CRC E6A85455
Copy CRC E6A85455
Copy OK

No errors occurred


AccurateRip summary

Track 1 accurately ripped (confidence 1) [B418FAA7] (AR v1)
Track 2 accurately ripped (confidence 1) [A5C3E2BA] (AR v1)
Track 3 accurately ripped (confidence 1) [2F28CB65] (AR v1)
Track 4 accurately ripped (confidence 1) [FF6FB614] (AR v1)
Track 5 accurately ripped (confidence 1) [BD0CB2DC] (AR v1)
Track 6 accurately ripped (confidence 1) [D1932A8E] (AR v1)
Track 7 accurately ripped (confidence 1) [8BA102FA] (AR v1)
Track 8 accurately ripped (confidence 1) [35D3897E] (AR v1)
Track 9 accurately ripped (confidence 1) [0474B54C] (AR v1)
Track 10 accurately ripped (confidence 1) [70F3E82E] (AR v1)
Track 11 accurately ripped (confidence 1) [9CCEC24F] (AR v1)
Track 12 accurately ripped (confidence 1) [FE996130] (AR v1)

All tracks accurately ripped

End of status report

–– CUETools DB Plugin V2.1.6

[CTDB TOCID: WUjmybmqSXahmY3OJjENGtrjlzE-] found
Submit result: WUjmybmqSXahmY3OJjENGtrjlzE- has been confirmed
Track | CTDB Status
1 | (2/2) Accurately ripped
2 | (2/2) Accurately ripped
3 | (2/2) Accurately ripped
4 | (2/2) Accurately ripped
5 | (2/2) Accurately ripped
6 | (2/2) Accurately ripped
7 | (2/2) Accurately ripped
8 | (2/2) Accurately ripped
9 | (2/2) Accurately ripped
10 | (2/2) Accurately ripped
11 | (2/2) Accurately ripped
12 | (2/2) Accurately ripped


==== Log checksum B94F841F6D98C4DE9096280FA69E961831E8AA921CB13B12C6AEC1E07788AA9C ====

Format : MPEG-PS
File size : 77.6 MiB
Duration : 5 min 36 s
Overall bit rate mode : Variable
Overall bit rate : 1 935 kb/s

Video
ID : 224 (0xE0)
Format : MPEG Video
Format version : Version 1
Format settings : BVOP
Format settings, BVOP : Yes
Format settings, Matrix : Default
Format settings, GOP : M=3, N=15
Duration : 5 min 36 s
Bit rate mode : Variable
Bit rate : 1 676 kb/s
Width : 432 pixels
Height : 352 pixels
Display aspect ratio : 4:3
Frame rate : 25.000 FPS
Color space : YUV
Chroma subsampling : 4:2:0
Bit depth : 8 bits
Scan type : Progressive
Compression mode : Lossy
Bits/(Pixel*Frame) : 0.441
Time code of first frame : 00:00:00:00
Time code source : Group of pictures header
GOP, Open/Closed : Open
GOP, Open/Closed of first f : Closed
Stream size : 67.1 MiB (86%)

Audio
ID : 192 (0xC0)
Format : MPEG Audio
Format version : Version 1
Format profile : Layer 2
Duration : 5 min 36 s
Bit rate mode : Constant
Bit rate : 224 kb/s
Channel(s) : 2 channels
Sampling rate : 44.1 kHz
Compression mode : Lossy
Stream size : 8.98 MiB (12%)


Many thanks to the original uploader: Ilijan





Password: pass