Tags
Language
Tags

Woody Herman - Memorial: The 40th Anniversary Carnegie Hall Concert [Recorded 1976] (1988)

Posted By: gribovar
Woody Herman - Memorial: The 40th Anniversary Carnegie Hall Concert [Recorded 1976] (1988)

Woody Herman - Memorial: The 40th Anniversary Carnegie Hall Concert [Recorded 1976] (1988)
EAC Rip | FLAC (tracks+.cue+log) - 424 MB | Covers (19 MB) included
Genre: Jazz, Big Band | RAR 3% Rec. | Label: BMG Music/Bluebird (ND86878)

To celebrate his 40th anniversary as a bandleader, Herman had a celebrated concert at Carnegie Hall. For the first half of the program he welcomed back many of his alumni including such veterans as tenors Flip Phillips, Stan Getz, Zoot Sims, Jimmy Giuffre and Al Cohn, the Candoli brothers, trombonist Phil Wilson and singer Mary Ann McCall. Overall, the concert served as a loving tribute to a major jazz figure. The only major flaw was Herman's tendency to call out soloist's names before they finished playing, pretty much ruining this version of "Four Brothers." It was originally available as a two-LP set although the first half has since been reissued on this CD.
Tracklist:
01. Introduction
02. Woody's Theme (Blue Flame) and Acknowledgement
03. Apple Honey
04. Sweet And Lovely
05. Four Brothers
06. Brotherhood Of Man
07. Early Autumn
08. Wrap Your Troubles In Dreams
09. Everywhere
10. Bijou
11. Cousins
12. Blue Serge
13. Blue Getz Blues
14. Finale: Caldonia (What Makes Your Big Head So Hard?)

Total time: 01:07:10

Exact Audio Copy V1.3 from 2. September 2016

EAC extraction logfile from 2. January 2017, 18:31

Woody Herman / The 40th Anniversary Carnegie Hall Concert

Used drive : TSSTcorpCDDVDW SE-208AB Adapter: 2 ID: 0

Read mode : Secure
Utilize accurate stream : Yes
Defeat audio cache : Yes
Make use of C2 pointers : No

Read offset correction : 6
Overread into Lead-In and Lead-Out : No
Fill up missing offset samples with silence : Yes
Delete leading and trailing silent blocks : No
Null samples used in CRC calculations : Yes
Used interface : Installed external ASPI interface
Gap handling : Appended to previous track

Used output format : User Defined Encoder
Selected bitrate : 768 kBit/s
Quality : High
Add ID3 tag : No
Command line compressor : C:\Program Files (x86)\Exact Audio Copy\Flac\flac.exe
Additional command line options : -8 -V -T "ARTIST=%artist%" -T "TITLE=%title%" -T "ALBUM=%albumtitle%" -T "DATE=%year%" -T "TRACKNUMBER=%tracknr%" -T "GENRE=%genre%" -T "COMMENT=%comment%" -T "BAND=%albuminterpret%" -T "ALBUMARTIST=%albuminterpret%" -T "COMPOSER=%composer%" %haslyrics%–tag-from-file=LYRICS="%lyricsfile%"%haslyrics% -T "DISCNUMBER=%cdnumber%" -T "TOTALDISCS=%totalcds%" -T "TOTALTRACKS=%numtracks%" %hascover%–picture="%coverfile%"%hascover% %source% -o %dest%


TOC of the extracted CD

Track | Start | Length | Start sector | End sector
––––––––––––––––––––––––––––-
1 | 0:00.00 | 1:16.45 | 0 | 5744
2 | 1:16.45 | 1:23.47 | 5745 | 12016
3 | 2:40.17 | 5:36.25 | 12017 | 37241
4 | 8:16.42 | 3:55.28 | 37242 | 54894
5 | 12:11.70 | 4:41.05 | 54895 | 75974
6 | 16:53.00 | 7:06.62 | 75975 | 107986
7 | 23:59.62 | 3:58.50 | 107987 | 125886
8 | 27:58.37 | 3:16.55 | 125887 | 140641
9 | 31:15.17 | 3:42.33 | 140642 | 157324
10 | 34:57.50 | 3:34.32 | 157325 | 173406
11 | 38:32.07 | 7:52.43 | 173407 | 208849
12 | 46:24.50 | 4:29.37 | 208850 | 229061
13 | 50:54.12 | 5:43.35 | 229062 | 254821
14 | 56:37.47 | 10:32.40 | 254822 | 302261


Track 1

Filename C:\Program Files (x86)\Exact Audio Copy\Flac\01. Introduction.wav

Pre-gap length 0:00:02.00

Peak level 57.1 %
Extraction speed 0.9 X
Track quality 100.0 %
Test CRC 65D45EFC
Copy CRC 65D45EFC
Accurately ripped (confidence 2) [D817A0D5] (AR v2)
Copy OK

Track 2

Filename C:\Program Files (x86)\Exact Audio Copy\Flac\02. Woody's Theme (Blue Flame) and Acknowledgement.wav

Peak level 78.1 %
Extraction speed 0.7 X
Track quality 99.8 %
Test CRC C133BEF0
Copy CRC C133BEF0
Accurately ripped (confidence 2) [9CD11C10] (AR v2)
Copy OK

Track 3

Filename C:\Program Files (x86)\Exact Audio Copy\Flac\03. Apple Honey.wav

Peak level 75.2 %
Extraction speed 1.3 X
Track quality 99.9 %
Test CRC 70EC58E8
Copy CRC 70EC58E8
Accurately ripped (confidence 2) [98EAECB1] (AR v2)
Copy OK

Track 4

Filename C:\Program Files (x86)\Exact Audio Copy\Flac\04. Sweet and Lovely.wav

Peak level 97.8 %
Extraction speed 1.3 X
Track quality 99.9 %
Test CRC 58C8930D
Copy CRC 58C8930D
Accurately ripped (confidence 2) [98FAAEFF] (AR v2)
Copy OK

Track 5

Filename C:\Program Files (x86)\Exact Audio Copy\Flac\05. Four Brothers.wav

Peak level 86.2 %
Extraction speed 1.6 X
Track quality 100.0 %
Test CRC 909E16B0
Copy CRC 909E16B0
Accurately ripped (confidence 2) [40F8B50D] (AR v2)
Copy OK

Track 6

Filename C:\Program Files (x86)\Exact Audio Copy\Flac\06. Brotherhood of Man.wav

Peak level 97.1 %
Extraction speed 1.8 X
Track quality 100.0 %
Test CRC 25C06469
Copy CRC 25C06469
Accurately ripped (confidence 2) [266E02C1] (AR v2)
Copy OK

Track 7

Filename C:\Program Files (x86)\Exact Audio Copy\Flac\07. Early Autumn.wav

Peak level 85.7 %
Extraction speed 1.9 X
Track quality 100.0 %
Test CRC 5A333C55
Copy CRC 5A333C55
Accurately ripped (confidence 2) [EE7AAF0C] (AR v2)
Copy OK

Track 8

Filename C:\Program Files (x86)\Exact Audio Copy\Flac\08. Wrap Your Troubles in Dreams.wav

Peak level 70.8 %
Extraction speed 1.9 X
Track quality 100.0 %
Test CRC 9814ED09
Copy CRC 9814ED09
Accurately ripped (confidence 2) [8CA54B56] (AR v2)
Copy OK

Track 9

Filename C:\Program Files (x86)\Exact Audio Copy\Flac\09. Everywhere.wav

Peak level 81.6 %
Extraction speed 1.7 X
Track quality 99.9 %
Test CRC 42E7D44A
Copy CRC 42E7D44A
Accurately ripped (confidence 2) [DD0CF269] (AR v2)
Copy OK

Track 10

Filename C:\Program Files (x86)\Exact Audio Copy\Flac\10. Bijou.wav

Peak level 76.3 %
Extraction speed 1.7 X
Track quality 99.9 %
Test CRC 5351AA01
Copy CRC 5351AA01
Accurately ripped (confidence 2) [FE5EF83D] (AR v2)
Copy OK

Track 11

Filename C:\Program Files (x86)\Exact Audio Copy\Flac\11. Cousins.wav

Peak level 68.1 %
Extraction speed 2.3 X
Track quality 100.0 %
Test CRC 365E253E
Copy CRC 365E253E
Accurately ripped (confidence 2) [ED162806] (AR v2)
Copy OK

Track 12

Filename C:\Program Files (x86)\Exact Audio Copy\Flac\12. Blue Serge.wav

Peak level 71.7 %
Extraction speed 2.3 X
Track quality 100.0 %
Test CRC C56FD95A
Copy CRC C56FD95A
Accurately ripped (confidence 2) [5B7623A8] (AR v2)
Copy OK

Track 13

Filename C:\Program Files (x86)\Exact Audio Copy\Flac\13. Blue Getz Blues.wav

Peak level 78.3 %
Extraction speed 2.4 X
Track quality 100.0 %
Test CRC E4470CCD
Copy CRC E4470CCD
Accurately ripped (confidence 2) [8E608FC5] (AR v2)
Copy OK

Track 14

Filename C:\Program Files (x86)\Exact Audio Copy\Flac\14. Finale- Caldonia (What Makes Your Big Head So Hard).wav

Peak level 98.3 %
Extraction speed 2.7 X
Track quality 100.0 %
Test CRC DA879D07
Copy CRC DA879D07
Accurately ripped (confidence 2) [F5ABCC4D] (AR v2)
Copy OK


All tracks accurately ripped

No errors occurred

End of status report

–– CUETools DB Plugin V2.1.6

[CTDB TOCID: fR_KKO.Oc6lyZQdIKrFzYOSmEDI-] disk not present in database
Submit result: fR_KKO.Oc6lyZQdIKrFzYOSmEDI- has been uploaded


==== Log checksum 87135558DB24AAB68DC47B8C3D86A411111D0E00637C75B4FA14A4C3679B918F ====

[CUETools log; Date: 03.03.2020 0:39:23; Version: 2.1.4]
[CTDB TOCID: fR_KKO.Oc6lyZQdIKrFzYOSmEDI-] found.
Track | CTDB Status
1 | (5/5) Accurately ripped
2 | (5/5) Accurately ripped
3 | (5/5) Accurately ripped
4 | (5/5) Accurately ripped
5 | (5/5) Accurately ripped
6 | (5/5) Accurately ripped
7 | (5/5) Accurately ripped
8 | (5/5) Accurately ripped
9 | (5/5) Accurately ripped
10 | (5/5) Accurately ripped
11 | (5/5) Accurately ripped
12 | (5/5) Accurately ripped
13 | (5/5) Accurately ripped
14 | (5/5) Accurately ripped
[AccurateRip ID: 001cc7a6-0140c45d-ce0fbe0e] found.
Track [ CRC | V2 ] Status
01 [74448e0f|d817a0d5] (3+2/5) Accurately ripped
02 [cc1610ff|9cd11c10] (3+2/5) Accurately ripped
03 [32910580|98eaecb1] (3+2/5) Accurately ripped
04 [c70a6dab|98faaeff] (3+2/5) Accurately ripped
05 [df7c223a|40f8b50d] (3+2/5) Accurately ripped
06 [edf56922|266e02c1] (3+2/5) Accurately ripped
07 [3742c9e5|ee7aaf0c] (3+2/5) Accurately ripped
08 [676a1029|8ca54b56] (3+2/5) Accurately ripped
09 [741d6b24|dd0cf269] (3+2/5) Accurately ripped
10 [7e0c2dbe|fe5ef83d] (3+2/5) Accurately ripped
11 [96f252ae|ed162806] (3+2/5) Accurately ripped
12 [ca2f5d68|5b7623a8] (3+2/5) Accurately ripped
13 [54a0a6e1|8e608fc5] (3+2/5) Accurately ripped
14 [3e69b7f5|f5abcc4d] (3+2/5) Accurately ripped

Track Peak [ CRC32 ] [W/O NULL] [ LOG ]
– 98,3 [3B6A7017] [1B5B8D29]
01 57,1 [65D45EFC] [DAE4F172] CRC32
02 78,1 [C133BEF0] [9B230B1B] CRC32
03 75,2 [70EC58E8] [9E6FA1FA] CRC32
04 97,8 [58C8930D] [3E653C96] CRC32
05 86,2 [909E16B0] [901D22CB] CRC32
06 97,1 [25C06469] [480698AC] CRC32
07 85,7 [5A333C55] [96CE4837] CRC32
08 70,8 [9814ED09] [6CC094D8] CRC32
09 81,6 [42E7D44A] [D9EE0606] CRC32
10 76,3 [5351AA01] [A697CBD1] CRC32
11 68,1 [365E253E] [636236A3] CRC32
12 71,7 [C56FD95A] [F93D45E7] CRC32
13 78,3 [E4470CCD] [B24BC4FD] CRC32
14 98,3 [DA879D07] [9F8A178C] CRC32

Thanks to Olivierito

See also:
Rosemary Clooney & Woody Herman - My Buddy (1983)