Tags
Language
Tags

Woody Herman and His Orchestra - 1939 (2000)

Posted By: gribovar
Woody Herman and His Orchestra - 1939 (2000)

Woody Herman and His Orchestra - 1939 (2000)
EAC Rip | FLAC (tracks+.cue+log) - 168 MB | Covers (6 MB) included
Genre: Jazz, Big Band, Vocal Jazz | RAR 3% Rec. | Label: Classics Records (CLASSICS1128)

Woody Herman had a breakthrough during the period of time covered by Classics' third Herman CD. The Apr. 12, 1939, session yielded "Woodchopper's Ball," Herman's first hit, and it also featured "Dallas Blues," "Blues Downstairs," and "Blues Upstairs." From then on, Herman's first group would be known as "The Band That Plays the Blues." Other highlights of this enjoyable CD include four titles featuring singer Connie Boswell, the Andrews Sisters guesting on "Begin the Beguine," some vocals by Mary Ann McCall, and the tracks "The Sheik of Araby" and "Farewell Blues." Despite the lack of any major soloists (beyond the leader), things were definitely looking up by August 1939 for Herman.
Tracklist:
01. Thanks for Everything
02. The Umbrella Man
03. They Say
04. Deep in a Dream
05. Les Filles de Cadix (The Girls from Cadiz)
06. Il Bacio
07. Begin the Beguine
08. Woodchopper's Ball
09. Big Wig in the Wigwam
10. Dallas Blues
11. Blues Downstairs
12. Blues Upstairs
13. Paleface
14. The Sheik of Araby
15. Casbah Blues
16. Farewell Blues
17. East Side Kick
18. Midnight Echoes
19. Jumpin' Blues
20. Big Morning
21. Love with a Capital "You"
22. Still the Bluebird Sings
23. Love Me
24. Rosetta

Total time: 01:11:00

Exact Audio Copy V1.0 beta 3 from 29. August 2011

EAC extraction logfile from 27. December 2014, 16:40

Woody Herman / Chronological Classics, 1939

Used drive : MATSHITADVD-RAM UJ8C2 S Adapter: 0 ID: 0

Read mode : Secure
Utilize accurate stream : Yes
Defeat audio cache : Yes
Make use of C2 pointers : No

Read offset correction : 103
Overread into Lead-In and Lead-Out : No
Fill up missing offset samples with silence : Yes
Delete leading and trailing silent blocks : No
Null samples used in CRC calculations : Yes
Used interface : Native Win32 interface for Win NT & 2000
Gap handling : Appended to previous track

Used output format : User Defined Encoder
Selected bitrate : 1024 kBit/s
Quality : High
Add ID3 tag : No
Command line compressor : C:\Program Files (x86)\Exact Audio Copy\Flac\flac.exe
Additional command line options : -8 -V -T "ARTIST=%artist%" -T "TITLE=%title%" -T "ALBUM=%albumtitle%" -T "DATE=%year%" -T "TRACKNUMBER=%tracknr%" -T "GENRE=%genre%" -T "PERFORMER=%albuminterpret%" -T "COMPOSER=%composer%" %haslyrics%–tag-from-file=LYRICS="%lyricsfile%"%haslyrics% -T "ALBUMARTIST=%albumartist%" -T "DISCNUMBER=%cdnumber%" -T "TOTALDISCS=%totalcds%" -T "TOTALTRACKS=%numtracks%" -T "COMMENT=%comment%" %source% -o %dest%


TOC of the extracted CD

Track | Start | Length | Start sector | End sector
––––––––––––––––––––––––––––-
1 | 0:00.32 | 3:05.22 | 32 | 13928
2 | 3:05.54 | 3:03.17 | 13929 | 27670
3 | 6:08.71 | 3:06.64 | 27671 | 41684
4 | 9:15.60 | 2:52.03 | 41685 | 54587
5 | 12:07.63 | 2:27.34 | 54588 | 65646
6 | 14:35.22 | 2:25.10 | 65647 | 76531
7 | 17:00.32 | 2:56.68 | 76532 | 89799
8 | 19:57.25 | 3:16.48 | 89800 | 104547
9 | 23:13.73 | 2:41.06 | 104548 | 116628
10 | 25:55.04 | 3:00.32 | 116629 | 130160
11 | 28:55.36 | 2:49.59 | 130161 | 142894
12 | 31:45.20 | 3:09.40 | 142895 | 157109
13 | 34:54.60 | 2:45.01 | 157110 | 169485
14 | 37:39.61 | 2:41.02 | 169486 | 181562
15 | 40:20.63 | 3:08.40 | 181563 | 195702
16 | 43:29.28 | 3:02.71 | 195703 | 209423
17 | 46:32.24 | 3:16.38 | 209424 | 224161
18 | 49:48.62 | 2:47.00 | 224162 | 236686
19 | 52:35.62 | 3:09.29 | 236687 | 250890
20 | 55:45.16 | 2:46.21 | 250891 | 263361
21 | 58:31.37 | 2:59.10 | 263362 | 276796
22 | 61:30.47 | 3:19.59 | 276797 | 291780
23 | 64:50.31 | 2:57.17 | 291781 | 305072
24 | 67:47.48 | 3:13.31 | 305073 | 319578


Track 1

Filename D:\My Documents\Dropbox\My Music\What.cd project\Woody Herman - 2000 - The Chronological Classics, 1939 [FLAC]\01 - Woody Herman - Thanks For Everything.wav

Pre-gap length 0:00:02.42

Peak level 86.7 %
Extraction speed 2.4 X
Track quality 100.0 %
Test CRC 303E53B1
Copy CRC 303E53B1
Accurately ripped (confidence 1) [4ED91218] (AR v1)
Copy OK

Track 2

Filename D:\My Documents\Dropbox\My Music\What.cd project\Woody Herman - 2000 - The Chronological Classics, 1939 [FLAC]\02 - Woody Herman - The Umbrella Man.wav

Pre-gap length 0:00:01.60

Peak level 85.1 %
Extraction speed 1.8 X
Track quality 99.9 %
Test CRC B39B8EE3
Copy CRC B39B8EE3
Accurately ripped (confidence 1) [1E5FC227] (AR v1)
Copy OK

Track 3

Filename D:\My Documents\Dropbox\My Music\What.cd project\Woody Herman - 2000 - The Chronological Classics, 1939 [FLAC]\03 - Woody Herman - They Say.wav

Pre-gap length 0:00:01.60

Peak level 82.9 %
Extraction speed 2.8 X
Track quality 100.0 %
Test CRC 8462E7F2
Copy CRC 8462E7F2
Accurately ripped (confidence 1) [30B666A7] (AR v1)
Copy OK

Track 4

Filename D:\My Documents\Dropbox\My Music\What.cd project\Woody Herman - 2000 - The Chronological Classics, 1939 [FLAC]\04 - Woody Herman - Deep In A Dream.wav

Pre-gap length 0:00:01.60

Peak level 100.0 %
Extraction speed 2.9 X
Track quality 100.0 %
Test CRC A4F1EDB3
Copy CRC A4F1EDB3
Accurately ripped (confidence 1) [4AA416F9] (AR v1)
Copy OK

Track 5

Filename D:\My Documents\Dropbox\My Music\What.cd project\Woody Herman - 2000 - The Chronological Classics, 1939 [FLAC]\05 - Woody Herman - Les Filles de Cadix.wav

Pre-gap length 0:00:01.60

Peak level 81.6 %
Extraction speed 3.0 X
Track quality 100.0 %
Test CRC D1062066
Copy CRC D1062066
Accurately ripped (confidence 1) [CB23D4ED] (AR v1)
Copy OK

Track 6

Filename D:\My Documents\Dropbox\My Music\What.cd project\Woody Herman - 2000 - The Chronological Classics, 1939 [FLAC]\06 - Woody Herman, [vocal- Mac MacQuordale] - Il Bacio.wav

Pre-gap length 0:00:01.60

Peak level 89.2 %
Extraction speed 3.1 X
Track quality 100.0 %
Test CRC 9552FBA3
Copy CRC 9552FBA3
Accurately ripped (confidence 1) [B7B1F058] (AR v1)
Copy OK

Track 7

Filename D:\My Documents\Dropbox\My Music\What.cd project\Woody Herman - 2000 - The Chronological Classics, 1939 [FLAC]\07 - Woody Herman, [vocal- The Andrews Sisters] - Begin The Beguine.wav

Pre-gap length 0:00:01.60

Peak level 75.5 %
Extraction speed 3.3 X
Track quality 100.0 %
Test CRC 4E099E46
Copy CRC 4E099E46
Accurately ripped (confidence 1) [DF39DA9F] (AR v1)
Copy OK

Track 8

Filename D:\My Documents\Dropbox\My Music\What.cd project\Woody Herman - 2000 - The Chronological Classics, 1939 [FLAC]\08 - Woody Herman - Woodchopper's Ball.wav

Pre-gap length 0:00:01.60

Peak level 95.4 %
Extraction speed 3.5 X
Track quality 100.0 %
Test CRC C5A08537
Copy CRC C5A08537
Accurately ripped (confidence 1) [A5E53894] (AR v1)
Copy OK

Track 9

Filename D:\My Documents\Dropbox\My Music\What.cd project\Woody Herman - 2000 - The Chronological Classics, 1939 [FLAC]\09 - Woody Herman, [vocal- Mary Ann McCall] - Big Wig In The Wigwam.wav

Pre-gap length 0:00:01.60

Peak level 90.8 %
Extraction speed 3.5 X
Track quality 100.0 %
Test CRC 4949581D
Copy CRC 4949581D
Accurately ripped (confidence 1) [8447117D] (AR v1)
Copy OK

Track 10

Filename D:\My Documents\Dropbox\My Music\What.cd project\Woody Herman - 2000 - The Chronological Classics, 1939 [FLAC]\10 - Woody Herman - Dallas Blues.wav

Pre-gap length 0:00:01.60

Peak level 100.0 %
Extraction speed 3.7 X
Track quality 100.0 %
Test CRC C7E35165
Copy CRC C7E35165
Accurately ripped (confidence 1) [72F3C5AC] (AR v1)
Copy OK

Track 11

Filename D:\My Documents\Dropbox\My Music\What.cd project\Woody Herman - 2000 - The Chronological Classics, 1939 [FLAC]\11 - Woody Herman - Blues Downstairs.wav

Pre-gap length 0:00:01.60

Peak level 100.0 %
Extraction speed 3.7 X
Track quality 100.0 %
Test CRC D141C78E
Copy CRC D141C78E
Accurately ripped (confidence 1) [E518D579] (AR v1)
Copy OK

Track 12

Filename D:\My Documents\Dropbox\My Music\What.cd project\Woody Herman - 2000 - The Chronological Classics, 1939 [FLAC]\12 - Woody Herman - Blues Upstairs.wav

Pre-gap length 0:00:01.60

Peak level 95.3 %
Extraction speed 2.7 X
Track quality 99.9 %
Test CRC B4F0AE2F
Copy CRC B4F0AE2F
Accurately ripped (confidence 1) [4D4A6E45] (AR v1)
Copy OK

Track 13

Filename D:\My Documents\Dropbox\My Music\What.cd project\Woody Herman - 2000 - The Chronological Classics, 1939 [FLAC]\13 - Woody Herman - Paleface.wav

Pre-gap length 0:00:01.60

Peak level 90.9 %
Extraction speed 2.6 X
Track quality 99.9 %
Test CRC 36C03C7D
Copy CRC 36C03C7D
Accurately ripped (confidence 1) [1C2086FC] (AR v1)
Copy OK

Track 14

Filename D:\My Documents\Dropbox\My Music\What.cd project\Woody Herman - 2000 - The Chronological Classics, 1939 [FLAC]\14 - Woody Herman - The Sheik Of Araby.wav

Pre-gap length 0:00:01.60

Peak level 91.0 %
Extraction speed 2.6 X
Track quality 99.9 %
Test CRC A68A6E42
Copy CRC A68A6E42
Accurately ripped (confidence 1) [B66ED074] (AR v1)
Copy OK

Track 15

Filename D:\My Documents\Dropbox\My Music\What.cd project\Woody Herman - 2000 - The Chronological Classics, 1939 [FLAC]\15 - Woody Herman - Casbah Blues.wav

Pre-gap length 0:00:01.60

Peak level 86.9 %
Extraction speed 2.9 X
Track quality 99.9 %
Test CRC 96659C78
Copy CRC 96659C78
Accurately ripped (confidence 1) [8BA203F0] (AR v1)
Copy OK

Track 16

Filename D:\My Documents\Dropbox\My Music\What.cd project\Woody Herman - 2000 - The Chronological Classics, 1939 [FLAC]\16 - Woody Herman - Farewell Blues.wav

Pre-gap length 0:00:01.60

Peak level 100.0 %
Extraction speed 2.9 X
Track quality 99.9 %
Test CRC 8B523BF9
Copy CRC 8B523BF9
Accurately ripped (confidence 1) [4EDCAF30] (AR v1)
Copy OK

Track 17

Filename D:\My Documents\Dropbox\My Music\What.cd project\Woody Herman - 2000 - The Chronological Classics, 1939 [FLAC]\17 - Woody Herman - East Side Kick.wav

Pre-gap length 0:00:01.60

Peak level 100.0 %
Extraction speed 3.1 X
Track quality 99.9 %
Test CRC 13CBFBB4
Copy CRC 13CBFBB4
Accurately ripped (confidence 1) [80E47B9B] (AR v1)
Copy OK

Track 18

Filename D:\My Documents\Dropbox\My Music\What.cd project\Woody Herman - 2000 - The Chronological Classics, 1939 [FLAC]\18 - Woody Herman - Midnight Echoes.wav

Pre-gap length 0:00:01.60

Peak level 100.0 %
Extraction speed 2.9 X
Track quality 99.9 %
Test CRC 571FA469
Copy CRC 571FA469
Accurately ripped (confidence 1) [B19A4E06] (AR v1)
Copy OK

Track 19

Filename D:\My Documents\Dropbox\My Music\What.cd project\Woody Herman - 2000 - The Chronological Classics, 1939 [FLAC]\19 - Woody Herman - Jumpin' Blues.wav

Pre-gap length 0:00:01.60

Peak level 96.6 %
Extraction speed 4.6 X
Track quality 100.0 %
Test CRC 6BE0A97F
Copy CRC 6BE0A97F
Accurately ripped (confidence 1) [11F6F602] (AR v1)
Copy OK

Track 20

Filename D:\My Documents\Dropbox\My Music\What.cd project\Woody Herman - 2000 - The Chronological Classics, 1939 [FLAC]\20 - Woody Herman - Big Morning.wav

Pre-gap length 0:00:01.60

Peak level 89.3 %
Extraction speed 4.6 X
Track quality 100.0 %
Test CRC 1A228198
Copy CRC 1A228198
Accurately ripped (confidence 1) [7A622EA7] (AR v1)
Copy OK

Track 21

Filename D:\My Documents\Dropbox\My Music\What.cd project\Woody Herman - 2000 - The Chronological Classics, 1939 [FLAC]\21 - Woody Herman - Love With A Capital ''You''.wav

Pre-gap length 0:00:01.60

Peak level 100.0 %
Extraction speed 4.7 X
Track quality 100.0 %
Test CRC DB02A90F
Copy CRC DB02A90F
Accurately ripped (confidence 1) [4A83BF86] (AR v1)
Copy OK

Track 22

Filename D:\My Documents\Dropbox\My Music\What.cd project\Woody Herman - 2000 - The Chronological Classics, 1939 [FLAC]\22 - Woody Herman - Still The Bluebird Sings.wav

Pre-gap length 0:00:01.60

Peak level 100.0 %
Extraction speed 4.9 X
Track quality 100.0 %
Test CRC D7FAA1A7
Copy CRC D7FAA1A7
Accurately ripped (confidence 1) [6FE90B5D] (AR v1)
Copy OK

Track 23

Filename D:\My Documents\Dropbox\My Music\What.cd project\Woody Herman - 2000 - The Chronological Classics, 1939 [FLAC]\23 - Woody Herman, [vocal- Mary Ann McCall] - Love Me.wav

Pre-gap length 0:00:01.60

Peak level 78.2 %
Extraction speed 4.9 X
Track quality 100.0 %
Test CRC 67AA07FF
Copy CRC 67AA07FF
Accurately ripped (confidence 1) [2FE4F101] (AR v1)
Copy OK

Track 24

Filename D:\My Documents\Dropbox\My Music\What.cd project\Woody Herman - 2000 - The Chronological Classics, 1939 [FLAC]\24 - Woody Herman, [vocal- Steady Nelson] - Rosetta.wav

Pre-gap length 0:00:01.60

Peak level 100.0 %
Extraction speed 5.2 X
Track quality 100.0 %
Test CRC 89475804
Copy CRC 89475804
Accurately ripped (confidence 1) [6C2C2D27] (AR v1)
Copy OK


All tracks accurately ripped

No errors occurred

End of status report

==== Log checksum E1D43677A380106F446EE37F519AB08428E45835CFFA9B2E23CEE23B20E89C20 ====

[CUETools log; Date: 13.05.2021 20:03:25; Version: 2.1.4]
Pregap length 00:00:32.
[CTDB TOCID: L.VVsqGKhHKetAtYz2dIcgJzt5Q-] found.
Track | CTDB Status
1 | (4/4) Accurately ripped
2 | (4/4) Accurately ripped
3 | (4/4) Accurately ripped
4 | (4/4) Accurately ripped
5 | (4/4) Accurately ripped
6 | (4/4) Accurately ripped
7 | (4/4) Accurately ripped
8 | (4/4) Accurately ripped
9 | (4/4) Accurately ripped
10 | (4/4) Accurately ripped
11 | (4/4) Accurately ripped
12 | (4/4) Accurately ripped
13 | (4/4) Accurately ripped
14 | (4/4) Accurately ripped
15 | (4/4) Accurately ripped
16 | (4/4) Accurately ripped
17 | (4/4) Accurately ripped
18 | (4/4) Accurately ripped
19 | (4/4) Accurately ripped
20 | (4/4) Accurately ripped
21 | (4/4) Accurately ripped
22 | (4/4) Accurately ripped
23 | (4/4) Accurately ripped
24 | (4/4) Accurately ripped
[AccurateRip ID: 003c3507-0414d6cc-7a10a518] found.
Track [ CRC | V2 ] Status
01 [4ed91218|8b86db9f] (0+2/2) Accurately ripped
02 [1e5fc227|8bfc9404] (0+2/2) Accurately ripped
03 [30b666a7|0891d78e] (0+2/2) Accurately ripped
04 [4aa416f9|107fd793] (0+2/2) Accurately ripped
05 [cb23d4ed|f4be05f5] (0+2/2) Accurately ripped
06 [b7b1f058|33d10b80] (0+2/2) Accurately ripped
07 [df39da9f|53647ba7] (0+2/2) Accurately ripped
08 [a5e53894|5439cd86] (0+2/2) Accurately ripped
09 [8447117d|415fc25d] (0+2/2) Accurately ripped
10 [72f3c5ac|1660105e] (0+2/2) Accurately ripped
11 [e518d579|ceb5578e] (0+2/2) Accurately ripped
12 [4d4a6e45|b5039e09] (0+2/2) Accurately ripped
13 [1c2086fc|efba16be] (0+2/2) Accurately ripped
14 [b66ed074|4c5fcf21] (0+2/2) Accurately ripped
15 [8ba203f0|7090a79a] (0+2/2) Accurately ripped
16 [4edcaf30|3efd6a8e] (0+2/2) Accurately ripped
17 [80e47b9b|5805e4f6] (0+2/2) Accurately ripped
18 [b19a4e06|cb2a4616] (0+2/2) Accurately ripped
19 [11f6f602|5fee4526] (0+2/2) Accurately ripped
20 [7a622ea7|8ec14aad] (0+2/2) Accurately ripped
21 [4a83bf86|25899472] (0+2/2) Accurately ripped
22 [6fe90b5d|5154dabe] (0+2/2) Accurately ripped
23 [2fe4f101|52616623] (0+2/2) Accurately ripped
24 [6c2c2d27|81de7e1d] (0+2/2) Accurately ripped

Track Peak [ CRC32 ] [W/O NULL] [ LOG ]
– 100,0 [6201A06D] [B7B8153C]
01 86,7 [303E53B1] [CDB26510] CRC32
02 85,1 [B39B8EE3] [BA1E9A8B] CRC32
03 82,9 [8462E7F2] [9219DB3D] CRC32
04 100,0 [A4F1EDB3] [B99C1995] CRC32
05 81,6 [D1062066] [DD8DB296] CRC32
06 89,2 [9552FBA3] [994FD6FC] CRC32
07 75,5 [4E099E46] [829E7753] CRC32
08 95,4 [C5A08537] [5F553CBD] CRC32
09 90,8 [4949581D] [6A85D733] CRC32
10 100,0 [C7E35165] [EE4E7A6D] CRC32
11 100,0 [D141C78E] [CAC01EAD] CRC32
12 95,3 [B4F0AE2F] [395A644D] CRC32
13 90,9 [36C03C7D] [07D13805] CRC32
14 91,0 [A68A6E42] [CD2E868B] CRC32
15 86,9 [96659C78] [14B29C8C] CRC32
16 100,0 [8B523BF9] [A5B14BBF] CRC32
17 100,0 [13CBFBB4] [FA5C488B] CRC32
18 100,0 [571FA469] [64AAED06] CRC32
19 96,6 [6BE0A97F] [8A8F3390] CRC32
20 89,3 [1A228198] [EEC90250] CRC32
21 100,0 [DB02A90F] [562BE04E] CRC32
22 100,0 [D7FAA1A7] [DDDEC31E] CRC32
23 78,2 [67AA07FF] [210BA921] CRC32
24 100,0 [89475804] [F8CA0987] CRC32

Thanks to smacito

See also:
Rosemary Clooney & Woody Herman - My Buddy (1983)
Woody Herman - Memorial: The 4...Concert [Recorded 1976] (1988)