Tags
Language
Tags

Yazoo - Only Yazoo - The Best Of (1999)

Posted By: gribovar
Yazoo - Only Yazoo - The Best Of (1999)

Yazoo - Only Yazoo - The Best Of (1999)
EAC Rip | FLAC (tracks+.cue+log) - 405 MB | MP3 CBR 320 kbps (LAME 3.93) - 151 MB | Covers - 48 MB
Genre: Synthpop | RAR 3% Rec. | Label: Mute (CDMUTEL6)

Although Yazoo split in 1984, it wasn't until 15 years later that a substantial compilation album appeared. Only Yazoo: The Best Of represents some of the best synth pop ever committed to record, and provides a fine display of the range and power of Alison Moyet's incredible voice. All of the singles are present (with the exception of "The Other Side of Love"), as well as a handful of quality album tracks. Thankfully, the Francois Kevorkian mix of "Situation" is included, as well as three "1999" mixes. These modern mixes don't reach the same heights as the originals, and the Todd Terry remix of "Don't Go" almost manages to ruin a beautiful song. However, for the most part, Only Yazoo is close to perfect. Tracks like "Nobody's Diary" remain landmarks of pop songwriting, although the sparse arrangements sometimes sound dated. Even so, it's a great album, and a fine overview of Yazoo's brief career.
Tracklist:
01. Only You
02. Ode To Boy
03. Nobody's Diary
04. Midnight
05. Goodbye 70's
06. Anyone
07. Don't Go
08. Mr Blue
09. Tuesday
10. Winter Kills
11. State Farm
12. Situation (US 12" Mix)
1999 Mixes:
13. Don't Go (Todd Terry Freeze Mix)
14. Situation (Club 69 Future Funk Mix)
15. Only You (1999 Mix)

Total time: 01:02:53

Exact Audio Copy V1.0 beta 6 from 9. April 2015

EAC extraction logfile from 31. August 2017, 22:13

Yazoo / Only Yazoo - The Best Of

Used drive : PIONEER DVD-RW DVR-221L Adapter: 1 ID: 2

Read mode : Secure
Utilize accurate stream : Yes
Defeat audio cache : Yes
Make use of C2 pointers : No

Read offset correction : 6
Overread into Lead-In and Lead-Out : No
Fill up missing offset samples with silence : Yes
Delete leading and trailing silent blocks : No
Null samples used in CRC calculations : Yes
Used interface : Native Win32 interface for Win NT & 2000
Gap handling : Appended to previous track

Used output format : User Defined Encoder
Selected bitrate : 1024 kBit/s
Quality : High
Add ID3 tag : Yes
Command line compressor : C:\Program Files (x86)\Exact Audio Copy\FLAC\FLAC.EXE
Additional command line options : -6 -V -T "COMMENT=Ripped by RRCLtd " -T "ARTIST=%artist%" -T "TITLE=%title%" -T "ALBUM=%albumtitle%" -T "DATE=%year%" -T "TRACKNUMBER=%tracknr%" -T "GENRE=%genre%" -T "COMMENT=%comment%" -T "BAND=%albuminterpret%" -T "ALBUMARTIST=%albuminterpret%" -T "COMPOSER=%composer%" %haslyrics%–tag-from-file=LYRICS="%lyricsfile%"%haslyrics% -T "DISCNUMBER=%cdnumber%" -T "TOTALDISCS=%totalcds%" -T "TOTALTRACKS=%numtracks%" %hascover%–picture="%coverfile%"%hascover% %source% -o %dest%


TOC of the extracted CD

Track | Start | Length | Start sector | End sector
––––––––––––––––––––––––––––-
1 | 0:00.00 | 3:12.22 | 0 | 14421
2 | 3:12.22 | 3:38.15 | 14422 | 30786
3 | 6:50.37 | 4:31.18 | 30787 | 51129
4 | 11:21.55 | 4:20.10 | 51130 | 70639
5 | 15:41.65 | 2:33.22 | 70640 | 82136
6 | 18:15.12 | 3:25.60 | 82137 | 97571
7 | 21:40.72 | 3:06.60 | 97572 | 111581
8 | 24:47.57 | 3:26.35 | 111582 | 127066
9 | 28:14.17 | 3:19.15 | 127067 | 142006
10 | 31:33.32 | 4:03.03 | 142007 | 160234
11 | 35:36.35 | 3:35.55 | 160235 | 176414
12 | 39:12.15 | 5:46.47 | 176415 | 202411
13 | 44:58.62 | 6:12.23 | 202412 | 230334
14 | 51:11.10 | 8:48.65 | 230335 | 269999
15 | 60:00.00 | 2:53.42 | 270000 | 283016


Track 1

Filename G:\RRC's Rip\01-Only You.wav

Pre-gap length 0:00:02.00

Peak level 100.0 %
Extraction speed 4.2 X
Track quality 100.0 %
Test CRC C8E8A04F
Copy CRC C8E8A04F
Accurately ripped (confidence 50) [CACF695C] (AR v2)
Copy OK

Track 2

Filename G:\RRC's Rip\02-Ode to Boy.wav

Peak level 100.0 %
Extraction speed 4.7 X
Track quality 100.0 %
Test CRC 130506EF
Copy CRC 130506EF
Accurately ripped (confidence 49) [3D7CE780] (AR v2)
Copy OK

Track 3

Filename G:\RRC's Rip\03-Nobody's Diary.wav

Peak level 100.0 %
Extraction speed 4.5 X
Track quality 99.9 %
Test CRC 2E4470EB
Copy CRC 2E4470EB
Accurately ripped (confidence 49) [79133B95] (AR v2)
Copy OK

Track 4

Filename G:\RRC's Rip\04-Midnight.wav

Peak level 100.0 %
Extraction speed 5.7 X
Track quality 100.0 %
Test CRC 96B1CA7C
Copy CRC 96B1CA7C
Accurately ripped (confidence 49) [93D0F06D] (AR v2)
Copy OK

Track 5

Filename G:\RRC's Rip\05-Goodbye Seventies.wav

Peak level 100.0 %
Extraction speed 5.4 X
Track quality 100.0 %
Test CRC A8F61235
Copy CRC A8F61235
Accurately ripped (confidence 49) [3248E8DD] (AR v2)
Copy OK

Track 6

Filename G:\RRC's Rip\06-Anyone.wav

Peak level 100.0 %
Extraction speed 6.0 X
Track quality 100.0 %
Test CRC 01D1F176
Copy CRC 01D1F176
Accurately ripped (confidence 49) [E90B9604] (AR v2)
Copy OK

Track 7

Filename G:\RRC's Rip\07-Don't Go.wav

Peak level 100.0 %
Extraction speed 6.2 X
Track quality 100.0 %
Test CRC E0179620
Copy CRC E0179620
Accurately ripped (confidence 50) [E6085FC3] (AR v2)
Copy OK

Track 8

Filename G:\RRC's Rip\08-Mr Blue.wav

Peak level 100.0 %
Extraction speed 5.2 X
Track quality 99.9 %
Test CRC E08AF9A4
Copy CRC E08AF9A4
Accurately ripped (confidence 49) [4F87FC59] (AR v2)
Copy OK

Track 9

Filename G:\RRC's Rip\09-Tuesday.wav

Peak level 100.0 %
Extraction speed 5.4 X
Track quality 99.9 %
Test CRC 30461765
Copy CRC 30461765
Accurately ripped (confidence 49) [81CBD59C] (AR v2)
Copy OK

Track 10

Filename G:\RRC's Rip\10-Winter Kills.wav

Peak level 100.0 %
Extraction speed 5.9 X
Track quality 99.9 %
Test CRC 555D0A8E
Copy CRC 555D0A8E
Accurately ripped (confidence 49) [D2B70B78] (AR v2)
Copy OK

Track 11

Filename G:\RRC's Rip\11-State Farm.wav

Peak level 100.0 %
Extraction speed 7.3 X
Track quality 100.0 %
Test CRC 70573762
Copy CRC 70573762
Accurately ripped (confidence 49) [DC8C181A] (AR v2)
Copy OK

Track 12

Filename G:\RRC's Rip\12-Situation (US 12'' mix).wav

Peak level 100.0 %
Extraction speed 8.1 X
Track quality 100.0 %
Test CRC 29A932DE
Copy CRC 29A932DE
Accurately ripped (confidence 49) [2612025F] (AR v2)
Copy OK

Track 13

Filename G:\RRC's Rip\13-Don't Go (Todd Terry Freeze mix).wav

Peak level 100.0 %
Extraction speed 8.6 X
Track quality 100.0 %
Test CRC D52A7CE4
Copy CRC D52A7CE4
Accurately ripped (confidence 48) [C3DA1E62] (AR v2)
Copy OK

Track 14

Filename G:\RRC's Rip\14-Situation (Club 69 Future Funk mix).wav

Peak level 100.0 %
Extraction speed 8.4 X
Track quality 99.9 %
Test CRC CDCEC003
Copy CRC CDCEC003
Accurately ripped (confidence 48) [3DAEE39D] (AR v2)
Copy OK

Track 15

Filename G:\RRC's Rip\15-Only You (1999 mix).wav

Peak level 100.0 %
Extraction speed 8.4 X
Track quality 100.0 %
Test CRC 996346BC
Copy CRC 996346BC
Accurately ripped (confidence 48) [5F588091] (AR v2)
Copy OK


All tracks accurately ripped

No errors occurred

End of status report

–– CUETools DB Plugin V2.1.6

[CTDB TOCID: u60jma269Dpd0qY4ZauB.g2RHJE-] found
Submit result: u60jma269Dpd0qY4ZauB.g2RHJE- has been confirmed
Track | CTDB Status
1 | (107/107) Accurately ripped
2 | (107/107) Accurately ripped
3 | (107/107) Accurately ripped
4 | (107/107) Accurately ripped
5 | (107/107) Accurately ripped
6 | (107/107) Accurately ripped
7 | (107/107) Accurately ripped
8 | (107/107) Accurately ripped
9 | (107/107) Accurately ripped
10 | (107/107) Accurately ripped
11 | (107/107) Accurately ripped
12 | (107/107) Accurately ripped
13 | (106/107) Accurately ripped
14 | (107/107) Accurately ripped
15 | (107/107) Accurately ripped


==== Log checksum B968A2BF5819472F88EA18F1B6359F310224141C969BE626E3E8CB8C479305A4 ====

[CUETools log; Date: 29.04.2020 22:32:44; Version: 2.1.4]
[CTDB TOCID: u60jma269Dpd0qY4ZauB.g2RHJE-] found.
Track | CTDB Status
1 | (201/202) Accurately ripped
2 | (201/202) Accurately ripped
3 | (201/202) Accurately ripped
4 | (201/202) Accurately ripped
5 | (201/202) Accurately ripped
6 | (201/202) Accurately ripped
7 | (201/202) Accurately ripped
8 | (201/202) Accurately ripped
9 | (201/202) Accurately ripped
10 | (201/202) Accurately ripped
11 | (201/202) Accurately ripped
12 | (200/202) Accurately ripped
13 | (200/202) Accurately ripped
14 | (201/202) Accurately ripped
15 | (201/202) Accurately ripped
[AccurateRip ID: 001f46de-01687d04-cf0ebd0f] found.
Track [ CRC | V2 ] Status
01 [2957e9e1|cacf695c] (035+059/120) Accurately ripped
02 [770f9411|3d7ce780] (035+058/119) Accurately ripped
03 [e27ffb9d|79133b95] (035+058/120) Accurately ripped
04 [479ea045|93d0f06d] (034+058/118) Accurately ripped
05 [f07dded5|3248e8dd] (034+058/118) Accurately ripped
06 [5b300bc5|e90b9604] (035+058/119) Accurately ripped
07 [a92ad38a|e6085fc3] (036+059/122) Accurately ripped
08 [72e9b84f|4f87fc59] (036+058/120) Accurately ripped
09 [4ce554f8|81cbd59c] (035+058/119) Accurately ripped
10 [264a6c37|d2b70b78] (034+058/117) Accurately ripped
11 [e572eb87|dc8c181a] (034+058/118) Accurately ripped
12 [5130e9f0|2612025f] (034+058/118) Accurately ripped
13 [6a47c188|c3da1e62] (034+057/116) Accurately ripped
14 [73855cf7|3daee39d] (035+057/117) Accurately ripped
15 [517325ad|5f588091] (034+057/117) Accurately ripped
Offsetted by 664:
01 [c55a3b39] (004/120) Accurately ripped
02 [923dd6f9] (004/119) Accurately ripped
03 [17bc2cdd] (005/120) Accurately ripped
04 [8bdd1645] (004/118) Accurately ripped
05 [3f38addd] (004/118) Accurately ripped
06 [8c2722bd] (004/119) Accurately ripped
07 [4ab57aea] (005/122) Accurately ripped
08 [620ab707] (004/120) Accurately ripped
09 [0fb6c5f0] (004/119) Accurately ripped
10 [72366b47] (004/117) Accurately ripped
11 [77663d4f] (005/118) Accurately ripped
12 [fed09800] (005/118) Accurately ripped
13 [41d97d80] (004/116) Accurately ripped
14 [234f4b77] (004/117) Accurately ripped
15 [f3c6e32d] (004/117) Accurately ripped
Offsetted by -661:
01 [b9fdb3e4] (000/120) No match (V2 was not tested)
02 [7d8b8cd6] (000/119) No match (V2 was not tested)
03 [e3187f05] (000/120) No match (V2 was not tested)
04 [dcbe8505] (000/118) No match (V2 was not tested)
05 [0d4c633e] (000/118) No match (V2 was not tested)
06 [cad44a1c] (000/119) No match (V2 was not tested)
07 [a92069d6] (000/122) No match (V2 was not tested)
08 [98243f5e] (000/120) No match (V2 was not tested)
09 [7370988f] (000/119) No match (V2 was not tested)
10 [10b01229] (000/117) No match (V2 was not tested)
11 [c2cef708] (000/118) No match (V2 was not tested)
12 [5ef444c2] (000/118) No match (V2 was not tested)
13 [915f297f] (000/116) No match (V2 was not tested)
14 [fc0b6147] (000/117) No match (V2 was not tested)
15 [0f15c2dd] (000/117) No match (V2 was not tested)
Offsetted by -6:
01 [d007b32b] (000/120) No match (V2 was not tested)
02 [33bb1cb7] (000/119) No match (V2 was not tested)
03 [76d6924d] (000/120) No match (V2 was not tested)
04 [94e1eac5] (000/118) No match (V2 was not tested)
05 [196b37f3] (000/118) No match (V2 was not tested)
06 [19f96127] (000/119) No match (V2 was not tested)
07 [662a5832] (000/122) No match (V2 was not tested)
08 [4a32acc1] (000/120) No match (V2 was not tested)
09 [7a2bebda] (000/119) No match (V2 was not tested)
10 [b9a72233] (000/117) No match (V2 was not tested)
11 [06d430f5] (000/118) No match (V2 was not tested)
12 [da6ad82c] (000/118) No match (V2 was not tested)
13 [6cf579aa] (000/116) No match (V2 was not tested)
14 [02e57757] (000/117) No match (V2 was not tested)
15 [9186704d] (000/117) No match (V2 was not tested)
Offsetted by 454:
01 [8f62c057] (000/120) No match
02 [5db185ab] (000/119) No match
03 [5f92c6ed] (000/120) No match (V2 was not tested)
04 [1c1045c5] (000/118) No match (V2 was not tested)
05 [d7abdcf7] (000/118) No match (V2 was not tested)
06 [a1adcf23] (000/119) No match (V2 was not tested)
07 [21a49de2] (000/122) No match (V2 was not tested)
08 [d104229d] (000/120) No match (V2 was not tested)
09 [405d66d6] (000/119) No match (V2 was not tested)
10 [97e34cbb] (000/117) No match (V2 was not tested)
11 [07b2bb59] (000/118) No match (V2 was not tested)
12 [c1bc2a34] (000/118) No match (V2 was not tested)
13 [9f99aa26] (000/116) No match (V2 was not tested)
14 [bd72e697] (000/117) No match (V2 was not tested)
15 [b66a170d] (000/117) No match (V2 was not tested)

Track Peak [ CRC32 ] [W/O NULL] [ LOG ]
– 100,0 [33ECAAA6] [991C630A]
01 100,0 [C8E8A04F] [62A6D546] CRC32
02 100,0 [130506EF] [727196A4] CRC32
03 100,0 [2E4470EB] [FFC86B8B] CRC32
04 100,0 [96B1CA7C] [7FB19897] CRC32
05 100,0 [A8F61235] [08D100BC] CRC32
06 100,0 [01D1F176] [826CC267] CRC32
07 100,0 [E0179620] [E293A8A6] CRC32
08 100,0 [E08AF9A4] [C071817B] CRC32
09 100,0 [30461765] [C20F4B96] CRC32
10 100,0 [555D0A8E] [EC619E9A] CRC32
11 100,0 [70573762] [E1975034] CRC32
12 100,0 [29A932DE] [83D25482] CRC32
13 100,0 [D52A7CE4] [0E68049A] CRC32
14 100,0 [CDCEC003] [1987EC9B] CRC32
15 100,0 [996346BC] [D40F6B20] CRC32

Thanks to RRC

See also:
Yazoo - In Your Room [3CD Box Set] (2008)