Tags
Language
Tags

Yo La Tengo - I Can Hear The Heart Beating As One (1997) [Re-Up]

Posted By: Designol
Yo La Tengo - I Can Hear The Heart Beating As One (1997) [Re-Up]

Yo La Tengo - I Can Hear The Heart Beating As One (1997)
EAC | FLAC | Tracks (Cue&Log) ~ 412 Mb | Mp3 (CBR320) ~ 162 Mb | Scans included
Indie Rock, Noise Pop | Label: Matador | # OLE 222-2 | Time: 01:08:18

New Jersey indie rockers Yo La Tengo had already been slowly growing into their sound for over a decade by the 1997 release of their revelational eighth album, I Can Hear the Heart Beating as One. Their guitar-based pop was steadily finding its legs before this, as the band moved toward increasingly dreamy productions on albums like Painful and Electr-O-Pura. The 16 tracks that made up the ambitious and epic I Can Hear the Heart found the group stretching out their whispery vocals and deceptively straightforward pop approach to encompass a variety of unexpected styles. This meant softly wandering guitars and steadfast drums twisted out of their indie rock trappings and morphed into adventurous Krautrock jams like "Spec Bebop," haunting, harmony-driven psych-folk like "We're an American Band," and even a playfully naive take on bossa nova with "Center of Gravity." As for the blissed-out melodic noise pop Yo La Tengo had been working on for the majority of their existence, this was one of the band's finest hours. Propulsive rockers like "Sugarcube" and a particularly feedback-laden reading of the Beach Boys' "Little Honda" offered Ira Kaplan a fantastic platform for his often dialed-down guitar playing to break into the manic territory he would explore in live settings. These more unhinged moments were counterpointed with hypnotic electronic grooves like "Autumn Sweater" and glowing instrumentals like the Santo & Johnny-channeling "Green Arrow." The album ends with its only other cover tune, a head-clearingly simple take on Anita Bryant's singsongy bubblegum tune "My Little Corner of the World." Sung by drummer Georgia Hubley in her most Mo Tucker-esque performance, the song gently sets the album back down to earth following the dizzying detours and shifts of the last hour. While the band turned in standout albums before and after, I Can Hear the Heart Beating as One announced itself as a definitive master statement. The subtly shifting moods and wide, curious palette of stylistic exploration resulted in a lasting indie rock classic, essential listening and also something of a blueprint for much of what followed from like-minded bands for years to come.

Review by Fred Thomas, Allmusic.com

Yo La Tengo - I Can Hear The Heart Beating As One (1997) [Re-Up]

Yo La Tengo - I Can Hear The Heart Beating As One (1997) [Re-Up]



Tracklist:

01. Return To Hot Chicken (01:39)
02. Moby Octopad (05:48)
03. Sugarcube (03:21)
04. Damage (04:39)
05. Deeper Into Movies (05:23)
06. Shadows (02:27)
07. Stockholm Syndrome (02:51)
08. Autumn Sweater (05:18)
09. Little Honda (03:07)
10. Green Arrow (05:43)
11. One PM Again (02:25)
12. The Lie And How We Told It (03:19)
13. Center Of Gravity (02:40)
14. Spec Bebop (10:40)
15. We're An American Band (06:23)
16. My Little Corner Of The World (02:25)


EAC extraction logfile from 22. October 2005, 16:05 for CD
Yo La Tengo / I Can Hear The Heart Beating As One

Used drive : PLEXTOR DVDR PX-716A Adapter: 3 ID: 0
Read mode : Secure with NO C2, accurate stream, disable cache
Read offset correction : 30
Overread into Lead-In and Lead-Out : Yes

Used output format : Internal WAV Routines
44.100 Hz; 16 Bit; Stereo

Other options :
Fill up missing offset samples with silence : Yes
Delete leading and trailing silent blocks : No
Native Win32 interface for Win NT & 2000


Track 1
Filename C:\EAC-Tengo\Disc\01 - Return To Hot Chicken.wav

Pre-gap length 0:00:02.00

Peak level 58.5 %
Track quality 100.0 %
Test CRC 824B9BCE
Copy CRC 824B9BCE
Copy OK

Track 2
Filename C:\EAC-Tengo\Disc\02 - Moby Octopad.wav

Pre-gap length 0:00:00.05

Peak level 100.0 %
Track quality 100.0 %
Test CRC 946F2D65
Copy CRC 946F2D65
Copy OK

Track 3
Filename C:\EAC-Tengo\Disc\03 - Sugarcube.wav

Pre-gap length 0:00:00.02

Peak level 100.0 %
Track quality 100.0 %
Test CRC B4DDDCD1
Copy CRC B4DDDCD1
Copy OK

Track 4
Filename C:\EAC-Tengo\Disc\04 - Damage.wav

Peak level 93.1 %
Track quality 100.0 %
Test CRC C55EAEF8
Copy CRC C55EAEF8
Copy OK

Track 5
Filename C:\EAC-Tengo\Disc\05 - Deeper Into Movies.wav

Peak level 100.0 %
Track quality 100.0 %
Test CRC C551AEC6
Copy CRC C551AEC6
Copy OK

Track 6
Filename C:\EAC-Tengo\Disc\06 - Shadows.wav

Pre-gap length 0:00:00.04

Peak level 85.2 %
Track quality 100.0 %
Test CRC 3876A184
Copy CRC 3876A184
Copy OK

Track 7
Filename C:\EAC-Tengo\Disc\07 - Stockholm Syndrome.wav

Peak level 91.2 %
Track quality 100.0 %
Test CRC 2D2FFA54
Copy CRC 2D2FFA54
Copy OK

Track 8
Filename C:\EAC-Tengo\Disc\08 - Autumn Sweater.wav

Peak level 100.0 %
Track quality 100.0 %
Test CRC 2AD2DF3E
Copy CRC 2AD2DF3E
Copy OK

Track 9
Filename C:\EAC-Tengo\Disc\09 - Little Honda.wav

Pre-gap length 0:00:00.14

Peak level 100.0 %
Track quality 100.0 %
Test CRC 86D2FCE0
Copy CRC 86D2FCE0
Copy OK

Track 10
Filename C:\EAC-Tengo\Disc\10 - Green Arrow.wav

Pre-gap length 0:00:00.02

Peak level 84.3 %
Track quality 100.0 %
Test CRC A345E4C6
Copy CRC A345E4C6
Copy OK

Track 11
Filename C:\EAC-Tengo\Disc\11 - One PM Again.wav

Peak level 82.8 %
Track quality 100.0 %
Test CRC 44C24CEE
Copy CRC 44C24CEE
Copy OK

Track 12
Filename C:\EAC-Tengo\Disc\12 - The Lie And How We Told It.wav

Pre-gap length 0:00:00.01

Peak level 100.0 %
Track quality 100.0 %
Test CRC 6EED6052
Copy CRC 6EED6052
Copy OK

Track 13
Filename C:\EAC-Tengo\Disc\13 - Center Of Gravity.wav

Pre-gap length 0:00:00.14

Peak level 73.7 %
Track quality 100.0 %
Test CRC 8A88F95C
Copy CRC 8A88F95C
Copy OK

Track 14
Filename C:\EAC-Tengo\Disc\14 - Spec Bebop.wav

Pre-gap length 0:00:01.98

Peak level 100.0 %
Track quality 99.9 %
Test CRC 454861ED
Copy CRC 454861ED
Copy OK

Track 15
Filename C:\EAC-Tengo\Disc\15 - We're An American Band.wav

Peak level 92.1 %
Track quality 100.0 %
Test CRC F9CF2F59
Copy CRC F9CF2F59
Copy OK

Track 16
Filename C:\EAC-Tengo\Disc\16 - My Little Corner Of The World.wav

Pre-gap length 0:00:02.01

Peak level 78.1 %
Track quality 100.0 %
Test CRC A7077D40
Copy CRC A7077D40
Copy OK

No errors occured


End of status report

[CUETools log; Date: 12.02.2015 20:51:57; Version: 2.1.4]
[CTDB TOCID: .Ah6sKbD8tM8R.cL15clr4GMXAA-] found.
Track | CTDB Status
1 | (29/30) Accurately ripped
2 | (29/30) Accurately ripped
3 | (30/30) Accurately ripped
4 | (30/30) Accurately ripped
5 | (30/30) Accurately ripped
6 | (29/30) Accurately ripped
7 | (30/30) Accurately ripped
8 | (29/30) Accurately ripped
9 | (29/30) Accurately ripped
10 | (28/30) Accurately ripped
11 | (29/30) Accurately ripped
12 | (28/30) Accurately ripped
13 | (30/30) Accurately ripped
14 | (27/30) Accurately ripped
15 | (28/30) Accurately ripped
16 | (29/30) Accurately ripped
[AccurateRip ID: 00254f6a-01c6709c-d6100210] found.
Track [ CRC | V2 ] Status
01 [3724d67b|a2c58367] (21+20/77) Accurately ripped
02 [d31a9f29|5f6ffd35] (21+20/75) Accurately ripped
03 [a98b2328|84362e5d] (21+20/75) Accurately ripped
04 [4220257d|7473a42c] (22+20/76) Accurately ripped
05 [edbc43ce|87c10d57] (20+20/74) Accurately ripped
06 [8a5b7c5c|9fe30654] (21+19/74) Accurately ripped
07 [350e6c03|099e126d] (21+19/74) Accurately ripped
08 [62c12c6f|6467ce30] (21+20/75) Accurately ripped
09 [bb51e7f8|da38d5e5] (21+20/75) Accurately ripped
10 [f9535f27|99e1f065] (21+20/75) Accurately ripped
11 [cf211ea1|5f82a999] (21+20/75) Accurately ripped
12 [e3a912c4|0ce78bc2] (21+19/74) Accurately ripped
13 [26da5f12|d6a82ace] (20+20/73) Accurately ripped
14 [b9e29e18|eda91681] (20+19/73) Accurately ripped
15 [d23fe5fd|a9f07916] (20+19/73) Accurately ripped
16 [b016c66b|1be8953c] (21+19/74) Accurately ripped
Offsetted by -2671:
01 [18871092] (04/77) Accurately ripped
02 [865e9734] (02/75) Accurately ripped
03 [ba83433e] (02/75) Accurately ripped
04 [63ebe22b] (02/76) Accurately ripped
05 [cf3e1389] (02/74) Accurately ripped
06 [231530fd] (02/74) Accurately ripped
07 [14d406ea] (02/74) Accurately ripped
08 [df058717] (02/75) Accurately ripped
09 [fe7ca1bd] (02/75) Accurately ripped
10 [58042acb] (02/75) Accurately ripped
11 [46a60c0a] (02/75) Accurately ripped
12 [ec7ddd2c] (02/74) Accurately ripped
13 [019621fa] (02/73) Accurately ripped
14 [b46348c8] (02/73) Accurately ripped
15 [34d7e9fd] (02/73) Accurately ripped
16 [9f791cae] (02/74) Accurately ripped
Offsetted by -2007:
01 [3c200dba] (09/77) Accurately ripped
02 [7257473c] (09/75) Accurately ripped
03 [fd69234e] (09/75) Accurately ripped
04 [06cb287b] (09/76) Accurately ripped
05 [6d64ec11] (09/74) Accurately ripped
06 [bf7ced15] (09/74) Accurately ripped
07 [4f8aa792] (09/74) Accurately ripped
08 [18e18ed7] (09/75) Accurately ripped
09 [12699652] (09/75) Accurately ripped
10 [97648197] (09/75) Accurately ripped
11 [e12dcec8] (09/75) Accurately ripped
12 [dff2e6c9] (09/74) Accurately ripped
13 [43972fba] (09/73) Accurately ripped
14 [c9119d25] (09/73) Accurately ripped
15 [1bd9b940] (09/73) Accurately ripped
16 [aa0679f6] (09/74) Accurately ripped
Offsetted by -1343:
01 [5fb90ae2] (06/77) Accurately ripped
02 [5e4ff744] (06/75) Accurately ripped
03 [404f035e] (06/75) Accurately ripped
04 [a9aa6ecb] (06/76) Accurately ripped
05 [0b8bc499] (06/74) Accurately ripped
06 [5be4a92d] (06/74) Accurately ripped
07 [8a41483a] (06/74) Accurately ripped
08 [52bd9697] (06/75) Accurately ripped
09 [fd831714] (06/75) Accurately ripped
10 [0a4baa47] (06/75) Accurately ripped
11 [681e76d0] (06/75) Accurately ripped
12 [c5164eef] (06/74) Accurately ripped
13 [85983d7a] (06/73) Accurately ripped
14 [24baf51a] (06/73) Accurately ripped
15 [4189f453] (06/73) Accurately ripped
16 [b493d73e] (06/74) Accurately ripped
Offsetted by -679:
01 [8352080a] (03/77) Accurately ripped
02 [4a48a74c] (03/75) Accurately ripped
03 [8334e36e] (03/75) Accurately ripped
04 [4c89b51b] (03/76) Accurately ripped
05 [a9b29d21] (03/74) Accurately ripped
06 [f84c6545] (03/74) Accurately ripped
07 [c4f7e8e2] (03/74) Accurately ripped
08 [8c999e57] (03/75) Accurately ripped
09 [d0a5d1a9] (03/75) Accurately ripped
10 [190229b9] (03/75) Accurately ripped
11 [4021d7b5] (03/75) Accurately ripped
12 [96ab19e7] (03/74) Accurately ripped
13 [c7994b3a] (02/73) Accurately ripped
14 [bffa3095] (03/73) Accurately ripped
15 [716a5138] (03/73) Accurately ripped
16 [bf213486] (03/74) Accurately ripped
Offsetted by -1361:
01 [4c407624] (00/77) No match (V2 was not tested)
02 [087e6dde] (00/75) No match (V2 was not tested)
03 [fc2e9092] (00/75) No match (V2 was not tested)
04 [46683c4f] (00/76) No match (V2 was not tested)
05 [114866d3] (00/74) No match (V2 was not tested)
06 [9b823bfb] (00/74) No match (V2 was not tested)
07 [4a349edc] (00/74) No match (V2 was not tested)
08 [30c95bc7] (00/75) No match (V2 was not tested)
09 [421f072f] (00/75) No match (V2 was not tested)
10 [e17ab2f2] (00/75) No match (V2 was not tested)
11 [fee31787] (00/75) No match (V2 was not tested)
12 [330d19b6] (00/74) No match (V2 was not tested)
13 [fc18362a] (00/73) No match (V2 was not tested)
14 [2a840fb0] (00/73) No match (V2 was not tested)
15 [824703b5] (00/73) No match (V2 was not tested)
16 [39b064e8] (00/74) No match (V2 was not tested)
Offsetted by 6:
01 [3da25d65] (00/77) No match
02 [450b224b] (00/75) No match
03 [6aeb496c] (00/75) No match
04 [63363651] (00/76) No match
05 [967d6310] (00/74) No match (V2 was not tested)
06 [1fd1a0c2] (00/74) No match
07 [4a67f9cd] (00/74) No match
08 [6e12955f] (00/75) No match
09 [3b42f58d] (00/75) No match
10 [7c54b492] (00/75) No match
11 [90734a58] (00/75) No match
12 [be7d5ac9] (00/74) No match
13 [ff5a6182] (00/73) No match
14 [c2a17130] (00/73) No match
15 [48d691e5] (00/73) No match
16 [d90d41dd] (00/74) No match

Track Peak [ CRC32 ] [W/O NULL] [ LOG ]
– 99,9 [B92ACE65] [E1644C77]
01 58,5 [824B9BCE] [EACBEA29] CRC32
02 99,9 [946F2D65] [7B6515EF] CRC32
03 99,9 [B4DDDCD1] [6CC297A9] CRC32
04 93,1 [C55EAEF8] [45C7330D] CRC32
05 99,9 [C551AEC6] [57D714A6] CRC32
06 85,2 [3876A184] [59AB35C3] CRC32
07 91,2 [2D2FFA54] [C5FD9F64] CRC32
08 99,9 [2AD2DF3E] [820F4021] CRC32
09 99,9 [86D2FCE0] [C45AA2A9] CRC32
10 84,3 [A345E4C6] [EF8E6082] CRC32
11 82,8 [44C24CEE] [44060E76] CRC32
12 99,9 [6EED6052] [9968E0E7] CRC32
13 73,7 [8A88F95C] [0678D218] CRC32
14 99,9 [454861ED] [11873CD4] CRC32
15 92,1 [F9CF2F59] [F1B92CFD] CRC32
16 78,1 [A7077D40] [B0D95E66] CRC32

foobar2000 1.2 / Dynamic Range Meter 1.1.1
log date: 2015-02-12 20:44:15

––––––––––––––––––––––––––––––––––––––––
Analyzed: Yo La Tengo / I Can Hear The Heart Beating As One
––––––––––––––––––––––––––––––––––––––––

DR Peak RMS Duration Track
––––––––––––––––––––––––––––––––––––––––
DR7 -4.65 dB -15.05 dB 1:40 01-Return To Hot Chicken
DR8 0.00 dB -9.92 dB 5:49 02-Moby Octopad
DR7 0.00 dB -7.93 dB 3:21 03-Sugarcube
DR8 -0.62 dB -10.72 dB 4:39 04-Damage
DR7 0.00 dB -7.88 dB 5:23 05-Deeper Into Movies
DR9 -1.38 dB -12.15 dB 2:27 06-Shadows
DR10 -0.80 dB -12.45 dB 2:51 07-Stockholm Syndrome
DR9 0.00 dB -10.73 dB 5:18 08-Autumn Sweater
DR9 0.00 dB -9.63 dB 3:07 09-Little Honda
DR10 -1.48 dB -16.46 dB 5:44 10-Green Arrow
DR9 -1.64 dB -12.50 dB 2:26 11-One PM Again
DR9 0.00 dB -10.42 dB 3:19 12-The Lie And How We Told It
DR9 -2.64 dB -13.88 dB 2:42 13-Center Of Gravity
DR8 0.00 dB -9.49 dB 10:41 14-Spec Bebop
DR7 -0.71 dB -9.90 dB 6:25 15-We're An American Band
DR8 -2.14 dB -12.32 dB 2:26 16-My Little Corner Of The World
––––––––––––––––––––––––––––––––––––––––

Number of tracks: 16
Official DR value: DR8

Samplerate: 44100 Hz
Channels: 2
Bits per sample: 16
Bitrate: 800 kbps
Codec: FLAC
================================================================================

Yo La Tengo - I Can Hear The Heart Beating As One (1997) [Re-Up]

Yo La Tengo - I Can Hear The Heart Beating As One (1997) [Re-Up]

All thanks to original releaser - durmoll

More interesting music in My Blog