Subcategories
Tags
Language
Tags

Young Disciples - Road To Freedom (1991) [1993, Reissue]

Posted By: BlondStyle
Young Disciples - Road To Freedom (1991) [1993, Reissue]

Young Disciples - Road To Freedom (1991) [1993, Reissue]
R&B, Soul/Funk, Jazz, Hip Hop | EAC Rip | FLAC, Img+CUE+LOG+Scans (PNG) | 51:34 Min | 329,13 Mb
Label: Talkin' Loud (USA) | Cat.# 314 514 406(7)-1 | Released: 1993 (1991)
Young Disciples - Road To Freedom (1991) [1993, Reissue]

"Road to Freedom" is the debut album of soul and jazz band Young Disciples, the only album the band ever released. Issued in 1991 on the Talkin' Loud label in the UK and on Polygram in the US, the critically well-received album was influential in the music genres of acid jazz and neo soul. Containing two charting singles, "Get Yourself Together" and "Apparently Nothin'", the album itself reached a chart position of number 21. It was on the short list of nominees for the 1992 Mercury Prize and was reissued in 1993 in limited edition with a bonus remix EP of the song "Apparently Nothin'".
~Wikipedia
"Road to Freedom" is the debut album of soul and jazz band Young Disciples, the only album the band ever released. Issued in 1991 on the Talkin' Loud label in the UK and on Polygram in the US, the critically well-received album was influential in the music genres of acid jazz and neo soul. Containing two charting singles, "Get Yourself Together" and "Apparently Nothin'", the album itself reached a chart position of number 21. It was on the short list of nominees for the 1992 Mercury Prize and was reissued in 1993 in limited edition with a bonus remix EP of the song "Apparently Nothin'".
~Review by Jason Ankeny

Young Disciples - Road To Freedom (1991) [1993, Reissue]

Young Disciples - Road To Freedom (1991) [1993, Reissue]


Release of this album: 1991 [2LPs Mercury/Talkin' Loud, Cat.# 314 514 406(7)-1, USA]
Release of this CD: 1993 [CD Talkin' Loud (USA), Cat.# 314 514 080-2 / UPC: 731451408021]
℗© 1993 Phonogram Ltd. (London)
Manufactured and Marketed by PolyGram Records Inc.
Printed in U.S.A.


Credits:

Alto Saxophone – Maceo Parker (tracks: 7, 8)
Arranged By – Demus, Young Disciples
Arranged By [Horns] – Carleen Anderson (tracks: 8)
Arranged By [Young Disciples Orchestra] – Whitfield Riser
Bass – Marc Nelson (tracks: 3, 5, 6)
Bass [Fender] – Marc Nelson (tracks: 1, 2, 7, 8, 11)
Clavinet – Michael Talbot (tracks: 3)
Design Concept [Sleeve Concept] – Young Disciples
Design, Typography [Typographics] – Swifty
Double Bass – Wayne Batchelor (tracks: 10)
Drum Programming – Demus (tracks: 7, 9), Femi Williams (tracks: 1 to 3, 5 to 11)
Drums – Maxton "Gig" Beesley Jnr. (tracks: 6), Steve White (tracks: 8)
Electric Piano – Michael Talbot (tracks: 3, 7, 10)
Engineer [Co-engineer] – Brendan Lynch
Flute – Herbie Kirk (tracks: 1, 2, 11), Jacko Peake (tracks: 10)
Guitar – Marc Nelson (tracks: 7, 10), Paul Weller (tracks: 8), Phil Hudson (tracks: 8)
Keyboards – Carleen Anderson (tracks: 3), Michael Talbot (tracks: 1, 2, 9 to 11)
Lyrics By – Carleen Anderson (tracks: 1 to 3, 6 to 8, 10 (I)), IG Culture (tracks: 10 (II)), I. Bello (tracks: 9), MC Mell'O' (tracks: 11), Marc Nelson (tracks: 1, 2), Master Ace (tracks: 5)
Melodica – Marc Nelson (tracks: 10)
Mixed By – Demus, Young Disciples
Music By – Carleen Anderson (tracks: 1 to 3, 6 to 8, 10 (I)), Demus (tracks: 6, 10 (II), 10 (III)), Femi Williams (tracks: 1, 2, 9, 11), Marc Nelson (tracks: 1 to 7, 9, 10 (II) to 11), Michael Talbot (tracks: 10 (II), 10 (III))
Organ – Marc Nelson (tracks: 7)
Organ [Hammond] – Marc Nelson (tracks: 1, 2, 5, 11)
Percussion – Spry (tracks: 1, 2, 6, 8 to 11), Femi Williams (tracks: 1, 2, 7, 11)
Percussion [Beats] – Demus (tracks: 5, 6, 10), Marc Nelson (tracks: 1 to 3, 5 to 11)
Photography By – Chris Clunn
Piano – Michael Talbot (tracks: 8)
Producer – Demus, Young Disciples
Producer [Additional Production], Remix – Brendan Lynch (tracks: 1, 2)
Rap – M.C. Bello (tracks: 9), IG Culture (tracks: 10), K Gee (tracks: 9), MC Mell'O' (tracks: 11), Master Ace (tracks: 5)
Scratches – K Gee (tracks: 5, 9, 10), Marc Nelson (tracks: 10)
Synthesizer [Moog] – Michael Talbot (tracks: 10)
Tenor Saxophone – Pee Wee Ellis (tracks: 7, 8)
Trombone – Fred Wesley (tracks: 7, 8)
Vibraphone [Vibes] – Johnny Lytle (tracks: 10)
Vocals [All Lead], Backing Vocals – Carleen Anderson (tracks: 1 to 3, 6 to 8, 10)


Tracklist:

01. Get Yourself Together, Parts I &, Part II (06:13)
02. Apparently Nothin' (Soul River) (05:18)
03. Funky Yeh Funki (Mek It) (00:41)
04. Talkin' What I Feel (04:17)
05. All I Have (Young Ideas Mix) (06:06)
06. Move On (03:28)
07. As We Come (To Be) (04:35)
08. Stop Right On (Original Mix) (03:25)
09. Freedom Suite: (I) Freedom/(II) Wanting/(III) To Be Free (15:58)
10. Young Disciples Theme (01:34)

Exact Audio Copy V1.3 from 2. September 2016

EAC extraction logfile from 28. April 2017, 1:50

Young Disciples / Road To Freedom

Used drive : Memorex 52MAXX 3252AJ1 Adapter: 1 ID: 1

Read mode : Secure
Utilize accurate stream : Yes
Defeat audio cache : Yes
Make use of C2 pointers : No

Read offset correction : 6
Overread into Lead-In and Lead-Out : No
Fill up missing offset samples with silence : Yes
Delete leading and trailing silent blocks : No
Null samples used in CRC calculations : Yes
Used interface : Native Win32 interface for Win NT & 2000

Used output format : User Defined Encoder
Selected bitrate : 896 kBit/s
Quality : High
Add ID3 tag : No
Command line compressor : C:\Program Files (x86)\Exact Audio Copy\Flac\flac.exe
Additional command line options : %ishigh%-V -p -l 12 -b 4096 -m -e -r 8%ishigh%%islow%-5%islow% –replay-gain -T "ARTIST=%artist%" -T "ALBUM=%albumtitle%" -T "TITLE=%title%" -T "DATE=%year%" -T "TRACKNUMBER=%tracknr%" -T "GENRE=%genre%" -T "ENSEMBLE=%albuminterpret%" -T "ALBUMARTIST=%albumartist%" -T "COMPOSER=%albumcomposer%" -T "DISCNUMBER=%cdnumber%" -T "TOTALDISCS=%totalcds%" -T "TOTALTRACKS=%numtracks%" -T "SOURCEMEDIA=CD" -T "COMMENT=%comment%" %hascover%-T "PICTURE=%coverfile%"%hascover% %source%


TOC of the extracted CD

Track | Start | Length | Start sector | End sector
––––––––––––––––––––––––––––-
1 | 0:00.32 | 6:12.43 | 32 | 27974
2 | 6:13.00 | 5:17.52 | 27975 | 51801
3 | 11:30.52 | 0:41.10 | 51802 | 54886
4 | 12:11.62 | 4:16.55 | 54887 | 74141
5 | 16:28.42 | 6:05.68 | 74142 | 101584
6 | 22:34.35 | 3:28.00 | 101585 | 117184
7 | 26:02.35 | 4:35.35 | 117185 | 137844
8 | 30:37.70 | 3:24.52 | 137845 | 153196
9 | 34:02.47 | 15:57.35 | 153197 | 225006
10 | 50:00.07 | 1:34.00 | 225007 | 232056


Range status and errors

Selected range

Filename C:\Users\M@ce\Music\Archives\Rips\Burn WAV\Young Disciples - Road To Freedom.wav

Peak level 99.1 %
Extraction speed 5.6 X
Range quality 100.0 %
Test CRC 00489B26
Copy CRC 00489B26
Copy OK

No errors occurred


AccurateRip summary

Track 1 accurately ripped (confidence 2) [4AD353DF] (AR v2)
Track 2 accurately ripped (confidence 2) [D5DEF474] (AR v2)
Track 3 accurately ripped (confidence 2) [5E76A839] (AR v2)
Track 4 accurately ripped (confidence 2) [404E058D] (AR v2)
Track 5 accurately ripped (confidence 2) [764ED196] (AR v2)
Track 6 accurately ripped (confidence 2) [C046A820] (AR v2)
Track 7 accurately ripped (confidence 2) [F78E8409] (AR v2)
Track 8 accurately ripped (confidence 2) [803A56F1] (AR v2)
Track 9 accurately ripped (confidence 2) [4D9B0E37] (AR v2)
Track 10 accurately ripped (confidence 2) [47A32414] (AR v2)

All tracks accurately ripped

End of status report

–– CUETools DB Plugin V2.1.6

[CTDB TOCID: SqIXnmbaXd7kRQA3tEYSkYSTRHw-] disk not present in database
Submit result: SqIXnmbaXd7kRQA3tEYSkYSTRHw- has been uploaded


==== Log checksum DBD6137077B1D673EF5ED5F21CE920323AD4EDFBB52CFC48381DA81BDEBBBE42 ====

––––––––––––––––––––––––––––––––––––––––
Analyzed: Young Disciples / Road To Freedom
––––––––––––––––––––––––––––––––––––––––

DR Peak RMS Duration Track
––––––––––––––––––––––––––––––––––––––––
DR12 -0.08 dB -15.46 dB 6:13 01-Get Yourself Together, Parts I &, Part II
DR14 -0.08 dB -15.67 dB 5:18 02-Apparently Nothin' (Soul River)
DR13 -5.87 dB -20.38 dB 0:41 03-Funky Yeh Funki (Mek It)
DR15 -0.08 dB -15.85 dB 4:17 04-Talkin' What I Feel
DR12 -0.68 dB -14.88 dB 6:06 05-All I Have (Young Ideas Mix)
DR13 -0.08 dB -14.90 dB 3:28 06-Move On
DR13 -0.24 dB -15.82 dB 4:35 07-As We Come (To Be)
DR15 -0.08 dB -16.18 dB 3:25 08-Stop Right On (Original Mix)
DR14 -0.33 dB -15.89 dB 15:57 09-Freedom Suite: (I) Freedom/(II) Wanting/(III) To Be Free
DR12 -0.11 dB -15.00 dB 1:34 10-Young Disciples Theme
––––––––––––––––––––––––––––––––––––––––

Number of tracks: 10
Official DR value: DR13

Samplerate: 44100 Hz
Channels: 2
Bits per sample: 16
Bitrate: 747 kbps
Codec: FLAC
================================================================================

Thanks to M@ce

password: BlondStyle