Subcategories

Yuja Wang - The Berlin Recital: Rachmaninov, Scriabin, Ligeti, Prokofiev (2018)

Posted By: ArlegZ
Yuja Wang - The Berlin Recital: Rachmaninov, Scriabin, Ligeti, Prokofiev (2018)

Yuja Wang - The Berlin Recital: Rachmaninov, Scriabin, Ligeti, Prokofiev (2018)
EAC | FLAC | Image (Cue & Log) ~ 225 Mb | Total time: 65:27 | Scans included
Classical | Label: Deutsche Grammophon | # 4836280 | Recorded: 2018

Yuja Wang is one of the most technically astounding pianists of our time, with a command of the keyboard matched by sheer muscular strength. Here she turns her attention to Russia and some of its leading pianist-composers. The Rachmaninoff Preludes and Études-Tableaux are rich and swirl with passion, while Scriabin’s Tenth Sonata, a work of mystical imaginings, seethes with dangerous life under her fingers. Briefly looking further afield, a group of Hungarian composer György Ligeti’s tiny Études diverts the attention magically before Prokofiev’s Eighth Piano Sonata, his masterpiece in the form, which Wang characterizes with genuine originality and imagination.

Performer:
Yuja Wang, piano

Track List:
Sergei Rachmaninov
01. Prelude in G minor, Op.23/5
02. Étude-tableau in C minor, Op.39/1
03. Étude-tableau in C minor, Op.33/3
04. Prelude in B minor, Op.32/10
Alexander Scriabin
05. Piano Sonata No.10, Op.70
György Ligeti
Études pour piano
06. No.3 Touches bloquées
07. No.9 Vertige
08. No.1 Désordre
Sergei Prokofiev
Piano Sonata No.8 in B flat major, Op.84
09. 1. Andante dolce
10. 2. Andante sognando
11. 3. Vivace


Exact Audio Copy V1.3 from 2. September 2016

EAC extraction logfile from 26. March 2019, 2:14

Yuja Wang / Yuja Wang - The Berlin Recital

Used drive : ASUS SDRW-08U7M-U Adapter: 1 ID: 0

Read mode : Secure
Utilize accurate stream : Yes
Defeat audio cache : Yes
Make use of C2 pointers : No

Read offset correction : 6
Overread into Lead-In and Lead-Out : No
Fill up missing offset samples with silence : Yes
Delete leading and trailing silent blocks : No
Null samples used in CRC calculations : Yes
Used interface : Native Win32 interface for Win NT & 2000

Used output format : User Defined Encoder
Selected bitrate : 128 kBit/s
Quality : High
Add ID3 tag : No
Command line compressor : C:\Program Files (x86)\Exact Audio Copy\Flac\flac.exe
Additional command line options : -V -8 -T "Date=%year%" -T "Genre=%genre%" %source%


TOC of the extracted CD

Track | Start | Length | Start sector | End sector
––––––––––––––––––––––––––––-
1 | 0:00.00 | 3:52.59 | 0 | 17458
2 | 3:52.59 | 3:24.40 | 17459 | 32798
3 | 7:17.24 | 4:15.20 | 32799 | 51943
4 | 11:32.44 | 5:36.56 | 51944 | 77199
5 | 17:09.25 | 11:52.22 | 77200 | 130621
6 | 29:01.47 | 1:53.27 | 130622 | 139123
7 | 30:54.74 | 2:39.29 | 139124 | 151077
8 | 33:34.28 | 2:37.48 | 151078 | 162900
9 | 36:12.01 | 13:48.48 | 162901 | 225048
10 | 50:00.49 | 4:39.01 | 225049 | 245974
11 | 54:39.50 | 10:45.43 | 245975 | 294392


Range status and errors

Selected range

Filename C:\temp\Yuja Wang - The Berlin Recital - 2018\Yuja Wang - The Berlin Recital.wav

Peak level 95.2 %
Extraction speed 4.7 X
Range quality 99.9 %
Test CRC 326C9C53
Copy CRC 326C9C53
Copy OK

No errors occurred


AccurateRip summary

Track 1 accurately ripped (confidence 10) [007AFC2A] (AR v2)
Track 2 accurately ripped (confidence 10) [EB00394E] (AR v2)
Track 3 accurately ripped (confidence 10) [BFD60429] (AR v2)
Track 4 accurately ripped (confidence 11) [DF7DCC81] (AR v2)
Track 5 accurately ripped (confidence 11) [D7D4B249] (AR v2)
Track 6 accurately ripped (confidence 11) [33CACAF5] (AR v2)
Track 7 accurately ripped (confidence 11) [BCD2203F] (AR v2)
Track 8 accurately ripped (confidence 11) [5529DC5C] (AR v2)
Track 9 accurately ripped (confidence 11) [72CD9185] (AR v2)
Track 10 accurately ripped (confidence 11) [B4D3E8E8] (AR v2)
Track 11 accurately ripped (confidence 11) [DD17C2E9] (AR v2)

All tracks accurately ripped

End of status report

==== Log checksum EC690C28625F5A27DE4C1FE7DA08E27C01B648700E3A2681D54118E13171E00A ====

Yuja Wang - The Berlin Recital: Rachmaninov, Scriabin, Ligeti, Prokofiev (2018)

Thanks to the original releaser