Subcategories

Zoot - Zoot Locker: The Best Of The Zoot 1968-1971 (1980) CD issue 1995

Posted By: Designol
Zoot - Zoot Locker: The Best Of The Zoot 1968-1971 (1980) CD issue 1995

Zoot - Zoot Locker: The Best Of The Zoot 1968-1971 (1980) CD issue 1995
featuring Rick Springfield, Beeb Birtles, Darryl Cotton, Rick Brewer

EAC | FLAC | Tracks (Cue&Log) ~ 351 Mb | Mp3 (CBR320) ~ 136 Mb | Scans included
Genre: Pop/Rock, Rock & Roll | Label: EMI | # 8141832 | Time: 00:47:53

Like fellow Aussies the Sherbs, Zoot never escaped teen-star status. But as Zoot Locker proves, they were certainly adapt at churning out clever pop tracks. Because of their time period, Zoot used every trick in the psychedelic book; but most songs maintain the three-minute mark, resulting in shrewd and skewered singles much like the Move delivered. Innocent innocuousness such as "Monty & Me" about walking the dog or "One Times Two Times Three Times Four" seems unfairly buried in the past. Of course, Beatles nods abound, such as the Lennon-isms of "Hey Pinky." With this smoking version of "Eleanor Rigby" the quartet attempted to jettison their early "pink" image, jumping aboard the bizarre "heavy covers" bandwagon with Vanilla Fudge and Rare Earth. The Hollies are another pervasive influence ("Flying" shares rhyme schemes with "Dear Eloise" over a "Helter Skelter" riff) while "Mr Songwriter" echoes the Byrds by way of Dylan. "Freak" foreshadows "Highway Star" and many Sweet moments. The informative liner notes guide the listener through this startlingly sterling posthumous collection, proving Zoot was much more than a mere launching pad for Rick Springfield and Little River Band.

Review by Whitney Z. Gomes, Allmusic.com

Zoot - Zoot Locker: The Best Of The Zoot 1968-1971 (1980) CD issue 1995



Tracklist:

01. You Better Get Going Now (02:03)
02. 1 X 2 X 3 X 4 (02:18)
03. Monty And Me (02:36)
04. It's About Time (02:54)
05. Sailing (02:16)
06. Yes I'm Glad (02:37)
07. Little Roland Lost (02:26)
08. She's Alright (02:11)
09. Sha La La (03:00)
10. Flying (03:02)
11. Mr. Songwriter (03:04)
12. Strange Things (03:26)
13. Hey Pinky (03:07)
14. The Freak (05:08)
15. Evil Child (02:55)
16. Eleanor Rigby (04:42)


Exact Audio Copy V1.0 beta 3 from 29. August 2011

EAC extraction logfile from 28. January 2016, 5:09

Zoot / Zoot Locker The Best Of The Zoot 1968-1971

Used drive : HL-DT-STDVDRAM GH24NS90 Adapter: 1 ID: 0

Read mode : Secure
Utilize accurate stream : Yes
Defeat audio cache : No
Make use of C2 pointers : Yes

Read offset correction : 6
Overread into Lead-In and Lead-Out : No
Fill up missing offset samples with silence : Yes
Delete leading and trailing silent blocks : No
Null samples used in CRC calculations : Yes
Used interface : Native Win32 interface for Win NT & 2000
Gap handling : Appended to previous track

Used output format : User Defined Encoder
Selected bitrate : 1024 kBit/s
Quality : High
Add ID3 tag : No
Command line compressor : C:\Program Files (x86)\FLAC\metaflac.exe
Additional command line options : -8


TOC of the extracted CD

Track | Start | Length | Start sector | End sector
––––––––––––––––––––––––––––-
1 | 0:00.00 | 2:03.65 | 0 | 9289
2 | 2:03.65 | 2:18.38 | 9290 | 19677
3 | 4:22.28 | 2:36.22 | 19678 | 31399
4 | 6:58.50 | 2:54.25 | 31400 | 44474
5 | 9:53.00 | 2:16.35 | 44475 | 54709
6 | 12:09.35 | 2:37.53 | 54710 | 66537
7 | 14:47.13 | 2:26.20 | 66538 | 77507
8 | 17:13.33 | 2:11.10 | 77508 | 87342
9 | 19:24.43 | 3:00.60 | 87343 | 100902
10 | 22:25.28 | 3:02.17 | 100903 | 114569
11 | 25:27.45 | 3:04.53 | 114570 | 128422
12 | 28:32.23 | 3:26.55 | 128423 | 143927
13 | 31:59.03 | 3:07.50 | 143928 | 158002
14 | 35:06.53 | 5:08.55 | 158003 | 181157
15 | 40:15.33 | 2:55.27 | 181158 | 194309
16 | 43:10.60 | 4:42.15 | 194310 | 215474


Track 1

Filename C:\Exact Audio Copy\Zoot\Zoot Locker The Best Of The Zoot 1968-1971\01. You Better Get Going Now.wav

Pre-gap length 0:00:02.00

Peak level 69.6 %
Extraction speed 3.5 X
Track quality 100.0 %
Test CRC C3F57383
Copy CRC C3F57383
Accurately ripped (confidence 2) [9FB224B4] (AR v2)
Copy OK

Track 2

Filename C:\Exact Audio Copy\Zoot\Zoot Locker The Best Of The Zoot 1968-1971\02. 1 X 2 X 3 X 4.wav

Peak level 99.6 %
Extraction speed 4.0 X
Track quality 100.0 %
Test CRC 6F898356
Copy CRC 6F898356
Accurately ripped (confidence 2) [1E491F35] (AR v2)
Copy OK

Track 3

Filename C:\Exact Audio Copy\Zoot\Zoot Locker The Best Of The Zoot 1968-1971\03. Monty And Me.wav

Peak level 94.8 %
Extraction speed 4.2 X
Track quality 100.0 %
Test CRC A717558D
Copy CRC A717558D
Accurately ripped (confidence 2) [65C21E94] (AR v2)
Copy OK

Track 4

Filename C:\Exact Audio Copy\Zoot\Zoot Locker The Best Of The Zoot 1968-1971\04. It's About Time.wav

Peak level 100.0 %
Extraction speed 4.8 X
Track quality 100.0 %
Test CRC 95023C30
Copy CRC 95023C30
Accurately ripped (confidence 2) [24073B8C] (AR v2)
Copy OK

Track 5

Filename C:\Exact Audio Copy\Zoot\Zoot Locker The Best Of The Zoot 1968-1971\05. Sailing.wav

Peak level 87.5 %
Extraction speed 5.0 X
Track quality 100.0 %
Test CRC 67A4EC69
Copy CRC 67A4EC69
Accurately ripped (confidence 2) [7F973A39] (AR v2)
Copy OK

Track 6

Filename C:\Exact Audio Copy\Zoot\Zoot Locker The Best Of The Zoot 1968-1971\06. Yes I'm Glad.wav

Peak level 95.6 %
Extraction speed 4.9 X
Track quality 100.0 %
Test CRC 9B3BF240
Copy CRC 9B3BF240
Accurately ripped (confidence 2) [650F729C] (AR v2)
Copy OK

Track 7

Filename C:\Exact Audio Copy\Zoot\Zoot Locker The Best Of The Zoot 1968-1971\07. Little Roland Lost.wav

Peak level 92.2 %
Extraction speed 5.1 X
Track quality 99.8 %
Test CRC A7CC0B10
Copy CRC A7CC0B10
Accurately ripped (confidence 2) [3F1DC54E] (AR v2)
Copy OK

Track 8

Filename C:\Exact Audio Copy\Zoot\Zoot Locker The Best Of The Zoot 1968-1971\08. She's Alright.wav

Peak level 100.0 %
Extraction speed 5.3 X
Track quality 100.0 %
Test CRC F03C48BF
Copy CRC F03C48BF
Accurately ripped (confidence 2) [E2F86C51] (AR v2)
Copy OK

Track 9

Filename C:\Exact Audio Copy\Zoot\Zoot Locker The Best Of The Zoot 1968-1971\09. Sha La La.wav

Peak level 96.3 %
Extraction speed 5.9 X
Track quality 100.0 %
Test CRC 81E5F18D
Copy CRC 81E5F18D
Accurately ripped (confidence 2) [3C295E70] (AR v2)
Copy OK

Track 10

Filename C:\Exact Audio Copy\Zoot\Zoot Locker The Best Of The Zoot 1968-1971\10. Flying.wav

Peak level 97.0 %
Extraction speed 5.8 X
Track quality 100.0 %
Test CRC 1E07C0DA
Copy CRC 1E07C0DA
Accurately ripped (confidence 2) [C5EA25B3] (AR v2)
Copy OK

Track 11

Filename C:\Exact Audio Copy\Zoot\Zoot Locker The Best Of The Zoot 1968-1971\11. Mr. Songwriter.wav

Peak level 97.0 %
Extraction speed 6.1 X
Track quality 100.0 %
Test CRC D7C75735
Copy CRC D7C75735
Accurately ripped (confidence 2) [55E03818] (AR v2)
Copy OK

Track 12

Filename C:\Exact Audio Copy\Zoot\Zoot Locker The Best Of The Zoot 1968-1971\12. Strange Things.wav

Peak level 97.8 %
Extraction speed 6.3 X
Track quality 100.0 %
Test CRC C5A1A928
Copy CRC C5A1A928
Accurately ripped (confidence 2) [3CD0D80F] (AR v2)
Copy OK

Track 13

Filename C:\Exact Audio Copy\Zoot\Zoot Locker The Best Of The Zoot 1968-1971\13. Hey Pinky.wav

Peak level 100.0 %
Extraction speed 6.5 X
Track quality 99.8 %
Test CRC D122E1D5
Copy CRC D122E1D5
Accurately ripped (confidence 2) [BD22C833] (AR v2)
Copy OK

Track 14

Filename C:\Exact Audio Copy\Zoot\Zoot Locker The Best Of The Zoot 1968-1971\14. The Freak.wav

Peak level 100.0 %
Extraction speed 6.9 X
Track quality 100.0 %
Test CRC 0344A246
Copy CRC 0344A246
Accurately ripped (confidence 2) [F57A4AF1] (AR v2)
Copy OK

Track 15

Filename C:\Exact Audio Copy\Zoot\Zoot Locker The Best Of The Zoot 1968-1971\15. Evil Child.wav

Peak level 96.6 %
Extraction speed 7.4 X
Track quality 100.0 %
Test CRC ED7A759F
Copy CRC ED7A759F
Accurately ripped (confidence 2) [E6BCAE09] (AR v2)
Copy OK

Track 16

Filename C:\Exact Audio Copy\Zoot\Zoot Locker The Best Of The Zoot 1968-1971\16. Eleanor Rigby.wav

Peak level 100.0 %
Extraction speed 7.4 X
Track quality 100.0 %
Test CRC A89E07CD
Copy CRC A89E07CD
Accurately ripped (confidence 2) [7F1B5BD0] (AR v2)
Copy OK


All tracks accurately ripped

No errors occurred

End of status report

==== Log checksum 8179D215A151E15E92CD7EFC7F456BD2C8C87921759436C8052E3DFA1D51E5E7 ====

foobar2000 1.2 / Dynamic Range Meter 1.1.1
log date: 2016-02-09 15:16:45

––––––––––––––––––––––––––––––––––––––––
Analyzed: Zoot / Zoot Locker The Best Of Zoot 1968-1971
––––––––––––––––––––––––––––––––––––––––

DR Peak RMS Duration Track
––––––––––––––––––––––––––––––––––––––––
DR9 -3.14 dB -13.28 dB 2:04 01-You Better Get Going Now
DR11 -0.03 dB -12.91 dB 2:19 02-1 X 2 X 3 X 4
DR11 -0.46 dB -13.02 dB 2:36 03-Monty And Me
DR10 0.00 dB -11.82 dB 2:54 04-It's About Time
DR10 -1.16 dB -13.08 dB 2:16 05-Sailing
DR11 -0.39 dB -12.55 dB 2:38 06-Yes I'm Glad
DR10 -0.70 dB -11.48 dB 2:26 07-Little Roland Lost
DR10 0.00 dB -11.63 dB 2:11 08-She's Alright
DR8 -0.32 dB -9.34 dB 3:01 09-Sha La La
DR8 -0.26 dB -10.15 dB 3:02 10-Flying
DR10 -0.26 dB -11.12 dB 3:05 11-Mr. Songwriter
DR9 -0.19 dB -11.28 dB 3:27 12-Strange Things
DR9 0.00 dB -10.65 dB 3:08 13-Hey Pinky
DR8 0.00 dB -10.60 dB 5:09 14-The Freak
DR10 -0.30 dB -11.59 dB 2:55 15-Evil Child
DR8 0.00 dB -9.52 dB 4:42 16-Eleanor Rigby
––––––––––––––––––––––––––––––––––––––––

Number of tracks: 16
Official DR value: DR9

Samplerate: 44100 Hz
Channels: 2
Bits per sample: 16
Bitrate: 1042 kbps
Codec: FLAC
================================================================================

Zoot - Zoot Locker: The Best Of The Zoot 1968-1971 (1980) CD issue 1995

Zoot - Zoot Locker: The Best Of The Zoot 1968-1971 (1980) CD issue 1995

All thanks to original releaser - saintsmon

More interesting music in My Blog