Tags
Language
Tags

A Taste Of Honey - A Taste Of Honey (1978) {2010 Remastered & Expanded Reissue - Big Break Records CDBBR 0016}

Posted By:
A Taste Of Honey - A Taste Of Honey (1978) {2010 Remastered & Expanded Reissue - Big Break Records CDBBR 0016}

A Taste Of Honey - A Taste Of Honey (1978) {2010 Remastered & Expanded Reissue - Big Break Records CDBBR 0016}
EAC rip (secure mode) | FLAC (tracks)+CUE+LOG -> 392 Mb | MP3 @320 -> 131 Mb
Full Artwork @ 300 dpi (png) -> 71 Mb | 5% repair rar
© 1978, 2010 Capitol / Big Break Records / Cherry Red Records | CDBBR 0016
Funk / Soul / Disco / R&B / Quiet Storm

A TASTE OF HONEY was the debut album from the Disco-Funk group on Capitol Records in 1978 The album features the international Disco smash hit BOOGIE OOGIE OOGIE which is featured here in three different mixes.

Produced by Capitol Records’ Funk, Soul and Jazz legends Fonce Mizell & Larry Mizell, the album made #2 on the R&B album chart and #6 on the US Pop album chart, achieving Platinum status in the process.

The rare 12″ remixes of the hits Boogie Oogie Oogie and follow-up Disco Dancin’ are included as bonus cuts other single versions.

BBR introduce the first ever expanded re-master of this album on CD.
A Taste Of Honey - A Taste Of Honey (1978) {2010 Remastered & Expanded Reissue - Big Break Records CDBBR 0016}


AllMusic INFO

tracklist:
01 - Boogie Oogie Oogie
02 - This Love Of Ours
03 - Distant
04 - World Spin
05 - Disco Dancin'
06 - You
07 - If We Loved
08 - Sky High
09 - You're In Good Hands (Single Mix)
10 - Boogie Oogie Oogie
11 - Disco Dancin' (12' Disco Version)
12 - Boogie Oogie Oogie (LP Remix Version)

Exact Audio Copy V0.99 prebeta 5 from 4. May 2009

EAC extraction logfile from 22. November 2010, 2:36

A Taste Of Honey / A Taste Of Honey

Used drive : PHILIPS DVDR1628P1 Adapter: 4 ID: 0

Read mode : Secure
Utilize accurate stream : Yes
Defeat audio cache : Yes
Make use of C2 pointers : No

Read offset correction : 618
Overread into Lead-In and Lead-Out : No
Fill up missing offset samples with silence : Yes
Delete leading and trailing silent blocks : No
Null samples used in CRC calculations : Yes
Used interface : Installed external ASPI interface
Gap handling : Appended to previous track

Used output format : User Defined Encoder
Selected bitrate : 128 kBit/s
Quality : High
Add ID3 tag : No
Command line compressor : C:\Program Files\Exact Audio Copy\Flac\flac.exe
Additional command line options : -8 -V -T "ARTIST=%a" -T "TITLE=%t" -T "ALBUM=%g" -T "DATE=%y" -T "TRACKNUMBER=%n" -T "TOTALTRACKS=%x" -T "GENRE=%m" -T "ALBUM ARTIST=%v" -T "ALBUMARTIST=%v" -T "COMMENT=EAC V0.99 prebeta 5, Secure Mode, Test & Copy, Accurat


TOC of the extracted CD

Track | Start | Length | Start sector | End sector
––––––––––––––––––––––––––––-
1 | 0:00.00 | 5:38.24 | 0 | 25373
2 | 5:38.24 | 3:33.20 | 25374 | 41368
3 | 9:11.44 | 4:20.04 | 41369 | 60872
4 | 13:31.48 | 4:02.00 | 60873 | 79022
5 | 17:33.48 | 3:30.37 | 79023 | 94809
6 | 21:04.10 | 3:22.50 | 94810 | 110009
7 | 24:26.60 | 4:26.15 | 110010 | 129974
8 | 28:53.00 | 5:07.03 | 129975 | 153002
9 | 34:00.03 | 3:55.30 | 153003 | 170657
10 | 37:55.33 | 4:05.13 | 170658 | 189045
11 | 42:00.46 | 6:09.04 | 189046 | 216724
12 | 48:09.50 | 7:30.14 | 216725 | 250488


Track 1

Filename C:\addis gugsa killed my hdd\01 - Boogie Oogie Oogie.wav

Pre-gap length 0:00:02.00

Peak level 100.0 %
Track quality 100.0 %
Test CRC 30487957
Copy CRC 30487957
Track not present in AccurateRip database
Copy OK

Track 2

Filename C:\addis gugsa killed my hdd\02 - This Love Of Ours.wav

Pre-gap length 0:00:01.00

Peak level 100.0 %
Track quality 100.0 %
Test CRC EABC186E
Copy CRC EABC186E
Track not present in AccurateRip database
Copy OK

Track 3

Filename C:\addis gugsa killed my hdd\03 - Distant.wav

Pre-gap length 0:00:01.00

Peak level 100.0 %
Track quality 100.0 %
Test CRC 8A12A7AD
Copy CRC 8A12A7AD
Track not present in AccurateRip database
Copy OK

Track 4

Filename C:\addis gugsa killed my hdd\04 - World Spin.wav

Pre-gap length 0:00:01.00

Peak level 100.0 %
Track quality 100.0 %
Test CRC 5E451A7B
Copy CRC 5E451A7B
Track not present in AccurateRip database
Copy OK

Track 5

Filename C:\addis gugsa killed my hdd\05 - Disco Dancin'.wav

Pre-gap length 0:00:01.00

Peak level 100.0 %
Track quality 99.9 %
Test CRC 4FEC8BF3
Copy CRC 4FEC8BF3
Track not present in AccurateRip database
Copy OK

Track 6

Filename C:\addis gugsa killed my hdd\06 - You.wav

Pre-gap length 0:00:01.00

Peak level 100.0 %
Track quality 100.0 %
Test CRC E4D3E660
Copy CRC E4D3E660
Track not present in AccurateRip database
Copy OK

Track 7

Filename C:\addis gugsa killed my hdd\07 - If We Loved.wav

Pre-gap length 0:00:01.00

Peak level 100.0 %
Track quality 100.0 %
Test CRC B72683A6
Copy CRC B72683A6
Track not present in AccurateRip database
Copy OK

Track 8

Filename C:\addis gugsa killed my hdd\08 - Sky High.wav

Pre-gap length 0:00:01.00

Peak level 100.0 %
Track quality 100.0 %
Test CRC 9B6BFB52
Copy CRC 9B6BFB52
Track not present in AccurateRip database
Copy OK

Track 9

Filename C:\addis gugsa killed my hdd\09 - You're In Good Hands (Single Mix).wav

Pre-gap length 0:00:01.00

Peak level 100.0 %
Track quality 100.0 %
Test CRC CF13D730
Copy CRC CF13D730
Track not present in AccurateRip database
Copy OK

Track 10

Filename C:\addis gugsa killed my hdd\10 - Boogie Oogie Oogie.wav

Pre-gap length 0:00:01.00

Peak level 100.0 %
Track quality 100.0 %
Test CRC 3B8D224C
Copy CRC 3B8D224C
Track not present in AccurateRip database
Copy OK

Track 11

Filename C:\addis gugsa killed my hdd\11 - Disco Dancin' (12' Disco Version).wav

Pre-gap length 0:00:01.00

Peak level 100.0 %
Track quality 100.0 %
Test CRC 4ABECDDB
Copy CRC 4ABECDDB
Track not present in AccurateRip database
Copy OK

Track 12

Filename C:\addis gugsa killed my hdd\12 - Boogie Oogie Oogie (LP Remix Version).wav

Pre-gap length 0:00:01.00

Peak level 100.0 %
Track quality 100.0 %
Test CRC 36F1E495
Copy CRC 36F1E495
Track not present in AccurateRip database
Copy OK


None of the tracks are present in the AccurateRip database

No errors occurred

End of status report


A Taste Of Honey - A Taste Of Honey (1978) {2010 Remastered & Expanded Reissue - Big Break Records CDBBR 0016}

A Taste Of Honey - A Taste Of Honey (1978) {2010 Remastered & Expanded Reissue - Big Break Records CDBBR 0016}


thanks to addis…

see more Big Break Records Remasters…


===