Tags
Language
Tags

Against the Current - Past Lives (Japanese Edition) (2018)

Posted By: Domestos
Against the Current - Past Lives (Japanese Edition) (2018)

Against the Current - Past Lives (Japanese Edition) (2018)
EAC Rip | FLAC (image+.cue, log) ~ 319.85 Mb | 44:15 | Cover
Pop Rock | Country: USA | Label: Fueled By Ramen

The follow-up to Against The Current's acclaimed 2016 debut album, "IN OUR BONES," "PAST LIVES" is preceded by 3 new tracks, "Personal," "Strangers Again" and "Almost Forgot" - all of which mark the trio's first new material in more than two years. "Strangers Again" arrived alongside its own official video, and has already logged nearly 2.5 million views thus far. Against The Current will celebrate "PAST LIVES" with an epic world tour that includes stops in Mexico, Argentina, Chile, Ireland, the United Kingdom, Belgium, the Netherlands, Germany, and France as well as the United States.



Track List:
01. Strangers Again
02. The Fuss
03. I Like the Way
04. Personal
05. Voices
06. Scream
07. Almost Forgot
08. P.A.T.T.
09. Friendly Reminder
10. Come Alive
11. Sweet Surrender
12. Niji (Bonus)
13. Eyes Like Guns (Bonus)

Exact Audio Copy V1.3 from 2. September 2016

EAC extraction logfile from 21. November 2018, 20:05

Against the Current / Past Lives

Used drive : MATSHITADVD-RAM UJ8E2Q Adapter: 1 ID: 0

Read mode : Secure
Utilize accurate stream : Yes
Defeat audio cache : Yes
Make use of C2 pointers : No

Read offset correction : 103
Overread into Lead-In and Lead-Out : No
Fill up missing offset samples with silence : Yes
Delete leading and trailing silent blocks : No
Null samples used in CRC calculations : Yes
Used interface : Native Win32 interface for Win NT & 2000

Used output format : User Defined Encoder
Selected bitrate : 1024 kBit/s
Quality : High
Add ID3 tag : No
Command line compressor : C:\Users\User\flac-1.3.2-win\flac-1.3.2-win\win64\flac.exe
Additional command line options : -8 -V -T "TITLE=%title%" -T "ARTIST=%artist%" -T "ALBUMARTIST=%albumartist%" -T "ALBUM=%albumtitle%" -T "DATE=%year%" -T "TRACKNUMBER=%tracknr%" -T "TRACKTOTAL=%numtracks%" -T "GENRE=%genre%" -T "COMMENT=%comment%" -T "PERFORMER=%albuminterpret%" -T "COMPOSER=%composer%" %source% -o %dest%


TOC of the extracted CD

Track | Start | Length | Start sector | End sector
––––––––––––––––––––––––––––-
1 | 0:00.00 | 3:42.58 | 0 | 16707
2 | 3:42.58 | 2:50.35 | 16708 | 29492
3 | 6:33.18 | 3:23.00 | 29493 | 44717
4 | 9:56.18 | 3:24.60 | 44718 | 60077
5 | 13:21.03 | 3:24.42 | 60078 | 75419
6 | 16:45.45 | 3:00.70 | 75420 | 88989
7 | 19:46.40 | 3:28.13 | 88990 | 104602
8 | 23:14.53 | 2:33.27 | 104603 | 116104
9 | 25:48.05 | 3:09.32 | 116105 | 130311
10 | 28:57.37 | 3:24.40 | 130312 | 145651
11 | 32:22.02 | 3:35.33 | 145652 | 161809
12 | 35:57.35 | 5:00.14 | 161810 | 184323
13 | 40:57.49 | 3:17.60 | 184324 | 199158


Range status and errors

Selected range

Filename C:\Users\User\Desktop\2018 - Past Lives\Against the Current - Past Lives.wav

Peak level 100.0 %
Extraction speed 3.9 X
Range quality 100.0 %
Test CRC 0BB22C55
Copy CRC 0BB22C55
Copy OK

No errors occurred


AccurateRip summary

Track 1 not present in database
Track 2 not present in database
Track 3 not present in database
Track 4 not present in database
Track 5 not present in database
Track 6 not present in database
Track 7 not present in database
Track 8 not present in database
Track 9 not present in database
Track 10 not present in database
Track 11 not present in database
Track 12 not present in database
Track 13 not present in database

None of the tracks are present in the AccurateRip database

End of status report

–– CUETools DB Plugin V2.1.6

[CTDB TOCID: LZ.I.sS.MXoRRRn1fIFRF1wNq5M-] found
Submit result: LZ.I.sS.MXoRRRn1fIFRF1wNq5M- has been confirmed
Track | CTDB Status
1 | (2/2) Accurately ripped
2 | (2/2) Accurately ripped
3 | (2/2) Accurately ripped
4 | (2/2) Accurately ripped
5 | (2/2) Accurately ripped
6 | (2/2) Accurately ripped
7 | (2/2) Accurately ripped
8 | (2/2) Accurately ripped
9 | (2/2) Accurately ripped
10 | (2/2) Accurately ripped
11 | (2/2) Accurately ripped
12 | (2/2) Accurately ripped
13 | (2/2) Accurately ripped


==== Log checksum 39E5CD3E1765A08D0056555188A115BEC2DA65497CC2265D330C161367973507 ====

All thanks go to the Neokka

More Music in My Blog
Follow My RSS Channel