Subcategories

Ahmad Jamal - The Complete Ahmad Jamal Trio Argo Sessions 1956-62 (2010) {9CD BoxSet Mosaic MD9 246}

Posted By: ruskaval
Ahmad Jamal - The Complete Ahmad Jamal Trio Argo Sessions 1956-62 (2010) {9CD BoxSet Mosaic MD9 246}

Ahmad Jamal - The Complete Ahmad Jamal Trio Argo Sessions 1956-62 (2010) {9CD BoxSet Mosaic MD9 246}
EAC rip (secure mode) | FLAC+CUE+LOG -> 2.84 Gb | MP3 @320 -> 1.26 Gb
Artwork @ 300 dpi (jpg) -> 43 Mb | 5% repair rar
© 2010 Mosaic Records / UMG | MD9 246
Jazz / Cool / Bop / Piano

Miles once said, "All my inspiration today comes from Ahmad Jamal." These recordings are the reason why. The mid fifties was a fertile time for jazz; fresh, original ensembles were taking shape all over the country. The Modern Jazz Quartet, the Dave Brubeck Quartet, The Jazz Messengers and the Ahmad Jamal Trio immediately come to mind. Among musicians, each group had its imitators and its creative disciples who took its innovations one step further.

But no group in this era was as pervasive in the 1957 incarnation of Jamal's trio with bassist Israel Crosby and drummer Vernel Fournier. Like the Nat King Cole Trio of the previous decade, its influence penetrated so many different aspects of music.

Jamal is first and foremost a pianist with a natural gift for the instrument. His technique, dynamics and control are something to behold, but the mind that manipulates what comes out of the piano is extraordinary. Like only the greatest of improvising artists, Jamal is a master architect, realizing what his mind conceives with seeming ease.

He certainly exercised a profound influence on pianists and his trio set a new standard for what the piano trio in jazz would aim for and achieve. His knack for finding obscure but viable material which lent itself to a jazz treatment was equal to that of Sonny Rollins and Jimmy Rowles. But when Ahmad put an overlooked tune into circulation, it often stayed in the jazz repertoire forever thereafter. And with songs like "Poinciana" and "Billy Boy," it was Jamal's unique and imaginative re-arrangement of the tune which would become the standard form with which to play the piece.

Much like Miles Davis (who incidentally was greatly influenced by him), his influence is felt in music that attempts to replicate his and in great music that sounds nothing like his. But unlike musicians of similar or even lesser impact, the music of the 1957-62 Ahmad Jamal Trio has been mysteriously and distressingly hard to come by, even in the "reissue everything" era of the Compact Disc.

Literally years in the making, this set introduces 23 previously unreleased gems approved by the artist himself. It was delayed by problems finding much of the original Jamal trio LP masters and our search to reconstruct the music on the set from a variety on analog and digital sources sitting in vaults around the world.

It's been a hell of a long time coming and we hope you enjoy The Complete Ahmad Jamal Trio Argo Sessions.

tracklist:
DISC ONE
01. Volga Boatman (A) 3:50
(arr. by Ahmad Jamal)
02. On Green Dolphin Street (A) 3:17
(B. Kaper-N. Washington)
03. How About You (A) 5:27
(R. Freed-B. Lane)
04. I Just Can’t See For Lookin’ (A) 2:01
(A. Stanford-N. Robinson)
05. Spring Will Be A Little Late This Year (A) 2:32
(Frank Loesser)
06. Beat Out One (A) 5:25
(Ahmad Jamal)
07. Maryam (A) 3:36
(Ahmad Jamal)
08. Easy To Remember (A) 5:38
(R. Rodgers-L. Hart)
09. Jim Loves Sue (A) 2:48
(Ahmad Jamal)
10. Secret Love (C) 2:39
(S. Fein-P. Webster)
11. Taking A Chance On Love (C) 1:46
(Duke-Fetter-Latouche)
12. Cheek To Cheek (C) 5:14
(Irving Berlin)
13. It’s You Or No One (C) 2:11
(J. Styne-S. Cahn)
14. Soft Wind (C) 3:17
(Fletcher Henderson)
15. Love (C) 3:03
(H. Martin-R. Blane)
16. Aki And Ukthay (C) 3:14
(Ahmad Jamal)
17. Love For Sale (C) 3:58
(Cole Porter)
18. That’s All (C) 1:43
(A. Brandt-B. Haymes)

DISC TWO
01. But Not For Me (B) 3:32
(G. Gershwin-I. Gershwin)
02. Surrey With The Fringe On Top (B) 2:36
(R. Rodgers- O. Hammerstein)
03. Moonlight In Vermont (B) 3:10
(J. Blackburn-K. Seussdorf)
04. (Put Another Nickel In) Music! Music! Music! (B) 2:57
(B. Baum-S. Weiss)
05. There Is No Greater Love (B) 3:23
(I. Jones-M. Symes)
06. Poinciana (B) 8:08
(B. Bernier-N. Simon)
07. Woody ‘N’ You (B) 3:41
(Dizzy Gillespie)
08. What’s New? (B) 4:06
(B. Haggart-J. Burke)
09. Too Late Now (B) 2:31
(A. J. Lerner-B. Lane)
10. All The Things You Are (B) 3:13
(J. Kern-O. Hammerstein)
11. Cherokee (B) 3:43
(Ray Noble)
12. It Might As Well Be Spring (B) 3:27
(R. Rodgers-O. Hammerstein)
13. I’ll Remember April (B) 2:41
(Raye-DePaul-Johnston)
14. My Funny Valentine (B) 3:27
(R. Rodgers-L. Hart)
15. Gone With The Wind (B) 3:25
(H. Magidson-A. Wrubel)
16. Billy Boy (B) 3:03
(arr. by Ahmad Jamal)
17. It’s You Or No One (B) 3:34
(J. Styne-S. Cahn)
18. They Can’t Take That Away From Me (B) 4:45
(G. Gershwin-I. Gershwin)
19. Poor Butterfly (B) 3:37
(R. Hubbell-J. Golden)

DISC THREE
01. Taboo (D) 4:06
(Margarita Lecuona)
02. Should I (D) 3:43
(H. Brown-A. Freed)
03. Stompin’ At The Savoy (D) 4:15
(Sampson-Webb-Goodman-Razaf)
04. The Girl Next Door (D) 3:29
(H. Martin-R. Blaine)
05. I Wish I Knew (D) 3:43
(M. Gordon-H. Warren)
06. Cheek To Cheek (D) 4:51
(Irving Berlin)
07. Autumn In New York (D) 3:22
(Vernon Duke)
08. Secret Love (D) 3:53
(S. Fein-P. Webster)
09. Squatty Roo (D) 2:19
(Johnny Hodges)
10. That’s All (D) 2:38
(A. Brandt-B. Haymes)
11. This Can’t Be Love (D) 5:00
(R. Rodgers-L. Hart)
12. Autumn Leaves (D) 7:45
(Prevert-Mercer-Kozma)
13. Ahmad’s Blues (D) 3:55
(Ahmad Jamal)
14. Old Devil Moon (D) 3:56
(E. Y. Harburg-B. Lane)
15. Seleritus (D) 3:08
(Ahmad Jamal)
16. It Could Happen To You (D) 4:14
(J. Burke-J. Van Heusen)
17. Ivy (D) 2:56
(Hoagy Carmichael)
18. Tater Pie (D) 3:04
(Irving Ashby)

DISC FOUR
01. Let’s Fall In Love (D) 4:59
(T. Koehler-H. Arlen)
02. Aki And Urkthay (Brother And Sister) (D) 3:16
(Ahmad Jamal)
03. You Don’t Know What Love Is (D) 3:30
(D. Raye-G. DePaul)
04. I Didn’t Know What Time It Was (D) 4:36
(R. Rodgers-L. Hart)
05. So Beats My Heart For You (D) 3:40
(Ballard-Henderson-Waring)
06. Gal In Calico (D) 4:46
(L. Robin-A. Schwartz)
07. Our Delight (D) 2:58
(Tadd Dameron)
08. Too Late Now (D) 4:14
(B. Lane-A.J. Lerner)
09. The Night Has A Thousand Eyes (D) 3:31
(B. Bernier-J. Brainin)
10. Little Old Lady (F) 5:14
(H. Carmichael-S. Adams)
11. For All We Know (F) 2:45
(J. F. Coots-M.Lewis)
12. Pavanne (F) 5:45
(Morton Gould)
13. Excerpts From The Blues (F) 3:01
(Ahmad Jamal)
14. Easy To Love (F) 3:18
(Cole Porter)
15. Time On My Hands (F) 1:34
(Adamson-Youmans-Gordon)
16. Raincheck (F) 4:41
(Billy Strayhorn)
17. I’ll Never Stop Loving You (F) 3:00
(S. Cahn-N. Brodszky)
18. Speak Low (F) 4:50
(K. Weill-O. Nash)
19. Rhumba No. 2 (F) 2:37
(Ahmad Jamal)

DISC FIVE
01. Comme Ci, Comme Ca (E) 2:09
(Coquatrix-Dudan-Whitney-Kramer)
02. Ivy (E) 3:56
(Hoagy Carmichael)
03. Never Never Land (E) 3:06
(Styne-Comden-Green)
04. Tangerine (E) 2:40
(V. Schertzinger-J. Mercer)
05. Ahmad’s Blues (E) 4:18
(Ahmad Jamal)
06. Seleritus (E) 2:59
(Ahmad Jamal)
07. I Like To Recognize The Tune (E) 1:40
(R. Rodgers-L. Hart)
08. I’m Alone With You (E) 3:08
(Lewis Estes)
09. Sophisticated Gentleman (E) 4:10
(J. Kennedy-T. Bennett)
10. Ahmad’s Waltz (G) 4:42
(Joe Kennedy)
11. Valentina (G) 2:19
(Christine Reynolds)
12. Yesterdays (G) 2:54
(J. Kern-O. Harbach)
13. Tempo For Two (G) 3:25
(Joe Kennedy)
14. Hallelujah (G) 2:05
(Youmans-Robin-Grey)
15. It’s A Wonderful World (G) 2:49
(Adamson-Savitt-Watson)
16. Baia (G) 3:58
(Ary Barroso)
17. You Came A Long Way From St. Louis (G) 3:36
(J. B. Brooks-S. Russell)
18. Lover Man (G) 4:04
(Davis-Ramirez-Sherman)
19. Who Cares (G) 3:10
(G. Gershwin-I. Gershwin)

DISC SIX
01. I’m Old Fashioned (H) 5:02
(J. Kern-J. Mercer)
02. We Kiss In A Shadow (H) 8:15
(R. Rodgers-O. Hammerstein)
03. Chi-town (aka Gem) (H) 2:14
(Bill Lee)
04. We Kiss In A Shadow (I) 5:00
(R. Rodgers-O. Hammerstein)
05. Sweet And Lovely (I) 4:00
(Arnheim-Daniels-Tobias)
06. The Party’s Over (I) 3:59
(Styne-Conden-Green)
07. Love For Sale (I) 4:02
(Cole Porter)
08. Snowfall (I) 2:30
(Claude Thornhill)
09. Broadway (I) 7:41
(Woode-McRae-Bird)
10. Willow Weep For Me (I) 3:59
(Ann Ronell)
11. Autumn Leaves (I) 3:52
(Prevert-Kosma-Mercer)
12. Isn’t It Romantic (I) 4:28
(R. Rodgers-L. Hart)
13. The Breeze And I (I) 2:19
(E. Lecuona-A. Stillman)

DISC SEVEN
01. Time On My Hands (I) 6:20
(Adamson-Youmans-Gordon)
02. Angel Eyes (I) 4:15
(M. Dennis-E. Brent)
03. You Go To My Head (I) 10:58
(J.F. Coots-H. Gillespie)
04. Star Eyes (I) 5:57
(D. Raye G. DePaul)
05. All Of You (I) 4:59
(Cole Porter)
06. You’re Blasé (I) 3:30
(B. Sivier-O. Hamilton)
07. What Is This Thing Called Love (I) 6:12
(Cole Porter)
08. Poinciana (I) 9:33
(B. Bernier-N. Simon)
09. We Kiss In The Shadow (alternate take) (I) 5:08
(R. Rodgers-O. Hammerstein)
10. Stella By Starlight (I) 5:33
(V. Young-N. Washington)
11. The Lady Is A Tramp (I) 3:09
(R. Rodgers-L. Hart)

DISC EIGHT
01. Medley: (J) 6:13
a. I’ll Take Romance
(B. Oakland-O. Hammerstein)
b. My Funny Valentine
(R. Rodgers-L. Hart)
02. Like Someone In Love (J) 5:14
(J. Burke-J. Van Heusen)
03. Falling In Love With Love (J) 4:20
(R. Rodgers-L. Hart)
04. The Best Thing For You (J) 4:36
(Irving Berlin)
05. April In Paris (J) 6:14
(E. Y . Harburg-V. Duke)
06. The Second Time Around (J) 4:13
(J. Van Heusen-G. Kahn)
07. We Live In Two Different Worlds (J) 5:08
(Fred Rose)
08. Night Mist Blues (J) 6:59
(Ahmad Jamal)
09. Darn That Dream (J) 4:32
(E. DeLange-J. Van Heusen)
10. On Green Dolphin Street (J) 4:02
(B. Kaper-N. Washington)

DISC NINE
01. Like Someone In Love (first alternate take) (J) 6:53
(J. Burke-J. Van Heusen)
02. The Second Time Around (first alternate take) (J) 5:31
(J. Van Heusen-G. Kahn)
03. Angel Eyes (J) 6:51
(M. Dennis-E. Brent)
04. Medley: (J) 6:42
a. Alone Together
(H. Deitz-A. Schwartz)
b. Love Walked In
(G. Gershwin-I. Gershwin)
05. Smoke Gets In Your Eyes (J) 3:36
(O. Harbach-J. Kern)
06. I’m Old Fashioned (J) 3:49
(J. Kern-J. Mercer)
07. We Kiss In The Shadows (J) 10:32
(R. Rodgers-O. Hammerstein)
08. The Second Time Around (second alternate take) (J) 4:51
(J. Van Heusen-G. Kahn)
09. Like Someone In Love (second alternate take) (J) 7:26
(J. Burke-J. Van Heusen)

Personnel & Recording Dates


Ahmad Jamal - The Complete Ahmad Jamal Trio Argo Sessions 1956-62 (2010) {9CD BoxSet Mosaic MD9 246}

Ahmad Jamal - The Complete Ahmad Jamal Trio Argo Sessions 1956-62 (2010) {9CD BoxSet Mosaic MD9 246}

Ahmad Jamal - The Complete Ahmad Jamal Trio Argo Sessions 1956-62 (2010) {9CD BoxSet Mosaic MD9 246}

Exact Audio Copy V1.0 beta 1 from 15. November 2010

EAC extraction logfile from 15. April 2011, 22:45

Ahmad Jamal / The Complete Ahmad Jamal Trio Argo Sessions 1956-62 (CD1)

Used drive : TSSTcorpCD/DVDW TS-H552L Adapter: 3 ID: 0

Read mode : Secure
Utilize accurate stream : Yes
Defeat audio cache : Yes
Make use of C2 pointers : No

Read offset correction : 6
Overread into Lead-In and Lead-Out : No
Fill up missing offset samples with silence : Yes
Delete leading and trailing silent blocks : No
Null samples used in CRC calculations : Yes
Used interface : Native Win32 interface for Win NT & 2000
Gap handling : Appended to previous track

Used output format : User Defined Encoder
Selected bitrate : 1024 kBit/s
Quality : High
Add ID3 tag : No
Command line compressor : C:\Program Files\Exact Audio Copy\Flac\flac.exe
Additional command line options : -5 -V -T "ARTIST=%a" -T "TITLE=%t" -T "ALBUM=%g" -T "DATE=%y" -T "TRACKNUMBER=%n" -T "TOTALTRACKS=%x" -T "GENRE=%m" -T "ALBUMARTIST=%v" -T "ALBUM ARTIST=%v" -T "COMMENT=EAC Secure Mode, Test & Copy, AccurateRip, FLAC -5" %s


TOC of the extracted CD

Track | Start | Length | Start sector | End sector
––––––––––––––––––––––––––––-
1 | 0:00.00 | 3:49.52 | 0 | 17226
2 | 3:49.52 | 3:17.69 | 17227 | 32070
3 | 7:07.46 | 5:26.71 | 32071 | 56591
4 | 12:34.42 | 2:02.16 | 56592 | 65757
5 | 14:36.58 | 2:32.58 | 65758 | 77215
6 | 17:09.41 | 5:25.22 | 77216 | 101612
7 | 22:34.63 | 3:36.59 | 101613 | 117871
8 | 26:11.47 | 5:38.16 | 117872 | 143237
9 | 31:49.63 | 2:48.35 | 143238 | 155872
10 | 34:38.23 | 2:40.22 | 155873 | 167894
11 | 37:18.45 | 1:46.62 | 167895 | 175906
12 | 39:05.32 | 5:14.13 | 175907 | 199469
13 | 44:19.45 | 2:11.65 | 199470 | 209359
14 | 46:31.35 | 3:18.07 | 209360 | 224216
15 | 49:49.42 | 3:04.23 | 224217 | 238039
16 | 52:53.65 | 3:14.37 | 238040 | 252626
17 | 56:08.27 | 3:59.03 | 252627 | 270554
18 | 60:07.30 | 1:46.63 | 270555 | 278567


Track 1

Filename I:\EAC\Ahmad Jamal - The Complete Ahmad Jamal Trio Argo Sessions 1956-62 (2010) [9CD BoxSet] {Mosaic, MD9 246}\CD1\01 - Volga Boatman.wav

Pre-gap length 0:00:02.00

Peak level 89.1 %
Extraction speed 1.9 X
Track quality 100.0 %
Test CRC F6E805DD
Copy CRC F6E805DD
Track not present in AccurateRip database
Copy OK

Track 2

Filename I:\EAC\Ahmad Jamal - The Complete Ahmad Jamal Trio Argo Sessions 1956-62 (2010) [9CD BoxSet] {Mosaic, MD9 246}\CD1\02 - On Green Dolphin Street.wav

Peak level 76.6 %
Extraction speed 1.8 X
Track quality 99.9 %
Test CRC 3239B66B
Copy CRC 3239B66B
Track not present in AccurateRip database
Copy OK

Track 3

Filename I:\EAC\Ahmad Jamal - The Complete Ahmad Jamal Trio Argo Sessions 1956-62 (2010) [9CD BoxSet] {Mosaic, MD9 246}\CD1\03 - How About You.wav

Peak level 90.6 %
Extraction speed 1.9 X
Track quality 100.0 %
Test CRC 3F6A90DE
Copy CRC 3F6A90DE
Track not present in AccurateRip database
Copy OK

Track 4

Filename I:\EAC\Ahmad Jamal - The Complete Ahmad Jamal Trio Argo Sessions 1956-62 (2010) [9CD BoxSet] {Mosaic, MD9 246}\CD1\04 - I Just Can't See For Lookin'.wav

Peak level 88.3 %
Extraction speed 1.6 X
Track quality 99.9 %
Test CRC AAEE02D4
Copy CRC AAEE02D4
Track not present in AccurateRip database
Copy OK

Track 5

Filename I:\EAC\Ahmad Jamal - The Complete Ahmad Jamal Trio Argo Sessions 1956-62 (2010) [9CD BoxSet] {Mosaic, MD9 246}\CD1\05 - Spring Will Be A Little Late This Year.wav

Peak level 85.2 %
Extraction speed 1.8 X
Track quality 99.9 %
Test CRC EA661C4A
Copy CRC EA661C4A
Track not present in AccurateRip database
Copy OK

Track 6

Filename I:\EAC\Ahmad Jamal - The Complete Ahmad Jamal Trio Argo Sessions 1956-62 (2010) [9CD BoxSet] {Mosaic, MD9 246}\CD1\06 - Beat Out One.wav

Peak level 93.5 %
Extraction speed 2.1 X
Track quality 100.0 %
Test CRC D6828604
Copy CRC D6828604
Track not present in AccurateRip database
Copy OK

Track 7

Filename I:\EAC\Ahmad Jamal - The Complete Ahmad Jamal Trio Argo Sessions 1956-62 (2010) [9CD BoxSet] {Mosaic, MD9 246}\CD1\07 - Maryam.wav

Peak level 74.1 %
Extraction speed 2.8 X
Track quality 100.0 %
Test CRC E66ADFF9
Copy CRC E66ADFF9
Track not present in AccurateRip database
Copy OK

Track 8

Filename I:\EAC\Ahmad Jamal - The Complete Ahmad Jamal Trio Argo Sessions 1956-62 (2010) [9CD BoxSet] {Mosaic, MD9 246}\CD1\08 - Easy To Remember.wav

Peak level 95.7 %
Extraction speed 2.7 X
Track quality 100.0 %
Test CRC 013BB790
Copy CRC 013BB790
Track not present in AccurateRip database
Copy OK

Track 9

Filename I:\EAC\Ahmad Jamal - The Complete Ahmad Jamal Trio Argo Sessions 1956-62 (2010) [9CD BoxSet] {Mosaic, MD9 246}\CD1\09 - Jim Loves Sue.wav

Peak level 93.0 %
Extraction speed 2.2 X
Track quality 100.0 %
Test CRC 2F2E6EF5
Copy CRC 2F2E6EF5
Track not present in AccurateRip database
Copy OK

Track 10

Filename I:\EAC\Ahmad Jamal - The Complete Ahmad Jamal Trio Argo Sessions 1956-62 (2010) [9CD BoxSet] {Mosaic, MD9 246}\CD1\10 - Secret Love.wav

Peak level 100.0 %
Extraction speed 2.6 X
Track quality 100.0 %
Test CRC 8610370C
Copy CRC 8610370C
Track not present in AccurateRip database
Copy OK

Track 11

Filename I:\EAC\Ahmad Jamal - The Complete Ahmad Jamal Trio Argo Sessions 1956-62 (2010) [9CD BoxSet] {Mosaic, MD9 246}\CD1\11 - Taking A Chance On Love.wav

Peak level 100.0 %
Extraction speed 2.4 X
Track quality 100.0 %
Test CRC 58ED39AC
Copy CRC 58ED39AC
Track not present in AccurateRip database
Copy OK

Track 12

Filename I:\EAC\Ahmad Jamal - The Complete Ahmad Jamal Trio Argo Sessions 1956-62 (2010) [9CD BoxSet] {Mosaic, MD9 246}\CD1\12 - Cheek To Cheek.wav

Peak level 100.0 %
Extraction speed 2.8 X
Track quality 100.0 %
Test CRC 3409A7BB
Copy CRC 3409A7BB
Track not present in AccurateRip database
Copy OK

Track 13

Filename I:\EAC\Ahmad Jamal - The Complete Ahmad Jamal Trio Argo Sessions 1956-62 (2010) [9CD BoxSet] {Mosaic, MD9 246}\CD1\13 - It's You Or No One.wav

Peak level 100.0 %
Extraction speed 2.7 X
Track quality 100.0 %
Test CRC 0B7F045D
Copy CRC 0B7F045D
Track not present in AccurateRip database
Copy OK

Track 14

Filename I:\EAC\Ahmad Jamal - The Complete Ahmad Jamal Trio Argo Sessions 1956-62 (2010) [9CD BoxSet] {Mosaic, MD9 246}\CD1\14 - Soft Wind.wav

Peak level 100.0 %
Extraction speed 2.6 X
Track quality 100.0 %
Test CRC F0DBDA3E
Copy CRC F0DBDA3E
Track not present in AccurateRip database
Copy OK

Track 15

Filename I:\EAC\Ahmad Jamal - The Complete Ahmad Jamal Trio Argo Sessions 1956-62 (2010) [9CD BoxSet] {Mosaic, MD9 246}\CD1\15 - Love.wav

Peak level 100.0 %
Extraction speed 2.2 X
Track quality 99.9 %
Test CRC 55ECEB7F
Copy CRC 55ECEB7F
Track not present in AccurateRip database
Copy OK

Track 16

Filename I:\EAC\Ahmad Jamal - The Complete Ahmad Jamal Trio Argo Sessions 1956-62 (2010) [9CD BoxSet] {Mosaic, MD9 246}\CD1\16 - Aki And Ukthay.wav

Peak level 100.0 %
Extraction speed 3.0 X
Track quality 100.0 %
Test CRC 83047629
Copy CRC 83047629
Track not present in AccurateRip database
Copy OK

Track 17

Filename I:\EAC\Ahmad Jamal - The Complete Ahmad Jamal Trio Argo Sessions 1956-62 (2010) [9CD BoxSet] {Mosaic, MD9 246}\CD1\17 - Love For Sale.wav

Peak level 100.0 %
Extraction speed 2.4 X
Track quality 100.0 %
Test CRC F780967E
Copy CRC F780967E
Track not present in AccurateRip database
Copy OK

Track 18

Filename I:\EAC\Ahmad Jamal - The Complete Ahmad Jamal Trio Argo Sessions 1956-62 (2010) [9CD BoxSet] {Mosaic, MD9 246}\CD1\18 - That's All.wav

Peak level 60.1 %
Extraction speed 2.1 X
Track quality 100.0 %
Test CRC 8BED4CE4
Copy CRC 8BED4CE4
Track not present in AccurateRip database
Copy OK


None of the tracks are present in the AccurateRip database

No errors occurred

End of status report

==== Log checksum CEDF16DC3CE9C13CDA0EB01A1AF20E705A73C056AA9C67AB5C0FF99B4149F152 ====

Exact Audio Copy V1.0 beta 1 from 15. November 2010

EAC extraction logfile from 16. April 2011, 0:03

Ahmad Jamal / The Complete Ahmad Jamal Trio Argo Sessions 1956-62 (CD2)

Used drive : TSSTcorpCD/DVDW TS-H552L Adapter: 3 ID: 0

Read mode : Secure
Utilize accurate stream : Yes
Defeat audio cache : Yes
Make use of C2 pointers : No

Read offset correction : 6
Overread into Lead-In and Lead-Out : No
Fill up missing offset samples with silence : Yes
Delete leading and trailing silent blocks : No
Null samples used in CRC calculations : Yes
Used interface : Native Win32 interface for Win NT & 2000
Gap handling : Appended to previous track

Used output format : User Defined Encoder
Selected bitrate : 1024 kBit/s
Quality : High
Add ID3 tag : No
Command line compressor : C:\Program Files\Exact Audio Copy\Flac\flac.exe
Additional command line options : -5 -V -T "ARTIST=%a" -T "TITLE=%t" -T "ALBUM=%g" -T "DATE=%y" -T "TRACKNUMBER=%n" -T "TOTALTRACKS=%x" -T "GENRE=%m" -T "ALBUMARTIST=%v" -T "ALBUM ARTIST=%v" -T "COMMENT=EAC Secure Mode, Test & Copy, AccurateRip, FLAC -5" %s


TOC of the extracted CD

Track | Start | Length | Start sector | End sector
––––––––––––––––––––––––––––-
1 | 0:00.00 | 3:32.16 | 0 | 15915
2 | 3:32.16 | 2:35.53 | 15916 | 27593
3 | 6:07.69 | 3:10.13 | 27594 | 41856
4 | 9:18.07 | 2:57.17 | 41857 | 55148
5 | 12:15.24 | 3:23.37 | 55149 | 70410
6 | 15:38.61 | 8:08.40 | 70411 | 107050
7 | 23:47.26 | 3:40.67 | 107051 | 123617
8 | 27:28.18 | 4:08.51 | 123618 | 142268
9 | 31:36.69 | 2:31.16 | 142269 | 153609
10 | 34:08.10 | 3:12.64 | 153610 | 168073
11 | 37:20.74 | 3:42.61 | 168074 | 184784
12 | 41:03.60 | 3:27.05 | 184785 | 200314
13 | 44:30.65 | 2:41.34 | 200315 | 212423
14 | 47:12.24 | 3:27.47 | 212424 | 227995
15 | 50:39.71 | 3:24.47 | 227996 | 243342
16 | 54:04.43 | 3:00.52 | 243343 | 256894
17 | 57:05.20 | 3:34.14 | 256895 | 272958
18 | 60:39.34 | 4:45.14 | 272959 | 294347
19 | 65:24.48 | 3:40.26 | 294348 | 310873


Track 1

Filename I:\EAC\Ahmad Jamal - The Complete Ahmad Jamal Trio Argo Sessions 1956-62 (2010) [9CD BoxSet] {Mosaic, MD9 246}\CD2\01 - But Not For Me.wav

Pre-gap length 0:00:02.00

Peak level 96.4 %
Extraction speed 1.8 X
Track quality 100.0 %
Test CRC C5D00B89
Copy CRC C5D00B89
Track not present in AccurateRip database
Copy OK

Track 2

Filename I:\EAC\Ahmad Jamal - The Complete Ahmad Jamal Trio Argo Sessions 1956-62 (2010) [9CD BoxSet] {Mosaic, MD9 246}\CD2\02 - Surrey With The Fringe On Top.wav

Peak level 100.0 %
Extraction speed 1.7 X
Track quality 99.9 %
Test CRC 194F3D2F
Copy CRC 194F3D2F
Track not present in AccurateRip database
Copy OK

Track 3

Filename I:\EAC\Ahmad Jamal - The Complete Ahmad Jamal Trio Argo Sessions 1956-62 (2010) [9CD BoxSet] {Mosaic, MD9 246}\CD2\03 - Moonlight In Vermont.wav

Peak level 93.6 %
Extraction speed 1.9 X
Track quality 100.0 %
Test CRC 12E0C0D2
Copy CRC 12E0C0D2
Track not present in AccurateRip database
Copy OK

Track 4

Filename I:\EAC\Ahmad Jamal - The Complete Ahmad Jamal Trio Argo Sessions 1956-62 (2010) [9CD BoxSet] {Mosaic, MD9 246}\CD2\04 - (Put Another Nickel In) Music! Music! Music!.wav

Peak level 100.0 %
Extraction speed 1.8 X
Track quality 100.0 %
Test CRC 672A772E
Copy CRC 672A772E
Track not present in AccurateRip database
Copy OK

Track 5

Filename I:\EAC\Ahmad Jamal - The Complete Ahmad Jamal Trio Argo Sessions 1956-62 (2010) [9CD BoxSet] {Mosaic, MD9 246}\CD2\05 - There Is No Greater Love.wav

Peak level 100.0 %
Extraction speed 1.8 X
Track quality 100.0 %
Test CRC 8A2F64C3
Copy CRC 8A2F64C3
Track not present in AccurateRip database
Copy OK

Track 6

Filename I:\EAC\Ahmad Jamal - The Complete Ahmad Jamal Trio Argo Sessions 1956-62 (2010) [9CD BoxSet] {Mosaic, MD9 246}\CD2\06 - Poinciana.wav

Peak level 100.0 %
Extraction speed 1.9 X
Track quality 100.0 %
Test CRC 570D9189
Copy CRC 570D9189
Track not present in AccurateRip database
Copy OK

Track 7

Filename I:\EAC\Ahmad Jamal - The Complete Ahmad Jamal Trio Argo Sessions 1956-62 (2010) [9CD BoxSet] {Mosaic, MD9 246}\CD2\07 - Woody 'N' You.wav

Peak level 100.0 %
Extraction speed 2.0 X
Track quality 100.0 %
Test CRC 40CF2140
Copy CRC 40CF2140
Track not present in AccurateRip database
Copy OK

Track 8

Filename I:\EAC\Ahmad Jamal - The Complete Ahmad Jamal Trio Argo Sessions 1956-62 (2010) [9CD BoxSet] {Mosaic, MD9 246}\CD2\08 - What's New.wav

Peak level 96.5 %
Extraction speed 2.5 X
Track quality 100.0 %
Test CRC D8A559BE
Copy CRC D8A559BE
Track not present in AccurateRip database
Copy OK

Track 9

Filename I:\EAC\Ahmad Jamal - The Complete Ahmad Jamal Trio Argo Sessions 1956-62 (2010) [9CD BoxSet] {Mosaic, MD9 246}\CD2\09 - Too Late Now.wav

Peak level 100.0 %
Extraction speed 2.9 X
Track quality 100.0 %
Test CRC AB75DEE0
Copy CRC AB75DEE0
Track not present in AccurateRip database
Copy OK

Track 10

Filename I:\EAC\Ahmad Jamal - The Complete Ahmad Jamal Trio Argo Sessions 1956-62 (2010) [9CD BoxSet] {Mosaic, MD9 246}\CD2\10 - All The Things You Are.wav

Peak level 100.0 %
Extraction speed 2.2 X
Track quality 100.0 %
Test CRC 1BC47C14
Copy CRC 1BC47C14
Track not present in AccurateRip database
Copy OK

Track 11

Filename I:\EAC\Ahmad Jamal - The Complete Ahmad Jamal Trio Argo Sessions 1956-62 (2010) [9CD BoxSet] {Mosaic, MD9 246}\CD2\11 - Cherokee.wav

Peak level 100.0 %
Extraction speed 2.3 X
Track quality 99.9 %
Test CRC 38805810
Copy CRC 38805810
Track not present in AccurateRip database
Copy OK

Track 12

Filename I:\EAC\Ahmad Jamal - The Complete Ahmad Jamal Trio Argo Sessions 1956-62 (2010) [9CD BoxSet] {Mosaic, MD9 246}\CD2\12 - It Might As Well Be Spring.wav

Peak level 79.1 %
Extraction speed 2.3 X
Track quality 100.0 %
Test CRC 7376731D
Copy CRC 7376731D
Track not present in AccurateRip database
Copy OK

Track 13

Filename I:\EAC\Ahmad Jamal - The Complete Ahmad Jamal Trio Argo Sessions 1956-62 (2010) [9CD BoxSet] {Mosaic, MD9 246}\CD2\13 - I'll Remember April.wav

Peak level 100.0 %
Extraction speed 2.2 X
Track quality 100.0 %
Test CRC C55A2B89
Copy CRC C55A2B89
Track not present in AccurateRip database
Copy OK

Track 14

Filename I:\EAC\Ahmad Jamal - The Complete Ahmad Jamal Trio Argo Sessions 1956-62 (2010) [9CD BoxSet] {Mosaic, MD9 246}\CD2\14 - My Funny Valentine.wav

Peak level 100.0 %
Extraction speed 2.4 X
Track quality 100.0 %
Test CRC 50E495DA
Copy CRC 50E495DA
Track not present in AccurateRip database
Copy OK

Track 15

Filename I:\EAC\Ahmad Jamal - The Complete Ahmad Jamal Trio Argo Sessions 1956-62 (2010) [9CD BoxSet] {Mosaic, MD9 246}\CD2\15 - Gone With The Wind.wav

Peak level 81.2 %
Extraction speed 2.4 X
Track quality 100.0 %
Test CRC 933B281D
Copy CRC 933B281D
Track not present in AccurateRip database
Copy OK

Track 16

Filename I:\EAC\Ahmad Jamal - The Complete Ahmad Jamal Trio Argo Sessions 1956-62 (2010) [9CD BoxSet] {Mosaic, MD9 246}\CD2\16 - Billy Boy.wav

Peak level 100.0 %
Extraction speed 2.4 X
Track quality 100.0 %
Test CRC B6164337
Copy CRC B6164337
Track not present in AccurateRip database
Copy OK

Track 17

Filename I:\EAC\Ahmad Jamal - The Complete Ahmad Jamal Trio Argo Sessions 1956-62 (2010) [9CD BoxSet] {Mosaic, MD9 246}\CD2\17 - It's You Or No One.wav

Peak level 85.5 %
Extraction speed 2.5 X
Track quality 99.9 %
Test CRC 2CCBFDB9
Copy CRC 2CCBFDB9
Track not present in AccurateRip database
Copy OK

Track 18

Filename I:\EAC\Ahmad Jamal - The Complete Ahmad Jamal Trio Argo Sessions 1956-62 (2010) [9CD BoxSet] {Mosaic, MD9 246}\CD2\18 - They Can't Take That Away From Me.wav

Peak level 75.3 %
Extraction speed 2.9 X
Track quality 100.0 %
Test CRC A6463E52
Copy CRC A6463E52
Track not present in AccurateRip database
Copy OK

Track 19

Filename I:\EAC\Ahmad Jamal - The Complete Ahmad Jamal Trio Argo Sessions 1956-62 (2010) [9CD BoxSet] {Mosaic, MD9 246}\CD2\19 - Poor Butterfly.wav

Peak level 69.1 %
Extraction speed 2.6 X
Track quality 100.0 %
Test CRC B492F075
Copy CRC B492F075
Track not present in AccurateRip database
Copy OK


None of the tracks are present in the AccurateRip database

No errors occurred

End of status report

==== Log checksum C0C83492E4CB29DDC9D8D3475A4FA99CD15826C60FEAC2F86D1B2E0768F8429E ====

Exact Audio Copy V1.0 beta 1 from 15. November 2010

EAC extraction logfile from 10. May 2011, 11:18

Ahmad Jamal / The Complete Ahmad Jamal Trio Argo Sessions 1956-62 (CD3)

Used drive : TSSTcorpCD/DVDW TS-H552L Adapter: 3 ID: 0

Read mode : Secure
Utilize accurate stream : Yes
Defeat audio cache : Yes
Make use of C2 pointers : No

Read offset correction : 6
Overread into Lead-In and Lead-Out : No
Fill up missing offset samples with silence : Yes
Delete leading and trailing silent blocks : No
Null samples used in CRC calculations : Yes
Used interface : Native Win32 interface for Win NT & 2000
Gap handling : Appended to previous track

Used output format : User Defined Encoder
Selected bitrate : 1024 kBit/s
Quality : High
Add ID3 tag : No
Command line compressor : C:\Program Files\Exact Audio Copy\Flac\flac.exe
Additional command line options : -5 -V -T "ARTIST=%a" -T "TITLE=%t" -T "ALBUM=%g" -T "DATE=%y" -T "TRACKNUMBER=%n" -T "TOTALTRACKS=%x" -T "GENRE=%m" -T "ALBUMARTIST=%v" -T "ALBUM ARTIST=%v" -T "COMMENT=EAC Secure Mode, Test & Copy, AccurateRip, FLAC -5" %s


TOC of the extracted CD

Track | Start | Length | Start sector | End sector
––––––––––––––––––––––––––––-
1 | 0:00.00 | 4:05.52 | 0 | 18426
2 | 4:05.52 | 3:42.52 | 18427 | 35128
3 | 7:48.29 | 4:14.31 | 35129 | 54209
4 | 12:02.60 | 3:28.68 | 54210 | 69877
5 | 15:31.53 | 3:43.14 | 69878 | 86616
6 | 19:14.67 | 4:51.15 | 86617 | 108456
7 | 24:06.07 | 3:21.68 | 108457 | 123599
8 | 27:28.00 | 3:53.13 | 123600 | 141087
9 | 31:21.13 | 2:19.06 | 141088 | 151518
10 | 33:40.19 | 2:38.16 | 151519 | 163384
11 | 36:18.35 | 5:02.27 | 163385 | 186061
12 | 41:20.62 | 7:45.32 | 186062 | 220968
13 | 49:06.19 | 3:54.55 | 220969 | 238573
14 | 53:00.74 | 3:56.50 | 238574 | 256323
15 | 56:57.49 | 3:08.21 | 256324 | 270444
16 | 60:05.70 | 4:14.45 | 270445 | 289539
17 | 64:20.40 | 2:56.23 | 289540 | 302762
18 | 67:16.63 | 3:06.62 | 302763 | 316774


Track 1

Filename I:\EAC\Ahmad Jamal - The Complete Ahmad Jamal Trio Argo Sessions 1956-62 (2010) [9CD BoxSet] {Mosaic, MD9 246}\CD3\01 - Taboo.wav

Pre-gap length 0:00:02.00

Peak level 100.0 %
Extraction speed 1.8 X
Track quality 99.9 %
Test CRC 45DFD4BD
Copy CRC 45DFD4BD
Track not present in AccurateRip database
Copy OK

Track 2

Filename I:\EAC\Ahmad Jamal - The Complete Ahmad Jamal Trio Argo Sessions 1956-62 (2010) [9CD BoxSet] {Mosaic, MD9 246}\CD3\02 - Should I.wav

Peak level 100.0 %
Extraction speed 1.9 X
Track quality 100.0 %
Test CRC 7D4A1F10
Copy CRC 7D4A1F10
Track not present in AccurateRip database
Copy OK

Track 3

Filename I:\EAC\Ahmad Jamal - The Complete Ahmad Jamal Trio Argo Sessions 1956-62 (2010) [9CD BoxSet] {Mosaic, MD9 246}\CD3\03 - Stompin' At The Savoy.wav

Peak level 100.0 %
Extraction speed 1.8 X
Track quality 100.0 %
Test CRC 649843BB
Copy CRC 649843BB
Track not present in AccurateRip database
Copy OK

Track 4

Filename I:\EAC\Ahmad Jamal - The Complete Ahmad Jamal Trio Argo Sessions 1956-62 (2010) [9CD BoxSet] {Mosaic, MD9 246}\CD3\04 - The Girl Next Door.wav

Peak level 100.0 %
Extraction speed 2.7 X
Track quality 100.0 %
Test CRC 6364E4F4
Copy CRC 6364E4F4
Track not present in AccurateRip database
Copy OK

Track 5

Filename I:\EAC\Ahmad Jamal - The Complete Ahmad Jamal Trio Argo Sessions 1956-62 (2010) [9CD BoxSet] {Mosaic, MD9 246}\CD3\05 - I Wish I Knew.wav

Peak level 100.0 %
Extraction speed 2.6 X
Track quality 100.0 %
Test CRC BB4359CD
Copy CRC BB4359CD
Track not present in AccurateRip database
Copy OK

Track 6

Filename I:\EAC\Ahmad Jamal - The Complete Ahmad Jamal Trio Argo Sessions 1956-62 (2010) [9CD BoxSet] {Mosaic, MD9 246}\CD3\06 - Cheek To Cheek.wav

Peak level 98.7 %
Extraction speed 2.7 X
Track quality 99.9 %
Test CRC AFD751A0
Copy CRC AFD751A0
Track not present in AccurateRip database
Copy OK

Track 7

Filename I:\EAC\Ahmad Jamal - The Complete Ahmad Jamal Trio Argo Sessions 1956-62 (2010) [9CD BoxSet] {Mosaic, MD9 246}\CD3\07 - Autumn In New York.wav

Peak level 98.4 %
Extraction speed 2.4 X
Track quality 99.9 %
Test CRC 5A82DB70
Copy CRC 5A82DB70
Track not present in AccurateRip database
Copy OK

Track 8

Filename I:\EAC\Ahmad Jamal - The Complete Ahmad Jamal Trio Argo Sessions 1956-62 (2010) [9CD BoxSet] {Mosaic, MD9 246}\CD3\08 - Secret Love.wav

Peak level 96.5 %
Extraction speed 2.5 X
Track quality 100.0 %
Test CRC B6718F3D
Copy CRC B6718F3D
Track not present in AccurateRip database
Copy OK

Track 9

Filename I:\EAC\Ahmad Jamal - The Complete Ahmad Jamal Trio Argo Sessions 1956-62 (2010) [9CD BoxSet] {Mosaic, MD9 246}\CD3\09 - Squatty Roo.wav

Peak level 100.0 %
Extraction speed 2.7 X
Track quality 100.0 %
Test CRC D1C96784
Copy CRC D1C96784
Track not present in AccurateRip database
Copy OK

Track 10

Filename I:\EAC\Ahmad Jamal - The Complete Ahmad Jamal Trio Argo Sessions 1956-62 (2010) [9CD BoxSet] {Mosaic, MD9 246}\CD3\10 - That's All.wav

Peak level 36.2 %
Extraction speed 2.6 X
Track quality 100.0 %
Test CRC C8350D60
Copy CRC C8350D60
Track not present in AccurateRip database
Copy OK

Track 11

Filename I:\EAC\Ahmad Jamal - The Complete Ahmad Jamal Trio Argo Sessions 1956-62 (2010) [9CD BoxSet] {Mosaic, MD9 246}\CD3\11 - This Can't Be Love.wav

Peak level 100.0 %
Extraction speed 2.7 X
Track quality 100.0 %
Test CRC E6E6C703
Copy CRC E6E6C703
Track not present in AccurateRip database
Copy OK

Track 12

Filename I:\EAC\Ahmad Jamal - The Complete Ahmad Jamal Trio Argo Sessions 1956-62 (2010) [9CD BoxSet] {Mosaic, MD9 246}\CD3\12 - Autumn Leaves.wav

Peak level 94.4 %
Extraction speed 2.9 X
Track quality 100.0 %
Test CRC DA6C9455
Copy CRC DA6C9455
Track not present in AccurateRip database
Copy OK

Track 13

Filename I:\EAC\Ahmad Jamal - The Complete Ahmad Jamal Trio Argo Sessions 1956-62 (2010) [9CD BoxSet] {Mosaic, MD9 246}\CD3\13 - Ahmad's Blues.wav

Peak level 100.0 %
Extraction speed 2.6 X
Track quality 100.0 %
Test CRC 8D2C1244
Copy CRC 8D2C1244
Track not present in AccurateRip database
Copy OK

Track 14

Filename I:\EAC\Ahmad Jamal - The Complete Ahmad Jamal Trio Argo Sessions 1956-62 (2010) [9CD BoxSet] {Mosaic, MD9 246}\CD3\14 - Old Devil Moon.wav

Peak level 100.0 %
Extraction speed 3.0 X
Track quality 100.0 %
Test CRC 6F0C72DA
Copy CRC 6F0C72DA
Track not present in AccurateRip database
Copy OK

Track 15

Filename I:\EAC\Ahmad Jamal - The Complete Ahmad Jamal Trio Argo Sessions 1956-62 (2010) [9CD BoxSet] {Mosaic, MD9 246}\CD3\15 - Seleritus.wav

Peak level 100.0 %
Extraction speed 2.6 X
Track quality 99.9 %
Test CRC 1D3D1964
Copy CRC 1D3D1964
Track not present in AccurateRip database
Copy OK

Track 16

Filename I:\EAC\Ahmad Jamal - The Complete Ahmad Jamal Trio Argo Sessions 1956-62 (2010) [9CD BoxSet] {Mosaic, MD9 246}\CD3\16 - It Could Happen To You.wav

Peak level 100.0 %
Extraction speed 2.6 X
Track quality 100.0 %
Test CRC A2E18F67
Copy CRC A2E18F67
Track not present in AccurateRip database
Copy OK

Track 17

Filename I:\EAC\Ahmad Jamal - The Complete Ahmad Jamal Trio Argo Sessions 1956-62 (2010) [9CD BoxSet] {Mosaic, MD9 246}\CD3\17 - Ivy.wav

Peak level 85.8 %
Extraction speed 2.1 X
Track quality 99.9 %
Test CRC F0963B6B
Copy CRC F0963B6B
Track not present in AccurateRip database
Copy OK

Track 18

Filename I:\EAC\Ahmad Jamal - The Complete Ahmad Jamal Trio Argo Sessions 1956-62 (2010) [9CD BoxSet] {Mosaic, MD9 246}\CD3\18 - Tater Pie.wav

Peak level 100.0 %
Extraction speed 2.4 X
Track quality 100.0 %
Test CRC EF6B9191
Copy CRC EF6B9191
Track not present in AccurateRip database
Copy OK


None of the tracks are present in the AccurateRip database

No errors occurred

End of status report

==== Log checksum FC45A961DB06E82F2880BAD9E66791AB642E50F33FBEAF1C6983BDBCA2476780 ====

Exact Audio Copy V1.0 beta 1 from 15. November 2010

EAC extraction logfile from 10. May 2011, 14:50

Ahmad Jamal / The Complete Ahmad Jamal Trio Argo Sessions 1956-62 (CD4)

Used drive : TSSTcorpCD/DVDW TS-H552L Adapter: 2 ID: 0

Read mode : Secure
Utilize accurate stream : Yes
Defeat audio cache : Yes
Make use of C2 pointers : No

Read offset correction : 6
Overread into Lead-In and Lead-Out : No
Fill up missing offset samples with silence : Yes
Delete leading and trailing silent blocks : No
Null samples used in CRC calculations : Yes
Used interface : Native Win32 interface for Win NT & 2000
Gap handling : Appended to previous track

Used output format : User Defined Encoder
Selected bitrate : 1024 kBit/s
Quality : High
Add ID3 tag : No
Command line compressor : C:\Program Files\Exact Audio Copy\Flac\flac.exe
Additional command line options : -5 -V -T "ARTIST=%a" -T "TITLE=%t" -T "ALBUM=%g" -T "DATE=%y" -T "TRACKNUMBER=%n" -T "TOTALTRACKS=%x" -T "GENRE=%m" -T "ALBUMARTIST=%v" -T "ALBUM ARTIST=%v" -T "COMMENT=EAC Secure Mode, Test & Copy, AccurateRip, FLAC -5" %s


TOC of the extracted CD

Track | Start | Length | Start sector | End sector
––––––––––––––––––––––––––––-
1 | 0:00.00 | 5:03.51 | 0 | 22775
2 | 5:03.51 | 3:16.44 | 22776 | 37519
3 | 8:20.20 | 3:30.43 | 37520 | 53312
4 | 11:50.63 | 4:35.60 | 53313 | 73997
5 | 16:26.48 | 3:39.66 | 73998 | 90488
6 | 20:06.39 | 4:46.13 | 90489 | 111951
7 | 24:52.52 | 2:58.00 | 111952 | 125301
8 | 27:50.52 | 4:15.02 | 125302 | 144428
9 | 32:05.54 | 3:31.42 | 144429 | 160295
10 | 35:37.21 | 5:14.00 | 160296 | 183845
11 | 40:51.21 | 2:44.54 | 183846 | 196199
12 | 43:36.00 | 5:45.01 | 196200 | 222075
13 | 49:21.01 | 3:01.56 | 222076 | 235706
14 | 52:22.57 | 3:18.08 | 235707 | 250564
15 | 55:40.65 | 1:34.07 | 250565 | 257621
16 | 57:14.72 | 4:41.52 | 257622 | 278748
17 | 61:56.49 | 3:00.42 | 278749 | 292290
18 | 64:57.16 | 4:53.40 | 292291 | 314305
19 | 69:50.56 | 2:40.39 | 314306 | 326344


Track 1

Filename I:\EAC\Ahmad Jamal - The Complete Ahmad Jamal Trio Argo Sessions 1956-62 (2010) [9CD BoxSet] {Mosaic, MD9 246}\CD4\01 - Let's Fall In Love.wav

Pre-gap length 0:00:02.00

Peak level 100.0 %
Extraction speed 1.9 X
Track quality 100.0 %
Test CRC 233B9E66
Copy CRC 233B9E66
Track not present in AccurateRip database
Copy OK

Track 2

Filename I:\EAC\Ahmad Jamal - The Complete Ahmad Jamal Trio Argo Sessions 1956-62 (2010) [9CD BoxSet] {Mosaic, MD9 246}\CD4\02 - Aki And Urkthay (Brother And Sister).wav

Peak level 100.0 %
Extraction speed 1.8 X
Track quality 99.9 %
Test CRC D105032B
Copy CRC D105032B
Track not present in AccurateRip database
Copy OK

Track 3

Filename I:\EAC\Ahmad Jamal - The Complete Ahmad Jamal Trio Argo Sessions 1956-62 (2010) [9CD BoxSet] {Mosaic, MD9 246}\CD4\03 - You Don't Know What Love Is.wav

Peak level 100.0 %
Extraction speed 1.8 X
Track quality 100.0 %
Test CRC A43294E3
Copy CRC A43294E3
Track not present in AccurateRip database
Copy OK

Track 4

Filename I:\EAC\Ahmad Jamal - The Complete Ahmad Jamal Trio Argo Sessions 1956-62 (2010) [9CD BoxSet] {Mosaic, MD9 246}\CD4\04 - I Didn't Know What Time It Was.wav

Peak level 100.0 %
Extraction speed 1.9 X
Track quality 100.0 %
Test CRC CF42B46B
Copy CRC CF42B46B
Track not present in AccurateRip database
Copy OK

Track 5

Filename I:\EAC\Ahmad Jamal - The Complete Ahmad Jamal Trio Argo Sessions 1956-62 (2010) [9CD BoxSet] {Mosaic, MD9 246}\CD4\05 - So Beats My Heart For You.wav

Peak level 100.0 %
Extraction speed 1.9 X
Track quality 100.0 %
Test CRC C16C625A
Copy CRC C16C625A
Track not present in AccurateRip database
Copy OK

Track 6

Filename I:\EAC\Ahmad Jamal - The Complete Ahmad Jamal Trio Argo Sessions 1956-62 (2010) [9CD BoxSet] {Mosaic, MD9 246}\CD4\06 - Gal In Calico.wav

Peak level 100.0 %
Extraction speed 1.9 X
Track quality 100.0 %
Test CRC 65DC8849
Copy CRC 65DC8849
Track not present in AccurateRip database
Copy OK

Track 7

Filename I:\EAC\Ahmad Jamal - The Complete Ahmad Jamal Trio Argo Sessions 1956-62 (2010) [9CD BoxSet] {Mosaic, MD9 246}\CD4\07 - Our Delight.wav

Peak level 100.0 %
Extraction speed 1.8 X
Track quality 99.9 %
Test CRC DCFE9D58
Copy CRC DCFE9D58
Track not present in AccurateRip database
Copy OK

Track 8

Filename I:\EAC\Ahmad Jamal - The Complete Ahmad Jamal Trio Argo Sessions 1956-62 (2010) [9CD BoxSet] {Mosaic, MD9 246}\CD4\08 - Too Late Now.wav

Peak level 100.0 %
Extraction speed 2.2 X
Track quality 99.9 %
Test CRC 52F68070
Copy CRC 52F68070
Track not present in AccurateRip database
Copy OK

Track 9

Filename I:\EAC\Ahmad Jamal - The Complete Ahmad Jamal Trio Argo Sessions 1956-62 (2010) [9CD BoxSet] {Mosaic, MD9 246}\CD4\09 - The Night Has A Thousand Eyes.wav

Peak level 100.0 %
Extraction speed 2.4 X
Track quality 100.0 %
Test CRC 8E03E200
Copy CRC 8E03E200
Track not present in AccurateRip database
Copy OK

Track 10

Filename I:\EAC\Ahmad Jamal - The Complete Ahmad Jamal Trio Argo Sessions 1956-62 (2010) [9CD BoxSet] {Mosaic, MD9 246}\CD4\10 - Little Old Lady.wav

Peak level 100.0 %
Extraction speed 2.8 X
Track quality 100.0 %
Test CRC 184A84F8
Copy CRC 184A84F8
Track not present in AccurateRip database
Copy OK

Track 11

Filename I:\EAC\Ahmad Jamal - The Complete Ahmad Jamal Trio Argo Sessions 1956-62 (2010) [9CD BoxSet] {Mosaic, MD9 246}\CD4\11 - For All We Know.wav

Peak level 99.3 %
Extraction speed 2.3 X
Track quality 99.9 %
Test CRC 15F2DD0C
Copy CRC 15F2DD0C
Track not present in AccurateRip database
Copy OK

Track 12

Filename I:\EAC\Ahmad Jamal - The Complete Ahmad Jamal Trio Argo Sessions 1956-62 (2010) [9CD BoxSet] {Mosaic, MD9 246}\CD4\12 - Pavanne.wav

Peak level 100.0 %
Extraction speed 2.7 X
Track quality 99.9 %
Test CRC 70071DC8
Copy CRC 70071DC8
Track not present in AccurateRip database
Copy OK

Track 13

Filename I:\EAC\Ahmad Jamal - The Complete Ahmad Jamal Trio Argo Sessions 1956-62 (2010) [9CD BoxSet] {Mosaic, MD9 246}\CD4\13 - Excerpts From The Blues.wav

Peak level 100.0 %
Extraction speed 2.5 X
Track quality 100.0 %
Test CRC 37791542
Copy CRC 37791542
Track not present in AccurateRip database
Copy OK

Track 14

Filename I:\EAC\Ahmad Jamal - The Complete Ahmad Jamal Trio Argo Sessions 1956-62 (2010) [9CD BoxSet] {Mosaic, MD9 246}\CD4\14 - Easy To Love.wav

Peak level 100.0 %
Extraction speed 2.6 X
Track quality 100.0 %
Test CRC 51FE901F
Copy CRC 51FE901F
Track not present in AccurateRip database
Copy OK

Track 15

Filename I:\EAC\Ahmad Jamal - The Complete Ahmad Jamal Trio Argo Sessions 1956-62 (2010) [9CD BoxSet] {Mosaic, MD9 246}\CD4\15 - Time On My Hands.wav

Peak level 100.0 %
Extraction speed 2.2 X
Track quality 100.0 %
Test CRC DB9B9DBF
Copy CRC DB9B9DBF
Track not present in AccurateRip database
Copy OK

Track 16

Filename I:\EAC\Ahmad Jamal - The Complete Ahmad Jamal Trio Argo Sessions 1956-62 (2010) [9CD BoxSet] {Mosaic, MD9 246}\CD4\16 - Raincheck.wav

Peak level 100.0 %
Extraction speed 2.6 X
Track quality 100.0 %
Test CRC FA532E18
Copy CRC FA532E18
Track not present in AccurateRip database
Copy OK

Track 17

Filename I:\EAC\Ahmad Jamal - The Complete Ahmad Jamal Trio Argo Sessions 1956-62 (2010) [9CD BoxSet] {Mosaic, MD9 246}\CD4\17 - I'll Never Stop Loving You.wav

Peak level 100.0 %
Extraction speed 2.0 X
Track quality 100.0 %
Test CRC 2F601DA5
Copy CRC 2F601DA5
Track not present in AccurateRip database
Copy OK

Track 18

Filename I:\EAC\Ahmad Jamal - The Complete Ahmad Jamal Trio Argo Sessions 1956-62 (2010) [9CD BoxSet] {Mosaic, MD9 246}\CD4\18 - Speak Low.wav

Peak level 100.0 %
Extraction speed 2.1 X
Track quality 99.9 %
Test CRC F8763A06
Copy CRC F8763A06
Track not present in AccurateRip database
Copy OK

Track 19

Filename I:\EAC\Ahmad Jamal - The Complete Ahmad Jamal Trio Argo Sessions 1956-62 (2010) [9CD BoxSet] {Mosaic, MD9 246}\CD4\19 - Rhumba No. 2.wav

Peak level 100.0 %
Extraction speed 1.5 X
Track quality 100.0 %
Test CRC 00A7A7F9
Copy CRC 00A7A7F9
Track not present in AccurateRip database
Copy OK


None of the tracks are present in the AccurateRip database

No errors occurred

End of status report

==== Log checksum EAB9B99A7D2E020F084DA0FC4FCB03BD155EDDCC30FE0FE224E212F297A808D3 ====

Exact Audio Copy V1.0 beta 1 from 15. November 2010

EAC extraction logfile from 10. May 2011, 15:56

Ahmad Jamal / The Complete Ahmad Jamal Trio Argo Sessions 1956-62 (CD5)

Used drive : TSSTcorpCD/DVDW TS-H552L Adapter: 2 ID: 0

Read mode : Secure
Utilize accurate stream : Yes
Defeat audio cache : Yes
Make use of C2 pointers : No

Read offset correction : 6
Overread into Lead-In and Lead-Out : No
Fill up missing offset samples with silence : Yes
Delete leading and trailing silent blocks : No
Null samples used in CRC calculations : Yes
Used interface : Native Win32 interface for Win NT & 2000
Gap handling : Appended to previous track

Used output format : User Defined Encoder
Selected bitrate : 1024 kBit/s
Quality : High
Add ID3 tag : No
Command line compressor : C:\Program Files\Exact Audio Copy\Flac\flac.exe
Additional command line options : -5 -V -T "ARTIST=%a" -T "TITLE=%t" -T "ALBUM=%g" -T "DATE=%y" -T "TRACKNUMBER=%n" -T "TOTALTRACKS=%x" -T "GENRE=%m" -T "ALBUMARTIST=%v" -T "ALBUM ARTIST=%v" -T "COMMENT=EAC Secure Mode, Test & Copy, AccurateRip, FLAC -5" %s


TOC of the extracted CD

Track | Start | Length | Start sector | End sector
––––––––––––––––––––––––––––-
1 | 0:00.00 | 2:08.71 | 0 | 9670
2 | 2:08.71 | 3:56.35 | 9671 | 27405
3 | 6:05.31 | 3:06.60 | 27406 | 41415
4 | 9:12.16 | 2:41.10 | 41416 | 53500
5 | 11:53.26 | 4:18.57 | 53501 | 72907
6 | 16:12.08 | 2:59.45 | 72908 | 86377
7 | 19:11.53 | 1:40.34 | 86378 | 93911
8 | 20:52.12 | 3:08.50 | 93912 | 108061
9 | 24:00.62 | 4:10.23 | 108062 | 126834
10 | 28:11.10 | 4:41.71 | 126835 | 147980
11 | 32:53.06 | 2:19.58 | 147981 | 158463
12 | 35:12.64 | 2:55.28 | 158464 | 171616
13 | 38:08.17 | 3:25.28 | 171617 | 187019
14 | 41:33.45 | 2:05.61 | 187020 | 196455
15 | 43:39.31 | 2:49.66 | 196456 | 209196
16 | 46:29.22 | 3:59.24 | 209197 | 227145
17 | 50:28.46 | 3:37.02 | 227146 | 243422
18 | 54:05.48 | 4:04.28 | 243423 | 261750
19 | 58:10.01 | 3:13.17 | 261751 | 276242


Track 1

Filename I:\EAC\Ahmad Jamal - The Complete Ahmad Jamal Trio Argo Sessions 1956-62 (2010) [9CD BoxSet] {Mosaic, MD9 246}\CD5\01 - Comme Ci, Comme Ca.wav

Pre-gap length 0:00:02.00

Peak level 80.5 %
Extraction speed 1.7 X
Track quality 100.0 %
Test CRC 18A6929D
Copy CRC 18A6929D
Track not present in AccurateRip database
Copy OK

Track 2

Filename I:\EAC\Ahmad Jamal - The Complete Ahmad Jamal Trio Argo Sessions 1956-62 (2010) [9CD BoxSet] {Mosaic, MD9 246}\CD5\02 - Ivy.wav

Peak level 92.6 %
Extraction speed 1.9 X
Track quality 100.0 %
Test CRC A80F0250
Copy CRC A80F0250
Track not present in AccurateRip database
Copy OK

Track 3

Filename I:\EAC\Ahmad Jamal - The Complete Ahmad Jamal Trio Argo Sessions 1956-62 (2010) [9CD BoxSet] {Mosaic, MD9 246}\CD5\03 - Never Never Land.wav

Peak level 97.5 %
Extraction speed 1.9 X
Track quality 100.0 %
Test CRC 16DEBDD9
Copy CRC 16DEBDD9
Track not present in AccurateRip database
Copy OK

Track 4

Filename I:\EAC\Ahmad Jamal - The Complete Ahmad Jamal Trio Argo Sessions 1956-62 (2010) [9CD BoxSet] {Mosaic, MD9 246}\CD5\04 - Tangerine.wav

Peak level 95.2 %
Extraction speed 1.7 X
Track quality 100.0 %
Test CRC 5B4569CF
Copy CRC 5B4569CF
Track not present in AccurateRip database
Copy OK

Track 5

Filename I:\EAC\Ahmad Jamal - The Complete Ahmad Jamal Trio Argo Sessions 1956-62 (2010) [9CD BoxSet] {Mosaic, MD9 246}\CD5\05 - Ahmad's Blues.wav

Peak level 99.1 %
Extraction speed 1.8 X
Track quality 100.0 %
Test CRC 202513EA
Copy CRC 202513EA
Track not present in AccurateRip database
Copy OK

Track 6

Filename I:\EAC\Ahmad Jamal - The Complete Ahmad Jamal Trio Argo Sessions 1956-62 (2010) [9CD BoxSet] {Mosaic, MD9 246}\CD5\06 - Seleritus.wav

Peak level 99.1 %
Extraction speed 1.8 X
Track quality 100.0 %
Test CRC 7E8ADCAD
Copy CRC 7E8ADCAD
Track not present in AccurateRip database
Copy OK

Track 7

Filename I:\EAC\Ahmad Jamal - The Complete Ahmad Jamal Trio Argo Sessions 1956-62 (2010) [9CD BoxSet] {Mosaic, MD9 246}\CD5\07 - I Like To Recognize The Tune.wav

Peak level 90.4 %
Extraction speed 1.7 X
Track quality 100.0 %
Test CRC FCF03AAF
Copy CRC FCF03AAF
Track not present in AccurateRip database
Copy OK

Track 8

Filename I:\EAC\Ahmad Jamal - The Complete Ahmad Jamal Trio Argo Sessions 1956-62 (2010) [9CD BoxSet] {Mosaic, MD9 246}\CD5\08 - I'm Alone With You.wav

Peak level 85.3 %
Extraction speed 2.3 X
Track quality 100.0 %
Test CRC 5E516061
Copy CRC 5E516061
Track not present in AccurateRip database
Copy OK

Track 9

Filename I:\EAC\Ahmad Jamal - The Complete Ahmad Jamal Trio Argo Sessions 1956-62 (2010) [9CD BoxSet] {Mosaic, MD9 246}\CD5\09 - Sophisticated Gentleman.wav

Peak level 89.3 %
Extraction speed 2.4 X
Track quality 99.9 %
Test CRC AEA5B184
Copy CRC AEA5B184
Track not present in AccurateRip database
Copy OK

Track 10

Filename I:\EAC\Ahmad Jamal - The Complete Ahmad Jamal Trio Argo Sessions 1956-62 (2010) [9CD BoxSet] {Mosaic, MD9 246}\CD5\10 - Ahmad's Waltz.wav

Peak level 100.0 %
Extraction speed 2.7 X
Track quality 100.0 %
Test CRC 8542DB45
Copy CRC 8542DB45
Track not present in AccurateRip database
Copy OK

Track 11

Filename I:\EAC\Ahmad Jamal - The Complete Ahmad Jamal Trio Argo Sessions 1956-62 (2010) [9CD BoxSet] {Mosaic, MD9 246}\CD5\11 - Valentina.wav

Peak level 100.0 %
Extraction speed 2.6 X
Track quality 100.0 %
Test CRC 86BE823D
Copy CRC 86BE823D
Track not present in AccurateRip database
Copy OK

Track 12

Filename I:\EAC\Ahmad Jamal - The Complete Ahmad Jamal Trio Argo Sessions 1956-62 (2010) [9CD BoxSet] {Mosaic, MD9 246}\CD5\12 - Yesterdays.wav

Peak level 100.0 %
Extraction speed 2.5 X
Track quality 100.0 %
Test CRC 26596010
Copy CRC 26596010
Track not present in AccurateRip database
Copy OK

Track 13

Filename I:\EAC\Ahmad Jamal - The Complete Ahmad Jamal Trio Argo Sessions 1956-62 (2010) [9CD BoxSet] {Mosaic, MD9 246}\CD5\13 - Tempo For Two.wav

Peak level 100.0 %
Extraction speed 2.3 X
Track quality 100.0 %
Test CRC 34AE3C3A
Copy CRC 34AE3C3A
Track not present in AccurateRip database
Copy OK

Track 14

Filename I:\EAC\Ahmad Jamal - The Complete Ahmad Jamal Trio Argo Sessions 1956-62 (2010) [9CD BoxSet] {Mosaic, MD9 246}\CD5\14 - Hallelujah.wav

Peak level 100.0 %
Extraction speed 2.0 X
Track quality 100.0 %
Test CRC E4AB2AC7
Copy CRC E4AB2AC7
Track not present in AccurateRip database
Copy OK

Track 15

Filename I:\EAC\Ahmad Jamal - The Complete Ahmad Jamal Trio Argo Sessions 1956-62 (2010) [9CD BoxSet] {Mosaic, MD9 246}\CD5\15 - It's A Wonderful World.wav

Peak level 100.0 %
Extraction speed 2.3 X
Track quality 100.0 %
Test CRC 54BF4EA4
Copy CRC 54BF4EA4
Track not present in AccurateRip database
Copy OK

Track 16

Filename I:\EAC\Ahmad Jamal - The Complete Ahmad Jamal Trio Argo Sessions 1956-62 (2010) [9CD BoxSet] {Mosaic, MD9 246}\CD5\16 - Baia.wav

Peak level 100.0 %
Extraction speed 2.4 X
Track quality 100.0 %
Test CRC E6CEFCBB
Copy CRC E6CEFCBB
Track not present in AccurateRip database
Copy OK

Track 17

Filename I:\EAC\Ahmad Jamal - The Complete Ahmad Jamal Trio Argo Sessions 1956-62 (2010) [9CD BoxSet] {Mosaic, MD9 246}\CD5\17 - You Came A Long Way From St. Louis.wav

Peak level 100.0 %
Extraction speed 2.2 X
Track quality 100.0 %
Test CRC 7BFF0D3D
Copy CRC 7BFF0D3D
Track not present in AccurateRip database
Copy OK

Track 18

Filename I:\EAC\Ahmad Jamal - The Complete Ahmad Jamal Trio Argo Sessions 1956-62 (2010) [9CD BoxSet] {Mosaic, MD9 246}\CD5\18 - Lover Man.wav

Peak level 100.0 %
Extraction speed 2.4 X
Track quality 100.0 %
Test CRC 65C9DA0C
Copy CRC 65C9DA0C
Track not present in AccurateRip database
Copy OK

Track 19

Filename I:\EAC\Ahmad Jamal - The Complete Ahmad Jamal Trio Argo Sessions 1956-62 (2010) [9CD BoxSet] {Mosaic, MD9 246}\CD5\19 - Who Cares.wav

Peak level 100.0 %
Extraction speed 2.6 X
Track quality 100.0 %
Test CRC C5C31C3C
Copy CRC C5C31C3C
Track not present in AccurateRip database
Copy OK


None of the tracks are present in the AccurateRip database

No errors occurred

End of status report

==== Log checksum 1DDDE8DC134C74EA50DAC8943557792C3798F540E599C4938C2DC83DCF548D94 ====

Exact Audio Copy V1.0 beta 1 from 15. November 2010

EAC extraction logfile from 10. May 2011, 17:24

Ahmad Jamal / The Complete Ahmad Jamal Trio Argo Sessions 1956-62 (CD6)

Used drive : TSSTcorpCD/DVDW TS-H552L Adapter: 2 ID: 0

Read mode : Secure
Utilize accurate stream : Yes
Defeat audio cache : Yes
Make use of C2 pointers : No

Read offset correction : 6
Overread into Lead-In and Lead-Out : No
Fill up missing offset samples with silence : Yes
Delete leading and trailing silent blocks : No
Null samples used in CRC calculations : Yes
Used interface : Native Win32 interface for Win NT & 2000
Gap handling : Appended to previous track

Used output format : User Defined Encoder
Selected bitrate : 1024 kBit/s
Quality : High
Add ID3 tag : No
Command line compressor : C:\Program Files\Exact Audio Copy\Flac\flac.exe
Additional command line options : -5 -V -T "ARTIST=%a" -T "TITLE=%t" -T "ALBUM=%g" -T "DATE=%y" -T "TRACKNUMBER=%n" -T "TOTALTRACKS=%x" -T "GENRE=%m" -T "ALBUMARTIST=%v" -T "ALBUM ARTIST=%v" -T "COMMENT=EAC Secure Mode, Test & Copy, AccurateRip, FLAC -5" %s


TOC of the extracted CD

Track | Start | Length | Start sector | End sector
––––––––––––––––––––––––––––-
1 | 0:00.00 | 5:02.43 | 0 | 22692
2 | 5:02.43 | 8:15.23 | 22693 | 59840
3 | 13:17.66 | 2:14.33 | 59841 | 69923
4 | 15:32.24 | 5:05.26 | 69924 | 92824
5 | 20:37.50 | 4:00.26 | 92825 | 110850
6 | 24:38.01 | 3:59.48 | 110851 | 128823
7 | 28:37.49 | 4:02.43 | 128824 | 147016
8 | 32:40.17 | 2:30.21 | 147017 | 158287
9 | 35:10.38 | 7:41.44 | 158288 | 192906
10 | 42:52.07 | 3:58.62 | 192907 | 210818
11 | 46:50.69 | 3:52.29 | 210819 | 228247
12 | 50:43.23 | 4:28.16 | 228248 | 248363
13 | 55:11.39 | 2:22.60 | 248364 | 259073


Track 1

Filename I:\EAC\Ahmad Jamal - The Complete Ahmad Jamal Trio Argo Sessions 1956-62 (2010) [9CD BoxSet] {Mosaic, MD9 246}\CD6\01 - I'm Old Fashioned.wav

Pre-gap length 0:00:02.00

Peak level 99.9 %
Extraction speed 1.9 X
Track quality 100.0 %
Test CRC CBB02DBC
Copy CRC CBB02DBC
Track not present in AccurateRip database
Copy OK

Track 2

Filename I:\EAC\Ahmad Jamal - The Complete Ahmad Jamal Trio Argo Sessions 1956-62 (2010) [9CD BoxSet] {Mosaic, MD9 246}\CD6\02 - We Kiss In A Shadow.wav

Peak level 100.0 %
Extraction speed 1.9 X
Track quality 100.0 %
Test CRC 0D740FB7
Copy CRC 0D740FB7
Track not present in AccurateRip database
Copy OK

Track 3

Filename I:\EAC\Ahmad Jamal - The Complete Ahmad Jamal Trio Argo Sessions 1956-62 (2010) [9CD BoxSet] {Mosaic, MD9 246}\CD6\03 - Chi-Town (aka Gem).wav

Peak level 100.0 %
Extraction speed 1.8 X
Track quality 100.0 %
Test CRC FE291DB7
Copy CRC FE291DB7
Track not present in AccurateRip database
Copy OK

Track 4

Filename I:\EAC\Ahmad Jamal - The Complete Ahmad Jamal Trio Argo Sessions 1956-62 (2010) [9CD BoxSet] {Mosaic, MD9 246}\CD6\04 - We Kiss In A Shadow.wav

Peak level 77.5 %
Extraction speed 1.8 X
Track quality 100.0 %
Test CRC EEADAB76
Copy CRC EEADAB76
Track not present in AccurateRip database
Copy OK

Track 5

Filename I:\EAC\Ahmad Jamal - The Complete Ahmad Jamal Trio Argo Sessions 1956-62 (2010) [9CD BoxSet] {Mosaic, MD9 246}\CD6\05 - Sweet And Lovely.wav

Peak level 68.4 %
Extraction speed 1.8 X
Track quality 100.0 %
Test CRC 53CC6BAC
Copy CRC 53CC6BAC
Track not present in AccurateRip database
Copy OK

Track 6

Filename I:\EAC\Ahmad Jamal - The Complete Ahmad Jamal Trio Argo Sessions 1956-62 (2010) [9CD BoxSet] {Mosaic, MD9 246}\CD6\06 - The Party's Over.wav

Peak level 57.0 %
Extraction speed 1.8 X
Track quality 100.0 %
Test CRC BEFCBE7C
Copy CRC BEFCBE7C
Track not present in AccurateRip database
Copy OK

Track 7

Filename I:\EAC\Ahmad Jamal - The Complete Ahmad Jamal Trio Argo Sessions 1956-62 (2010) [9CD BoxSet] {Mosaic, MD9 246}\CD6\07 - Love For Sale.wav

Peak level 60.9 %
Extraction speed 1.8 X
Track quality 100.0 %
Test CRC 3319333D
Copy CRC 3319333D
Track not present in AccurateRip database
Copy OK

Track 8

Filename I:\EAC\Ahmad Jamal - The Complete Ahmad Jamal Trio Argo Sessions 1956-62 (2010) [9CD BoxSet] {Mosaic, MD9 246}\CD6\08 - Snowfall.wav

Peak level 54.5 %
Extraction speed 2.5 X
Track quality 100.0 %
Test CRC B0484B93
Copy CRC B0484B93
Track not present in AccurateRip database
Copy OK

Track 9

Filename I:\EAC\Ahmad Jamal - The Complete Ahmad Jamal Trio Argo Sessions 1956-62 (2010) [9CD BoxSet] {Mosaic, MD9 246}\CD6\09 - Broadway.wav

Peak level 63.8 %
Extraction speed 2.4 X
Track quality 100.0 %
Test CRC ECB9C11D
Copy CRC ECB9C11D
Track not present in AccurateRip database
Copy OK

Track 10

Filename I:\EAC\Ahmad Jamal - The Complete Ahmad Jamal Trio Argo Sessions 1956-62 (2010) [9CD BoxSet] {Mosaic, MD9 246}\CD6\10 - Willow Weep For Me.wav

Peak level 100.0 %
Extraction speed 2.6 X
Track quality 100.0 %
Test CRC 8D501384
Copy CRC 8D501384
Track not present in AccurateRip database
Copy OK

Track 11

Filename I:\EAC\Ahmad Jamal - The Complete Ahmad Jamal Trio Argo Sessions 1956-62 (2010) [9CD BoxSet] {Mosaic, MD9 246}\CD6\11 - Autumn Leaves.wav

Peak level 91.1 %
Extraction speed 2.5 X
Track quality 100.0 %
Test CRC A900623A
Copy CRC A900623A
Track not present in AccurateRip database
Copy OK

Track 12

Filename I:\EAC\Ahmad Jamal - The Complete Ahmad Jamal Trio Argo Sessions 1956-62 (2010) [9CD BoxSet] {Mosaic, MD9 246}\CD6\12 - Isn't It Romantic.wav

Peak level 87.8 %
Extraction speed 2.3 X
Track quality 100.0 %
Test CRC 598BBC98
Copy CRC 598BBC98
Track not present in AccurateRip database
Copy OK

Track 13

Filename I:\EAC\Ahmad Jamal - The Complete Ahmad Jamal Trio Argo Sessions 1956-62 (2010) [9CD BoxSet] {Mosaic, MD9 246}\CD6\13 - The Breeze And I.wav

Peak level 48.8 %
Extraction speed 2.1 X
Track quality 99.9 %
Test CRC 11CC358F
Copy CRC 11CC358F
Track not present in AccurateRip database
Copy OK


None of the tracks are present in the AccurateRip database

No errors occurred

End of status report

==== Log checksum 7D6C59ABA5D3C4B3D36FED38FE8762B35641E34D995B5B87D13CFBDCEDFDD9DB ====

Exact Audio Copy V1.0 beta 1 from 15. November 2010

EAC extraction logfile from 10. May 2011, 19:59

Ahmad Jamal / The Complete Ahmad Jamal Trio Argo Sessions 1956-62 (CD7)

Used drive : TSSTcorpCD/DVDW TS-H552L Adapter: 2 ID: 0

Read mode : Secure
Utilize accurate stream : Yes
Defeat audio cache : Yes
Make use of C2 pointers : No

Read offset correction : 6
Overread into Lead-In and Lead-Out : No
Fill up missing offset samples with silence : Yes
Delete leading and trailing silent blocks : No
Null samples used in CRC calculations : Yes
Used interface : Native Win32 interface for Win NT & 2000
Gap handling : Appended to previous track

Used output format : User Defined Encoder
Selected bitrate : 1024 kBit/s
Quality : High
Add ID3 tag : No
Command line compressor : C:\Program Files\Exact Audio Copy\Flac\flac.exe
Additional command line options : -5 -V -T "ARTIST=%a" -T "TITLE=%t" -T "ALBUM=%g" -T "DATE=%y" -T "TRACKNUMBER=%n" -T "TOTALTRACKS=%x" -T "GENRE=%m" -T "ALBUMARTIST=%v" -T "ALBUM ARTIST=%v" -T "COMMENT=EAC Secure Mode, Test & Copy, AccurateRip, FLAC -5" %s


TOC of the extracted CD

Track | Start | Length | Start sector | End sector
––––––––––––––––––––––––––––-
1 | 0:00.00 | 6:20.17 | 0 | 28516
2 | 6:20.17 | 4:15.60 | 28517 | 47701
3 | 10:36.02 | 11:00.69 | 47702 | 97270
4 | 21:36.71 | 5:57.31 | 97271 | 124076
5 | 27:34.27 | 5:01.67 | 124077 | 146718
6 | 32:36.19 | 3:29.58 | 146719 | 162451
7 | 36:06.02 | 6:12.22 | 162452 | 190373
8 | 42:18.24 | 9:32.37 | 190374 | 233310
9 | 51:50.61 | 5:08.24 | 233311 | 256434
10 | 56:59.10 | 5:34.18 | 256435 | 281502
11 | 62:33.28 | 3:09.01 | 281503 | 295678


Track 1

Filename I:\EAC\Ahmad Jamal - The Complete Ahmad Jamal Trio Argo Sessions 1956-62 (2010) [9CD BoxSet] {Mosaic, MD9 246}\CD7\01 - Time On My Hands.wav

Pre-gap length 0:00:02.00

Peak level 100.0 %
Extraction speed 2.5 X
Track quality 99.9 %
Test CRC F94C965F
Copy CRC F94C965F
Track not present in AccurateRip database
Copy OK

Track 2

Filename I:\EAC\Ahmad Jamal - The Complete Ahmad Jamal Trio Argo Sessions 1956-62 (2010) [9CD BoxSet] {Mosaic, MD9 246}\CD7\02 - Angel Eyes.wav

Peak level 99.8 %
Extraction speed 2.6 X
Track quality 100.0 %
Test CRC A9745CCD
Copy CRC A9745CCD
Track not present in AccurateRip database
Copy OK

Track 3

Filename I:\EAC\Ahmad Jamal - The Complete Ahmad Jamal Trio Argo Sessions 1956-62 (2010) [9CD BoxSet] {Mosaic, MD9 246}\CD7\03 - You Go To My Head.wav

Peak level 100.0 %
Extraction speed 2.4 X
Track quality 100.0 %
Test CRC CCD70813
Copy CRC CCD70813
Track not present in AccurateRip database
Copy OK

Track 4

Filename I:\EAC\Ahmad Jamal - The Complete Ahmad Jamal Trio Argo Sessions 1956-62 (2010) [9CD BoxSet] {Mosaic, MD9 246}\CD7\04 - Star Eyes.wav

Peak level 94.7 %
Extraction speed 2.0 X
Track quality 100.0 %
Test CRC 0A7B8944
Copy CRC 0A7B8944
Track not present in AccurateRip database
Copy OK

Track 5

Filename I:\EAC\Ahmad Jamal - The Complete Ahmad Jamal Trio Argo Sessions 1956-62 (2010) [9CD BoxSet] {Mosaic, MD9 246}\CD7\05 - All Of You.wav

Peak level 100.0 %
Extraction speed 2.2 X
Track quality 100.0 %
Test CRC 48389737
Copy CRC 48389737
Track not present in AccurateRip database
Copy OK

Track 6

Filename I:\EAC\Ahmad Jamal - The Complete Ahmad Jamal Trio Argo Sessions 1956-62 (2010) [9CD BoxSet] {Mosaic, MD9 246}\CD7\06 - You're Blase.wav

Peak level 94.5 %
Extraction speed 2.5 X
Track quality 100.0 %
Test CRC 9A6F5582
Copy CRC 9A6F5582
Track not present in AccurateRip database
Copy OK

Track 7

Filename I:\EAC\Ahmad Jamal - The Complete Ahmad Jamal Trio Argo Sessions 1956-62 (2010) [9CD BoxSet] {Mosaic, MD9 246}\CD7\07 - What Is This Thing Called Love.wav

Peak level 87.1 %
Extraction speed 2.3 X
Track quality 100.0 %
Test CRC FCDAA004
Copy CRC FCDAA004
Track not present in AccurateRip database
Copy OK

Track 8

Filename I:\EAC\Ahmad Jamal - The Complete Ahmad Jamal Trio Argo Sessions 1956-62 (2010) [9CD BoxSet] {Mosaic, MD9 246}\CD7\08 - Poinciana.wav

Peak level 100.0 %
Extraction speed 2.3 X
Track quality 99.9 %
Test CRC 4A6F70C3
Copy CRC 4A6F70C3
Track not present in AccurateRip database
Copy OK

Track 9

Filename I:\EAC\Ahmad Jamal - The Complete Ahmad Jamal Trio Argo Sessions 1956-62 (2010) [9CD BoxSet] {Mosaic, MD9 246}\CD7\09 - We Kiss In A Shadow (Alt Tk).wav

Peak level 94.7 %
Extraction speed 2.5 X
Track quality 100.0 %
Test CRC D5656045
Copy CRC D5656045
Track not present in AccurateRip database
Copy OK

Track 10

Filename I:\EAC\Ahmad Jamal - The Complete Ahmad Jamal Trio Argo Sessions 1956-62 (2010) [9CD BoxSet] {Mosaic, MD9 246}\CD7\10 - Stella By Starlight.wav

Peak level 95.4 %
Extraction speed 2.8 X
Track quality 100.0 %
Test CRC 3AA18664
Copy CRC 3AA18664
Track not present in AccurateRip database
Copy OK

Track 11

Filename I:\EAC\Ahmad Jamal - The Complete Ahmad Jamal Trio Argo Sessions 1956-62 (2010) [9CD BoxSet] {Mosaic, MD9 246}\CD7\11 - The Lady Is A Tramp.wav

Peak level 100.0 %
Extraction speed 2.7 X
Track quality 100.0 %
Test CRC E8E9B851
Copy CRC E8E9B851
Track not present in AccurateRip database
Copy OK


None of the tracks are present in the AccurateRip database

No errors occurred

End of status report

==== Log checksum FAA5E32106C0BA4FF4BB63DF1C21689E241AD984BE8FF08FCE1124D7D5566594 ====

Exact Audio Copy V1.0 beta 1 from 15. November 2010

EAC extraction logfile from 10. May 2011, 22:32

Ahmad Jamal / The Complete Ahmad Jamal Trio Argo Sessions 1956-62 (CD8)

Used drive : TSSTcorpCD/DVDW TS-H552L Adapter: 2 ID: 0

Read mode : Secure
Utilize accurate stream : Yes
Defeat audio cache : Yes
Make use of C2 pointers : No

Read offset correction : 6
Overread into Lead-In and Lead-Out : No
Fill up missing offset samples with silence : Yes
Delete leading and trailing silent blocks : No
Null samples used in CRC calculations : Yes
Used interface : Native Win32 interface for Win NT & 2000
Gap handling : Appended to previous track

Used output format : User Defined Encoder
Selected bitrate : 1024 kBit/s
Quality : High
Add ID3 tag : No
Command line compressor : C:\Program Files\Exact Audio Copy\Flac\flac.exe
Additional command line options : -5 -V -T "ARTIST=%a" -T "TITLE=%t" -T "ALBUM=%g" -T "DATE=%y" -T "TRACKNUMBER=%n" -T "TOTALTRACKS=%x" -T "GENRE=%m" -T "ALBUMARTIST=%v" -T "ALBUM ARTIST=%v" -T "COMMENT=EAC Secure Mode, Test & Copy, AccurateRip, FLAC -5" %s


TOC of the extracted CD

Track | Start | Length | Start sector | End sector
––––––––––––––––––––––––––––-
1 | 0:00.00 | 6:12.27 | 0 | 27926
2 | 6:12.27 | 5:14.44 | 27927 | 51520
3 | 11:26.71 | 4:20.39 | 51521 | 71059
4 | 15:47.35 | 4:35.65 | 71060 | 91749
5 | 20:23.25 | 6:14.30 | 91750 | 119829
6 | 26:37.55 | 4:13.30 | 119830 | 138834
7 | 30:51.10 | 5:08.40 | 138835 | 161974
8 | 35:59.50 | 7:05.25 | 161975 | 193874
9 | 43:05.00 | 4:33.07 | 193875 | 214356
10 | 47:38.07 | 4:03.07 | 214357 | 232588


Track 1

Filename I:\EAC\Ahmad Jamal - The Complete Ahmad Jamal Trio Argo Sessions 1956-62 (2010) [9CD BoxSet] {Mosaic, MD9 246}\CD8\01 - Medley- I'll Take Romance - My Funny Valentine.wav

Pre-gap length 0:00:02.00

Peak level 94.9 %
Extraction speed 1.8 X
Track quality 100.0 %
Test CRC 7BFD94DC
Copy CRC 7BFD94DC
Track not present in AccurateRip database
Copy OK

Track 2

Filename I:\EAC\Ahmad Jamal - The Complete Ahmad Jamal Trio Argo Sessions 1956-62 (2010) [9CD BoxSet] {Mosaic, MD9 246}\CD8\02 - Like Someone In Love.wav

Peak level 100.0 %
Extraction speed 2.5 X
Track quality 100.0 %
Test CRC 6AE612F2
Copy CRC 6AE612F2
Track not present in AccurateRip database
Copy OK

Track 3

Filename I:\EAC\Ahmad Jamal - The Complete Ahmad Jamal Trio Argo Sessions 1956-62 (2010) [9CD BoxSet] {Mosaic, MD9 246}\CD8\03 - Falling In Love With Love.wav

Peak level 91.2 %
Extraction speed 2.5 X
Track quality 100.0 %
Test CRC 8E65C7CD
Copy CRC 8E65C7CD
Track not present in AccurateRip database
Copy OK

Track 4

Filename I:\EAC\Ahmad Jamal - The Complete Ahmad Jamal Trio Argo Sessions 1956-62 (2010) [9CD BoxSet] {Mosaic, MD9 246}\CD8\04 - The Best Thing For You.wav

Peak level 100.0 %
Extraction speed 2.6 X
Track quality 100.0 %
Test CRC D1E335BD
Copy CRC D1E335BD
Track not present in AccurateRip database
Copy OK

Track 5

Filename I:\EAC\Ahmad Jamal - The Complete Ahmad Jamal Trio Argo Sessions 1956-62 (2010) [9CD BoxSet] {Mosaic, MD9 246}\CD8\05 - April In Paris.wav

Peak level 100.0 %
Extraction speed 2.6 X
Track quality 100.0 %
Test CRC 9D0127A3
Copy CRC 9D0127A3
Track not present in AccurateRip database
Copy OK

Track 6

Filename I:\EAC\Ahmad Jamal - The Complete Ahmad Jamal Trio Argo Sessions 1956-62 (2010) [9CD BoxSet] {Mosaic, MD9 246}\CD8\06 - The Second Time Around.wav

Peak level 97.9 %
Extraction speed 2.3 X
Track quality 100.0 %
Test CRC 1B60FFD4
Copy CRC 1B60FFD4
Track not present in AccurateRip database
Copy OK

Track 7

Filename I:\EAC\Ahmad Jamal - The Complete Ahmad Jamal Trio Argo Sessions 1956-62 (2010) [9CD BoxSet] {Mosaic, MD9 246}\CD8\07 - We Live In Two Different Worlds.wav

Peak level 100.0 %
Extraction speed 2.2 X
Track quality 100.0 %
Test CRC 852B4B1A
Copy CRC 852B4B1A
Track not present in AccurateRip database
Copy OK

Track 8

Filename I:\EAC\Ahmad Jamal - The Complete Ahmad Jamal Trio Argo Sessions 1956-62 (2010) [9CD BoxSet] {Mosaic, MD9 246}\CD8\08 - Night Mist Blues.wav

Peak level 100.0 %
Extraction speed 2.3 X
Track quality 100.0 %
Test CRC D79204FC
Copy CRC D79204FC
Track not present in AccurateRip database
Copy OK

Track 9

Filename I:\EAC\Ahmad Jamal - The Complete Ahmad Jamal Trio Argo Sessions 1956-62 (2010) [9CD BoxSet] {Mosaic, MD9 246}\CD8\09 - Darn That Dream.wav

Peak level 100.0 %
Extraction speed 2.6 X
Track quality 100.0 %
Test CRC 868ED6D5
Copy CRC 868ED6D5
Track not present in AccurateRip database
Copy OK

Track 10

Filename I:\EAC\Ahmad Jamal - The Complete Ahmad Jamal Trio Argo Sessions 1956-62 (2010) [9CD BoxSet] {Mosaic, MD9 246}\CD8\10 - On Green Dolphin Street.wav

Peak level 100.0 %
Extraction speed 2.3 X
Track quality 99.9 %
Test CRC A1AB1ED7
Copy CRC A1AB1ED7
Track not present in AccurateRip database
Copy OK


None of the tracks are present in the AccurateRip database

No errors occurred

End of status report

==== Log checksum 1E2AA20E434671BFFE271E591C5284A09008A881AEA9E38AF7323DFAA485BD55 ====

Exact Audio Copy V1.0 beta 1 from 15. November 2010

EAC extraction logfile from 11. May 2011, 6:23

Ahmad Jamal / The Complete Ahmad Jamal Trio Argo Sessions 1956-62 (CD9)

Used drive : TSSTcorpCD/DVDW TS-H552L Adapter: 2 ID: 0

Read mode : Secure
Utilize accurate stream : Yes
Defeat audio cache : Yes
Make use of C2 pointers : No

Read offset correction : 6
Overread into Lead-In and Lead-Out : No
Fill up missing offset samples with silence : Yes
Delete leading and trailing silent blocks : No
Null samples used in CRC calculations : Yes
Used interface : Native Win32 interface for Win NT & 2000
Gap handling : Appended to previous track

Used output format : User Defined Encoder
Selected bitrate : 1024 kBit/s
Quality : High
Add ID3 tag : No
Command line compressor : C:\Program Files\Exact Audio Copy\Flac\flac.exe
Additional command line options : -5 -V -T "ARTIST=%a" -T "TITLE=%t" -T "ALBUM=%g" -T "DATE=%y" -T "TRACKNUMBER=%n" -T "TOTALTRACKS=%x" -T "GENRE=%m" -T "ALBUMARTIST=%v" -T "ALBUM ARTIST=%v" -T "COMMENT=EAC Secure Mode, Test & Copy, AccurateRip, FLAC -5" %s


TOC of the extracted CD

Track | Start | Length | Start sector | End sector
––––––––––––––––––––––––––––-
1 | 0:00.00 | 6:52.55 | 0 | 30954
2 | 6:52.55 | 5:31.32 | 30955 | 55811
3 | 12:24.12 | 6:50.64 | 55812 | 86625
4 | 19:15.01 | 6:42.03 | 86626 | 116778
5 | 25:57.04 | 3:35.70 | 116779 | 132973
6 | 29:32.74 | 3:49.15 | 132974 | 150163
7 | 33:22.14 | 10:31.54 | 150164 | 197542
8 | 43:53.68 | 4:50.63 | 197543 | 219355
9 | 48:44.56 | 7:26.69 | 219356 | 252874


Track 1

Filename I:\EAC\Ahmad Jamal - The Complete Ahmad Jamal Trio Argo Sessions 1956-62 (2010) [9CD BoxSet] {Mosaic, MD9 246}\CD9\01 - Like Someone In Love (Alt Tk 1).wav

Pre-gap length 0:00:02.00

Peak level 92.2 %
Extraction speed 2.4 X
Track quality 99.9 %
Test CRC 153AE05D
Copy CRC 153AE05D
Track not present in AccurateRip database
Copy OK

Track 2

Filename I:\EAC\Ahmad Jamal - The Complete Ahmad Jamal Trio Argo Sessions 1956-62 (2010) [9CD BoxSet] {Mosaic, MD9 246}\CD9\02 - The Second Time Around (Alt Tk 1).wav

Peak level 98.5 %
Extraction speed 2.3 X
Track quality 100.0 %
Test CRC 8970B655
Copy CRC 8970B655
Track not present in AccurateRip database
Copy OK

Track 3

Filename I:\EAC\Ahmad Jamal - The Complete Ahmad Jamal Trio Argo Sessions 1956-62 (2010) [9CD BoxSet] {Mosaic, MD9 246}\CD9\03 - Angel Eyes.wav

Peak level 96.0 %
Extraction speed 2.5 X
Track quality 100.0 %
Test CRC E19430A4
Copy CRC E19430A4
Track not present in AccurateRip database
Copy OK

Track 4

Filename I:\EAC\Ahmad Jamal - The Complete Ahmad Jamal Trio Argo Sessions 1956-62 (2010) [9CD BoxSet] {Mosaic, MD9 246}\CD9\04 - Medley- Alone Together - Love Walked In.wav

Peak level 98.4 %
Extraction speed 2.4 X
Track quality 100.0 %
Test CRC BACE053C
Copy CRC BACE053C
Track not present in AccurateRip database
Copy OK

Track 5

Filename I:\EAC\Ahmad Jamal - The Complete Ahmad Jamal Trio Argo Sessions 1956-62 (2010) [9CD BoxSet] {Mosaic, MD9 246}\CD9\05 - Smoke Gets In Your Eyes.wav

Peak level 94.8 %
Extraction speed 2.4 X
Track quality 100.0 %
Test CRC D3CEC4CA
Copy CRC D3CEC4CA
Track not present in AccurateRip database
Copy OK

Track 6

Filename I:\EAC\Ahmad Jamal - The Complete Ahmad Jamal Trio Argo Sessions 1956-62 (2010) [9CD BoxSet] {Mosaic, MD9 246}\CD9\06 - I'm Old Fashioned.wav

Peak level 99.9 %
Extraction speed 2.3 X
Track quality 100.0 %
Test CRC 49A15A69
Copy CRC 49A15A69
Track not present in AccurateRip database
Copy OK

Track 7

Filename I:\EAC\Ahmad Jamal - The Complete Ahmad Jamal Trio Argo Sessions 1956-62 (2010) [9CD BoxSet] {Mosaic, MD9 246}\CD9\07 - We Kiss In A Shadow.wav

Peak level 97.2 %
Extraction speed 2.5 X
Track quality 100.0 %
Test CRC 23B42DBE
Copy CRC 23B42DBE
Track not present in AccurateRip database
Copy OK

Track 8

Filename I:\EAC\Ahmad Jamal - The Complete Ahmad Jamal Trio Argo Sessions 1956-62 (2010) [9CD BoxSet] {Mosaic, MD9 246}\CD9\08 - The Second Time Around (Alt Tk 2).wav

Peak level 94.2 %
Extraction speed 2.3 X
Track quality 100.0 %
Test CRC 86DE9261
Copy CRC 86DE9261
Track not present in AccurateRip database
Copy OK

Track 9

Filename I:\EAC\Ahmad Jamal - The Complete Ahmad Jamal Trio Argo Sessions 1956-62 (2010) [9CD BoxSet] {Mosaic, MD9 246}\CD9\09 - Like Someone In Love (Alt Tk 2).wav

Peak level 97.9 %
Extraction speed 2.4 X
Track quality 100.0 %
Test CRC 32DE356C
Copy CRC 32DE356C
Track not present in AccurateRip database
Copy OK


None of the tracks are present in the AccurateRip database

No errors occurred

End of status report

==== Log checksum 96D97838156EB73370C46FFCB00F8C6395368770FA44381E62CAD0B0C01E983E ====