Tags
Language
Tags
December 2022
Su Mo Tu We Th Fr Sa
27 28 29 30 1 2 3
4 5 6 7 8 9 10
11 12 13 14 15 16 17
18 19 20 21 22 23 24
25 26 27 28 29 30 31

Ali Akbar Khan - Journey (1990)

Posted By: intothe
Ali Akbar Khan - Journey (1990)

Ali Akbar Khan - Journey (1990)
EAC (FLAC+CUE+LOG) | 300 MB | Scans | Triloka | 53:40 | RAR w. 5% recovery
Genre: world fusion, Indian ethnic


Exact Audio Copy V0.99 prebeta 4 from 23. January 2008

EAC extraction logfile from 16. March 2009, 11:16

Ali Akbar Khan / Journey

Used drive : _NEC DVD_RW ND-3500AG Adapter: 0 ID: 0

Read mode : Secure
Utilize accurate stream : Yes
Defeat audio cache : No
Make use of C2 pointers : Yes

Read offset correction : 48
Overread into Lead-In and Lead-Out : No
Fill up missing offset samples with silence : Yes
Delete leading and trailing silent blocks : No
Null samples used in CRC calculations : Yes
Used interface : Native Win32 interface for Win NT & 2000

Used output format : User Defined Encoder
Selected bitrate : 768 kBit/s
Quality : High
Add ID3 tag : No
Command line compressor : C:\Program Files\Exact Audio Copy\FLAC\FLAC.EXE
Additional command line options : -6 -V -T "ARTIST=%a" -T "TITLE=%t" -T "ALBUM=%g" -T "DATE=%y" -T "TRACKNUMBER=%n" -T "GENRE=%m" -T "COMMENT=%e" %s -o %d


TOC of the extracted CD

Track | Start | Length | Start sector | End sector
––––––––––––––––––––––––––––-
1 | 0:00.00 | 5:36.70 | 0 | 25269
2 | 5:36.70 | 3:22.10 | 25270 | 40429
3 | 8:59.05 | 4:28.28 | 40430 | 60557 4 | 13:27.33 | 3:24.60 | 60558 | 75917
5 | 16:52.18 | 7:17.72 | 75918 | 108764 6 | 24:10.15 | 3:34.28 | 108765 | 124842 7 | 27:44.43 | 5:24.30 | 124843 | 149172 8 | 33:08.73 | 5:39.60 | 149173 | 174657 9 | 38:48.58 | 14:52.12 | 174658 | 241569


Range status and errors

Selected range

Filename J:\eMusic\Ripp\Ali Akbar Khan - Journey.wav

Peak level 100.0 %
Range quality 100.0 %
Copy CRC 444A22E1
Copy OK

No errors occurred


AccurateRip summary

Track 1 not present in database
Track 2 not present in database
Track 3 not present in database
Track 4 not present in database
Track 5 not present in database
Track 6 not present in database
Track 7 not present in database
Track 8 not present in database
Track 9 not present in database

None of the tracks are present in the AccurateRip database

End of status report


At 67, veteran Indian music master Ali Akbar Khan successfully blends tradition and technology on Journey, a moving CD produced by his protege and student Jai Uttal. Journey, however, isn't modern secular Indian pop, but rather is best described as traditional Indian spiritual and devotional music using high-tech elements. Under Uttal's direction, Khan's sarod and other acoustic Indian instruments like the sitar, the tabla and the dholak successfully interact with electronic synthesizers (none of which sound forced or mechanical). Uttal had learned a lot from Khan, and showed his appreciation by seeing to it that technology was used soulfully throughout this album. - by Alex Henderson, AMG

Tracks:
1. Come Back My Love 5:36
2. Fantasy 3:22
3. Lullaby 4:28
4. Anticipation 3:24
5. Farewell 7:17
6. Journey 3:34
7. Carnival of Mother Kali 5:24
8. Temple Music 5:39
9. Morning Meditation 14:51
All song composed by Ali Akbar Khan

Personnel:
Ali Akbar Khan (Sarod)
Swapan Chaudhuri (Tabla, Shaler and Electronic Percussion)
Pranesh Khan (Dholak, Duggi Tarang, Swaramandala and Tabla)
James Pomerantz (Sitar, Swaramandala and Tanpura)
Brian Godden (Guitar, Chordal Arrangements)
Jai Uttal (Keyboards, Synthesizer and Sampler)
John Bergamo (Trap Drums, Conga, Chimes and Bells)
Mala Ganguli (Tanpura)

Dlink

Ali Akbar Khan: Garden of Dreams