Tags
Language
Tags

Alice Coltrane - Ptah, The El Dauod (Japanese SHM-CD) (1970/2021)

Posted By: delpotro
Alice Coltrane - Ptah, The El Dauod (Japanese SHM-CD) (1970/2021)

Alice Coltrane - Ptah, The El Dauod (Japanese SHM-CD) (1970/2021)
XLD Rip | FLAC (tracks+log+.cue) - 254 Mb | MP3 CBR 320 kbps - 106 Mb | 00:46:11
Avant-Garde Jazz, Spiritual Jazz | Label: Impulse! Records

Ptah, the El Daoud, recorded and released in 1970, is the third solo album by Alice Coltrane. The album was recorded in the basement of her house in Dix Hills on Long Island, New York. This was Coltrane's first album with horns (aside from one track on A Monastic Trio (1968), on which Pharoah Sanders played bass clarinet). Sanders is recorded on the right channel and Joe Henderson on the left channel throughout. Coltrane noted: "Joe Henderson is more on the intellectual side, while Pharoah is more abstract, more transcendental."

All the compositions were written by Alice Coltrane. The title track is named for an Egyptian god, Ptah, "the El Daoud" meaning "the beloved". "Turiya", according to the liner notes, "was defined by Coltrane as "a state of consciousness — the high state of Nirvana, the goal of human life", while "Ramakrishna" was a 19th-century Bengali religious figure and also denotes a movement founded by his disciples. On "Blue Nile", Coltrane switches from piano to harp, and Sanders and Henderson from tenor saxophones to alto flutes.

The album's cover design was by Jim Evans.
Tracklist:
1. Ptah, The El Daoud (13:58)
2. Turiya And Ramakrishna (08:19)
3. Blue Nile (06:58)
4. Mantra (16:33)

X Lossless Decoder version 20210101 (153.1)

XLD extraction logfile from 2021-07-21 15:30:15 +0100

Alice Coltrane / Ptah, the El Daoud

Used drive : HL-DT-ST DVDRW GS41N (revision UA04)
Media type : Pressed CD

Ripper mode : XLD Secure Ripper
Disable audio cache : OK for the drive with a cache less than 1375KiB
Make use of C2 pointers : NO
Read offset correction : 6
Max retry count : 100
Gap status : Analyzed, Appended (except HTOA)

TOC of the extracted CD
Track | Start | Length | Start sector | End sector
––––––––––––––––––––––––––––-
1 | 00:00:00 | 14:04:60 | 0 | 63359
2 | 14:04:60 | 08:23:40 | 63360 | 101124
3 | 22:28:25 | 07:05:62 | 101125 | 133061
4 | 29:34:12 | 16:37:38 | 133062 | 207874

List of alternate offset correction values
# | Absolute | Relative | Confidence
–––––––––––––––––––––
1 | 24 | 18 | 2

AccurateRip Summary (DiscID: 0007b64e-001e8b37-320ad304)
Track 01 : OK (v2, confidence 2/2, with different offset)
Track 02 : OK (v2, confidence 2/2, with different offset)
Track 03 : OK (v2, confidence 2/2, with different offset)
Track 04 : OK (v2, confidence 2/2, with different offset)
->All tracks accurately ripped.

All Tracks
Album gain : -1.88 dB
Peak : 0.780060
Statistics
Read error : 0
Jitter error (maybe fixed) : 0
Retry sector count : 0
Damaged sector count : 0

Track 01
Filename : /Users/Joanna/Desktop/Rips/Alice Coltrane - Ptah, the el dauod (1970)/01 Alice Coltrane - Ptah, the El Daoud.flac
Pre-gap length : 00:02:00

Track gain : -2.92 dB
Peak : 0.780060
CRC32 hash (test run) : D071A64A
CRC32 hash : D071A64A
CRC32 hash (skip zero) : 9DE59CEB
AccurateRip v1 signature : A2942E13
AccurateRip v2 signature : 9ED31015 (9270CBD5 w/correction)
->Accurately ripped with different offset (v2, confidence 2/2, offset +18)
Statistics
Read error : 0
Jitter error (maybe fixed) : 0
Retry sector count : 0
Damaged sector count : 0

Track 02
Filename : /Users/Joanna/Desktop/Rips/Alice Coltrane - Ptah, the el dauod (1970)/02 Alice Coltrane - Turiya & Ramakrishna.flac
Pre-gap length : 00:04:62

Track gain : 0.01 dB
Peak : 0.635468
CRC32 hash (test run) : 077D3D6A
CRC32 hash : 077D3D6A
CRC32 hash (skip zero) : 3A018635
AccurateRip v1 signature : C49B0F1F
AccurateRip v2 signature : F548B1B8 (D100505A w/correction)
->Accurately ripped with different offset (v2, confidence 2/2, offset +18)
Statistics
Read error : 0
Jitter error (maybe fixed) : 0
Retry sector count : 0
Damaged sector count : 0

Track 03
Filename : /Users/Joanna/Desktop/Rips/Alice Coltrane - Ptah, the el dauod (1970)/03 Alice Coltrane - Blue Nile.flac
Pre-gap length : 00:04:62

Track gain : -1.41 dB
Peak : 0.609192
CRC32 hash (test run) : 0E501E7E
CRC32 hash : 0E501E7E
CRC32 hash (skip zero) : D3AA4B6B
AccurateRip v1 signature : 2B406FD3
AccurateRip v2 signature : 47292EF8 (4CE4AE7E w/correction)
->Accurately ripped with different offset (v2, confidence 2/2, offset +18)
Statistics
Read error : 0
Jitter error (maybe fixed) : 0
Retry sector count : 0
Damaged sector count : 0

Track 04
Filename : /Users/Joanna/Desktop/Rips/Alice Coltrane - Ptah, the el dauod (1970)/04 Alice Coltrane - Mantra.flac
Pre-gap length : 00:04:61

Track gain : -1.78 dB
Peak : 0.779602
CRC32 hash (test run) : 12D85D1E
CRC32 hash : 12D85D1E
CRC32 hash (skip zero) : 043CED89
AccurateRip v1 signature : E9A4A7E4
AccurateRip v2 signature : EB601D5D (60178009 w/correction)
->Accurately ripped with different offset (v2, confidence 2/2, offset +18)
Statistics
Read error : 0
Jitter error (maybe fixed) : 0
Retry sector count : 0
Damaged sector count : 0

No errors occurred

End of status report

––-BEGIN XLD SIGNATURE––-
CAfZSP4hyzoBwrNcW8ZPyeiq76UF.itLc4en3UqEaTidE9HyKdnkvmC21zo2d4zdj8TCzAkVMpgTM0_ia7V_DgQSs8wlp7IX6DA0A1i
––-END XLD SIGNATURE––-

Thanks to the Original ripper !