Tags
Language
Tags

Amadinda Percussion Group - Márta, Sáry, Cage, Reich, Ragtime, African Music (1987)

Posted By: delpotro
Amadinda Percussion Group - Márta, Sáry, Cage, Reich, Ragtime, African Music (1987)

Amadinda Percussion Group - Márta, Sáry, Cage, Reich, Ragtime, African Music (1987)
XLD Rip | FLAC (tracks+log+.cue) - 215 Mb | MP3 CBR 320 kbps - 141 Mb | 01:01:24
Classical | Label: Hungaroton Records

"Doll's House Story" composed 1985 for the Amadinda Percussion Group. "Pebble Playing In A Pot" composed 1978. "Second Construction" composed 1940. "Piano Phase" composed 1967. Digitally recorded in1986. Performing on a wide array of percussion instruments, including Polynesian log drums, Chinese gongs, tin cans, bicycle wheels, and frying pans, the Budapest-based Amadinda Percussion Group skillfully combine the masterpieces of percussion music, the work of contemporary Hungarian composers, and new compositions by bandmembers. Taking their name from an African-style instrument that they made themselves, the group continues to celebrate the joys of polyrhythmic music.

Graduates of the Ferenc Liszt Academy of Music, the members of the Amadinda Percussion Group rank among Hungary’s leading musicians. Artistic director Zoltan Racz, who teaches at the Liszt Academy, was a founding member and the principal tympanist for the Budapest Festival Orchestra, with whom he performed from 1992 until 1996. Zoltan Vaczi has established himself as an expert on the traditional music of Hungary. Aurel Hallo continues to teach at the Béla Bartók Conservatory of Music in Budapest. In addition to their own active schedule as performance and recording artists, the Amadinda Percussion Group has collaborated with John Cage, Bruno Canino, Peter Eötvös, Rosemary Hardy, András Keller, Zoltan Kocsis, György Kurtág, Andras Schiff, and mezzo-soprano Katalin Kàrolyi. During the Amadinda Percussion Group’s debut tour of North America in 1998, bandmembers presented master classes at the Juilliard Conservatory of Music and Yale University.
Tracklist:
1. Amadinda Percussion Group, Károly Bojtos, Zoltan Racz, Zsolt Sárkány & Zoltan Vaczi – Doll's House Story (1985) (12:54)
2. Amadinda Percussion Group, Károly Bojtos, Zoltan Racz, Zsolt Sárkány & Zoltan Vaczi – Pebble Playing in a Pot (1978) (08:06)
3. Amadinda Percussion Group, Károly Bojtos, Zoltan Racz, Zsolt Sárkány & Zoltan Vaczi – Second Construction (1940) (07:42)
4. Amadinda Percussion Group, Károly Bojtos, Zoltan Racz, Zsolt Sárkány & Zoltan Vaczi – Piano Phase (1967) (11:52)
5. Amadinda Percussion Group, Károly Bojtos, Zoltan Racz, Zsolt Sárkány & Zoltan Vaczi – Traditional African Music (04:11)
6. Amadinda Percussion Group, Károly Bojtos, Zoltan Racz, Zsolt Sárkány & Zoltan Vaczi – Log Cabin Blues (02:20)
7. Amadinda Percussion Group, Károly Bojtos, Zoltan Racz, Zsolt Sárkány & Zoltan Vaczi – Charleston Capers (02:31)
8. Amadinda Percussion Group, Károly Bojtos, Zoltan Racz, Zsolt Sárkány & Zoltan Vaczi – Traditional African Music (05:23)
9. Amadinda Percussion Group, Károly Bojtos, Zoltan Racz, Zsolt Sárkány & Zoltan Vaczi – Jovial Jasper (06:19)

X Lossless Decoder version 20181019 (151.1)

XLD extraction logfile from 2019-01-09 22:53:04 +0100

Amadinda Percussion Group / Márta, Sáry, Cage, Reich; Ragtimes, African Music

Used drive : PIONEER BD-RW BDR-XD05 (revision 3.01)
Media type : Pressed CD

Ripper mode : XLD Secure Ripper
Disable audio cache : OK for the drive with a cache less than 1375KiB
Make use of C2 pointers : NO
Read offset correction : 667
Max retry count : 100
Gap status : Analyzed, Appended (except HTOA)

TOC of the extracted CD
Track | Start | Length | Start sector | End sector
––––––––––––––––––––––––––––-
1 | 00:00:00 | 12:55:00 | 0 | 58124
2 | 12:55:00 | 08:06:12 | 58125 | 94586
3 | 21:01:12 | 07:42:48 | 94587 | 129284
4 | 28:43:60 | 11:52:52 | 129285 | 182736
5 | 40:36:37 | 04:11:18 | 182737 | 201579
6 | 44:47:55 | 02:21:02 | 201580 | 212156
7 | 47:08:57 | 02:31:73 | 212157 | 223554
8 | 49:40:55 | 05:23:37 | 223555 | 247816
9 | 55:04:17 | 06:19:70 | 247817 | 276311

List of alternate offset correction values
# | Absolute | Relative | Confidence
–––––––––––––––––––––
1 | -213 | -880 | 2

AccurateRip Summary (DiscID: 0018d02b-00ac8941-8a0e6409)
Track 01 : OK (v1+v2, confidence 2/4, with different offset)
Track 02 : OK (v1+v2, confidence 2/4, with different offset)
Track 03 : OK (v1+v2, confidence 2/4, with different offset)
Track 04 : OK (v1+v2, confidence 2/4, with different offset)
Track 05 : OK (v1+v2, confidence 2/4, with different offset)
Track 06 : OK (v1+v2, confidence 2/4, with different offset)
Track 07 : OK (v1+v2, confidence 2/4, with different offset)
Track 08 : OK (v1+v2, confidence 2/4, with different offset)
Track 09 : OK (v1+v2, confidence 2/4, with different offset)
->All tracks accurately ripped.

All Tracks
Album gain : 5.17 dB
Peak : 0.976379
Statistics
Read error : 0
Jitter error (maybe fixed) : 0
Retry sector count : 0
Damaged sector count : 0

Track 01
Filename : /Volumes/2TB archaeology/_pth ups/Amadinda - Cage, Márta, Sáry, Reich - Ragtime, African Music (Hungaroton)/01 Doll's House Story.flac
Pre-gap length : 00:02:00

Track gain : 5.50 dB
Peak : 0.976379
CRC32 hash (test run) : 926124F5
CRC32 hash : 926124F5
CRC32 hash (skip zero) : 8C183102
AccurateRip v1 signature : AD5DE7D1 (91983641 w/correction)
AccurateRip v2 signature : B5F941C6 (05B25C3A w/correction)
->Accurately ripped with different offset (v1+v2, confidence 1+1/4, offset -880)
Statistics
Read error : 0
Jitter error (maybe fixed) : 0
Retry sector count : 0
Damaged sector count : 0

Track 02
Filename : /Volumes/2TB archaeology/_pth ups/Amadinda - Cage, Márta, Sáry, Reich - Ragtime, African Music (Hungaroton)/02 Pebble Playing in a Pot.flac
Pre-gap length : 00:08:73

Track gain : 8.04 dB
Peak : 0.219330
CRC32 hash (test run) : 846F0B97
CRC32 hash : 846F0B97
CRC32 hash (skip zero) : 00B6BD2F
AccurateRip v1 signature : DE69780D (0D30254D w/correction)
AccurateRip v2 signature : 33EC9C84 (984CC79E w/correction)
->Accurately ripped with different offset (v1+v2, confidence 1+1/4, offset -880)
Statistics
Read error : 0
Jitter error (maybe fixed) : 0
Retry sector count : 0
Damaged sector count : 0

Track 03
Filename : /Volumes/2TB archaeology/_pth ups/Amadinda - Cage, Márta, Sáry, Reich - Ragtime, African Music (Hungaroton)/03 Second Construction.flac
Pre-gap length : 00:10:07

Track gain : 9.75 dB
Peak : 0.501160
CRC32 hash (test run) : D650A9C0
CRC32 hash : D650A9C0
CRC32 hash (skip zero) : 52AF050D
AccurateRip v1 signature : B38548F8 (AB64B638 w/correction)
AccurateRip v2 signature : EEFA17C3 (2EE115F6 w/correction)
->Accurately ripped with different offset (v1+v2, confidence 1+1/4, offset -880)
Statistics
Read error : 0
Jitter error (maybe fixed) : 0
Retry sector count : 0
Damaged sector count : 0

Track 04
Filename : /Volumes/2TB archaeology/_pth ups/Amadinda - Cage, Márta, Sáry, Reich - Ragtime, African Music (Hungaroton)/04 Piano Phase.flac
Pre-gap length : 00:09:03

Track gain : 7.12 dB
Peak : 0.278839
CRC32 hash (test run) : 4D77DA28
CRC32 hash : 4D77DA28
CRC32 hash (skip zero) : 19817634
AccurateRip v1 signature : DDF7E1E6 (4EC6DAE6 w/correction)
AccurateRip v2 signature : 870A8B90 (39882E1C w/correction)
->Accurately ripped with different offset (v1+v2, confidence 1+1/4, offset -880)
Statistics
Read error : 0
Jitter error (maybe fixed) : 0
Retry sector count : 0
Damaged sector count : 0

Track 05
Filename : /Volumes/2TB archaeology/_pth ups/Amadinda - Cage, Márta, Sáry, Reich - Ragtime, African Music (Hungaroton)/05 Traditional African Music.flac
Pre-gap length : 00:08:00

Track gain : 5.06 dB
Peak : 0.608612
CRC32 hash (test run) : 6C619D77
CRC32 hash : 6C619D77
CRC32 hash (skip zero) : 836E9FF2
AccurateRip v1 signature : 3EEC6B55 (3568B525 w/correction)
AccurateRip v2 signature : 1B9A5400 (431B4C1E w/correction)
->Accurately ripped with different offset (v1+v2, confidence 1+1/4, offset -880)
Statistics
Read error : 0
Jitter error (maybe fixed) : 0
Retry sector count : 0
Damaged sector count : 0

Track 06
Filename : /Volumes/2TB archaeology/_pth ups/Amadinda - Cage, Márta, Sáry, Reich - Ragtime, African Music (Hungaroton)/06 Log Cabin Blues.flac
Pre-gap length : 00:08:05

Track gain : 3.69 dB
Peak : 0.573334
CRC32 hash (test run) : 6C844C37
CRC32 hash : 6C844C37
CRC32 hash (skip zero) : 3D0FE3E2
AccurateRip v1 signature : 4A7796E9 (5BDBF026 w/correction)
AccurateRip v2 signature : DD52E0FB (D5F8DE93 w/correction)
->Accurately ripped with different offset (v1+v2, confidence 1+1/4, offset -880)
Statistics
Read error : 0
Jitter error (maybe fixed) : 0
Retry sector count : 0
Damaged sector count : 0

Track 07
Filename : /Volumes/2TB archaeology/_pth ups/Amadinda - Cage, Márta, Sáry, Reich - Ragtime, African Music (Hungaroton)/07 Charleston Capers.flac

Track gain : 3.48 dB
Peak : 0.610260
CRC32 hash (test run) : AE82969D
CRC32 hash : AE82969D
CRC32 hash (skip zero) : 578917E3
AccurateRip v1 signature : ED398859 (BA3CE75C w/correction)
AccurateRip v2 signature : 110A6106 (96D3FA67 w/correction)
->Accurately ripped with different offset (v1+v2, confidence 1+1/4, offset -880)
Statistics
Read error : 0
Jitter error (maybe fixed) : 0
Retry sector count : 0
Damaged sector count : 0

Track 08
Filename : /Volumes/2TB archaeology/_pth ups/Amadinda - Cage, Márta, Sáry, Reich - Ragtime, African Music (Hungaroton)/08 Traditional African Music.flac
Pre-gap length : 00:02:55

Track gain : 1.71 dB
Peak : 0.785583
CRC32 hash (test run) : 6A491736
CRC32 hash : 6A491736
CRC32 hash (skip zero) : C185FC65
AccurateRip v1 signature : 7A2F83E5 (A51DE855 w/correction)
AccurateRip v2 signature : 3B173880 (F1B81C11 w/correction)
->Accurately ripped with different offset (v1+v2, confidence 1+1/4, offset -880)
Statistics
Read error : 0
Jitter error (maybe fixed) : 0
Retry sector count : 0
Damaged sector count : 0

Track 09
Filename : /Volumes/2TB archaeology/_pth ups/Amadinda - Cage, Márta, Sáry, Reich - Ragtime, African Music (Hungaroton)/09 Jovial Jasper.flac
Pre-gap length : 00:05:02

Track gain : 3.68 dB
Peak : 0.555664
CRC32 hash (test run) : 8E901076
CRC32 hash : 8E901076
CRC32 hash (skip zero) : B2AD52F8
AccurateRip v1 signature : 69A2C72E (2C0E6C8E w/correction)
AccurateRip v2 signature : F0B946EB (84CA3CB4 w/correction)
->Accurately ripped with different offset (v1+v2, confidence 1+1/4, offset -880)
Statistics
Read error : 0
Jitter error (maybe fixed) : 0
Retry sector count : 0
Damaged sector count : 0

No errors occurred

End of status report

––-BEGIN XLD SIGNATURE––-
fydKE097lNyH3HRx3HqCT7wAGMlHuaTVuYCmjd.xStND8X2.YyHQtwR_oLvg6dAvJE4Ri5yVi_1b5gDuEhvtTDYfnniBTGbIi45t0ku
––-END XLD SIGNATURE––-

Thanks to the Original ripper !