Tags
Language
Tags

Anna Vissi - Back to Time - Complete EMI Years (2007) {4CD Set EMI-Capitol 5099951042929 rec 1974-1982}

Posted By: ruskaval
Anna Vissi - Back to Time - Complete EMI Years (2007) {4CD Set EMI-Capitol 5099951042929 rec 1974-1982}

Anna Vissi - Back to Time - Complete EMI Years (2007) {4CD Set EMI-Capitol 5099951042929 rec 1974-1982}
EAC rip (secure mode) | FLAC (tracks)+CUE+LOG -> 1.45 Gb | MP3 @320 -> 509 Mb
Full Artwork @ 300 dpi (png) -> 169 Mb | 5% repair rar
© 1974-82, 2007 Minos-EMI / Capitol Original Masters | 50999 510429 2 9
Pop / International / Modern Laïko / Greek / Mediterranean Traditions / Blues

Back to Time (Complete EMI Years) is a compilation album by Greek singer Anna Vissi, including the whole recordings which are now back catalogue items of Minos EMI. It is part of Minos EMI's special edition "EMI Years" compilations of early recordings by artists which were either signed to them directly or of releases which have since become part of their back catalogue.
Anna Vissi - Back to Time - Complete EMI Years (2007) {4CD Set EMI-Capitol 5099951042929 rec 1974-1982}

The recordings include most of her recordings under her signings with Minos (1974–1978), a company which was bought out by EMI to form Minos EMI in the 1990s, and Columbia EMI Greece (1978–1982).

When the collection was released in October 2007, it peaked at position 34. 5 years later, in October 2012 it was re-released in a new box, with a cheaper price and the album re-entered the Greek charts with a new peak at number 8 (week 43 of the year 2012). The following week the album moved up a position, creating a new peak, at number 7.
Anna Vissi - Back to Time - Complete EMI Years (2007) {4CD Set EMI-Capitol 5099951042929 rec 1974-1982}


Track Listing

CD 1 - The Hit Singles & Remixes: (00:53:42)

01. Oso Eho Foni (Revival Mix) (03:26)
02. Aftos Pou Perimeno (Anna's Dream Mix) (04:25)
03. Kalimera Kenourgia Mou Agapi (02:34)
04. Poso S' Agapo (03:32)
05. Horis Esena Ego Den Kano (03:01)
06. Thelo Mono Esena (02:34)
07. Tha Borousa (03:34)
08. Ine Stigmes (02:43)
09. Ta Matia Ta Dika Mou (03:00)
10. Den Ime Monahi (Wherever You Are Going) (02:55)
11. Oso Eho Foni (Album Version) (02:23)
12. Aftos Pou Perimeno (Album Version) (02:30)
13. Mi Stenahoriese Ki Ehi O Theos (02:16)
14. Kitrino, Galazio Ke Menexedi (02:23)
15. Methismeni Politia (03:36)
16. Autostop (Oto Stop) (03:04)
17. Aftos Pou Perimeno (Dream in the House Mix) (02:27)
18. Oso Eho Foni (Club Mix) (03:19)

Anna Vissi - Back to Time - Complete EMI Years (2007) {4CD Set EMI-Capitol 5099951042929 rec 1974-1982}


CD 2 - Love Songs & Ballads: (00:56:22)
01. Mono I Agapi (Love Is a Lonely Weekend) (02:45)
02. To Xero Tha 'rthis Xana (Woman in Love) (04:01)
03. Ma Itan Psemata (Un Po Di Piu) (04:12)
04. Hanome (03:10)
05. Xehase Me (03:06)
06. Se Lipame (03:16)
07. Kles Esi Ke Pono (Je Reviens De Chercher) (02:35)
08. Ma De Fovame (03:08)
09. Milise Mou (02:54)
10. Vres Ton Tropo (03:37)
11. Agapi Mou (02:57)
12. An Toulahiston (02:50)
13. M' Agapas (02:27)
14. Krivame Tin Agapi Mas (02:44)
15. S' Agapo (03:24)
16. Dipsasa Stin Porta Sou (04:05)
17. Gia Tin Agapi Pes Mou (02:27)
18. Paramythi Xehasmeno (02:44)

Anna Vissi - Back to Time - Complete EMI Years (2007) {4CD Set EMI-Capitol 5099951042929 rec 1974-1982}


CD 3 - The Rest of the Best: (00:49:25)
01. Ela Na Zisoume (03:08)
02. Xanazo (03:24)
03. Gi Afto Sou Leo Mi (02:23)
04. Ti Me Rotas (02:21)
05. Na I Zoi (02:58)
06. M' Agapouses Kapou-Kapou (02:38)
07. Kegete O Kosmos, Kegete (02:55)
08. Ti Ta Thelis Lipon (02:37)
09. Diskolos Keros (02:16)
10. Ki Esi Milas (02:22)
11. Tote Tha Figo (02:41)
12. Giati Gelas (02:21)
13. Oute Ena S' Agapo (02:16)
14. San Ta Pinasmena Peristeria (02:38)
15. O, Maria (02:26)
16. O Kirios Nobel (02:59)
17. Nikisame (03:43)
18. To Etos Tou Pediou (03:19)

Anna Vissi - Back to Time - Complete EMI Years (2007) {4CD Set EMI-Capitol 5099951042929 rec 1974-1982}


CD 4 - Early Years & the First Recordings: (00:58:29)
01. As Kanoume Apopse Mia Arhi (03:47)
02. Agapise Me (02:46)
03. Na 'mouna Sta Heria Sou Karavi (02:15)
04. I Kyklades (03:52)
05. I Nikimeni Imaste Emis (03:21)
06. Mi Vazis Mavro (02:47)
07. Kladi Rodias (03:08)
08. Apo 'do Ki Apo 'ki (02:56)
09. Sou 'dosa Na Piis (03:04)
10. Gia Sas Triandafilla (02:51)
11. I Agapi Sou Sholio (02:19)
12. To Tali-Bo (03:29)
13. Ilie Mou (02:15)
14. To Palio T' Aeroplano (02:56)
15. Savvatiatika (02:42)
16. To Palikari (03:17)
17. Mia Mikri Psihoula (03:06)
18. Thelo (02:33)
19. Krasi, Thalassa Ke T' Agori Mou (02:56)
20. Ego Ime Ego (02:09)

Anna Vissi - Back to Time - Complete EMI Years (2007) {4CD Set EMI-Capitol 5099951042929 rec 1974-1982}


Exact Audio Copy V1.3 from 2. September 2016

EAC extraction logfile from 23. February 2017, 20:44

Anna Vissi / CD1 - The Hit Singles & Remixes

Used drive : TSSTcorpCDDVDW SE-S224Q Adapter: 1 ID: 3

Read mode : Secure
Utilize accurate stream : Yes
Defeat audio cache : Yes
Make use of C2 pointers : No

Read offset correction : 6
Overread into Lead-In and Lead-Out : No
Fill up missing offset samples with silence : Yes
Delete leading and trailing silent blocks : No
Null samples used in CRC calculations : Yes
Used interface : Native Win32 interface for Win NT & 2000
Gap handling : Appended to previous track

Used output format : User Defined Encoder
Selected bitrate : 128 kBit/s
Quality : High
Add ID3 tag : No
Command line compressor : C:\Program Files\Exact Audio Copy\Flac\flac.exe
Additional command line options : -8 -V -T "ARTIST=%artist%" -T "TITLE=%title%" -T "ALBUM=%albumtitle%" -T "DATE=%year%" -T "TRACKNUMBER=%tracknr%" -T "TOTALTRACKS=%numtracks%" -T "GENRE=%genre%" -T "ALBUMARTIST=%albumartist%" -T "ALBUM ARTIST=%albumartist%" -T "COMMENT=EAC Secure Mode, Test & Copy, AccurateRip, FLAC -8" %source%


TOC of the extracted CD

Track | Start | Length | Start sector | End sector
––––––––––––––––––––––––––––-
1 | 0:00.00 | 3:25.47 | 0 | 15421
2 | 3:25.47 | 4:24.44 | 15422 | 35265
3 | 7:50.16 | 2:34.36 | 35266 | 46851
4 | 10:24.52 | 3:31.74 | 46852 | 62750
5 | 13:56.51 | 3:00.59 | 62751 | 76309
6 | 16:57.35 | 2:34.10 | 76310 | 87869
7 | 19:31.45 | 3:34.25 | 87870 | 103944
8 | 23:05.70 | 2:43.31 | 103945 | 116200
9 | 25:49.26 | 2:59.50 | 116201 | 129675
10 | 28:49.01 | 2:55.02 | 129676 | 142802
11 | 31:44.03 | 2:23.16 | 142803 | 153543
12 | 34:07.19 | 2:29.69 | 153544 | 164787
13 | 36:37.13 | 2:15.58 | 164788 | 174970
14 | 38:52.71 | 2:23.31 | 174971 | 185726
15 | 41:16.27 | 3:36.09 | 185727 | 201935
16 | 44:52.36 | 3:03.39 | 201936 | 215699
17 | 47:56.00 | 2:27.18 | 215700 | 226742
18 | 50:23.18 | 3:19.15 | 226743 | 241682


Track 1

Filename C:\CSHK\01 - Anna Vissi - Oso Eho Foni (Revival Mix).wav

Pre-gap length 0:00:02.00

Peak level 99.9 %
Extraction speed 2.8 X
Track quality 100.0 %
Test CRC DBA0F592
Copy CRC DBA0F592
Accurately ripped (confidence 1) [395F44F7] (AR v2)
Copy OK

Track 2

Filename C:\CSHK\02 - Anna Vissi - Aftos Pou Perimeno (Anna's Dream Mix).wav

Pre-gap length 0:00:02.00

Peak level 99.9 %
Extraction speed 2.5 X
Track quality 99.9 %
Test CRC 7354A6F8
Copy CRC 7354A6F8
Accurately ripped (confidence 1) [30BB4974] (AR v2)
Copy OK

Track 3

Filename C:\CSHK\03 - Anna Vissi - Kalimera Kenourgia Mou Agapi.wav

Pre-gap length 0:00:02.00

Peak level 91.1 %
Extraction speed 3.0 X
Track quality 100.0 %
Test CRC 69523D0E
Copy CRC 69523D0E
Accurately ripped (confidence 1) [F1F11E30] (AR v2)
Copy OK

Track 4

Filename C:\CSHK\04 - Anna Vissi - Poso S' Agapo.wav

Pre-gap length 0:00:02.00

Peak level 91.1 %
Extraction speed 3.4 X
Track quality 100.0 %
Test CRC 61774356
Copy CRC 61774356
Accurately ripped (confidence 1) [D89D4ACD] (AR v2)
Copy OK

Track 5

Filename C:\CSHK\05 - Anna Vissi - Horis Esena Ego Den Kano.wav

Pre-gap length 0:00:02.00

Peak level 91.1 %
Extraction speed 3.5 X
Track quality 100.0 %
Test CRC 8C72C57D
Copy CRC 8C72C57D
Accurately ripped (confidence 1) [5F551D6F] (AR v2)
Copy OK

Track 6

Filename C:\CSHK\06 - Anna Vissi - Thelo Mono Esena.wav

Pre-gap length 0:00:02.00

Peak level 91.1 %
Extraction speed 3.5 X
Track quality 100.0 %
Test CRC D98DB9DD
Copy CRC D98DB9DD
Accurately ripped (confidence 1) [1A8BBFEA] (AR v2)
Copy OK

Track 7

Filename C:\CSHK\07 - Anna Vissi - Tha Borousa.wav

Pre-gap length 0:00:02.00

Peak level 91.1 %
Extraction speed 3.9 X
Track quality 100.0 %
Test CRC E01267E4
Copy CRC E01267E4
Accurately ripped (confidence 1) [A641991E] (AR v2)
Copy OK

Track 8

Filename C:\CSHK\08 - Anna Vissi - Ine Stigmes.wav

Pre-gap length 0:00:02.00

Peak level 91.1 %
Extraction speed 3.9 X
Track quality 100.0 %
Test CRC 103909CC
Copy CRC 103909CC
Accurately ripped (confidence 1) [98AE8C80] (AR v2)
Copy OK

Track 9

Filename C:\CSHK\09 - Anna Vissi - Ta Matia Ta Dika Mou.wav

Pre-gap length 0:00:02.00

Peak level 91.1 %
Extraction speed 4.0 X
Track quality 100.0 %
Test CRC E0125D96
Copy CRC E0125D96
Accurately ripped (confidence 1) [7A973CE7] (AR v2)
Copy OK

Track 10

Filename C:\CSHK\10 - Anna Vissi - Den Ime Monahi (Wherever You Are Going).wav

Pre-gap length 0:00:02.00

Peak level 91.1 %
Extraction speed 4.2 X
Track quality 100.0 %
Test CRC 24703261
Copy CRC 24703261
Accurately ripped (confidence 1) [DA3AB238] (AR v2)
Copy OK

Track 11

Filename C:\CSHK\11 - Anna Vissi - Oso Eho Foni (Album Version).wav

Pre-gap length 0:00:02.00

Peak level 91.2 %
Extraction speed 4.1 X
Track quality 100.0 %
Test CRC FE9756B9
Copy CRC FE9756B9
Accurately ripped (confidence 1) [8FC106FF] (AR v2)
Copy OK

Track 12

Filename C:\CSHK\12 - Anna Vissi - Aftos Pou Perimeno (Album Version).wav

Pre-gap length 0:00:02.00

Peak level 91.1 %
Extraction speed 4.2 X
Track quality 100.0 %
Test CRC 0C1C846A
Copy CRC 0C1C846A
Accurately ripped (confidence 1) [05E77C4C] (AR v2)
Copy OK

Track 13

Filename C:\CSHK\13 - Anna Vissi - Mi Stenahoriese Ki Ehi O Theos.wav

Pre-gap length 0:00:02.00

Peak level 91.1 %
Extraction speed 2.3 X
Track quality 99.9 %
Test CRC CF2EDBBC
Copy CRC CF2EDBBC
Accurately ripped (confidence 1) [5E20DE8F] (AR v2)
Copy OK

Track 14

Filename C:\CSHK\14 - Anna Vissi - Kitrino, Galazio Ke Menexedi.wav

Pre-gap length 0:00:02.00

Peak level 91.1 %
Extraction speed 2.4 X
Track quality 99.9 %
Test CRC 0CA7014A
Copy CRC 0CA7014A
Accurately ripped (confidence 1) [A79D3CB8] (AR v2)
Copy OK

Track 15

Filename C:\CSHK\15 - Anna Vissi - Methismeni Politia.wav

Pre-gap length 0:00:02.00

Peak level 91.1 %
Extraction speed 3.0 X
Track quality 99.9 %
Test CRC C07F12F4
Copy CRC C07F12F4
Accurately ripped (confidence 1) [B5D0A24C] (AR v2)
Copy OK

Track 16

Filename C:\CSHK\16 - Anna Vissi & Epikouri - Autostop (Oto Stop).wav

Pre-gap length 0:00:02.00

Peak level 99.9 %
Extraction speed 4.8 X
Track quality 100.0 %
Test CRC 15744B3B
Copy CRC 15744B3B
Accurately ripped (confidence 1) [0FCCED81] (AR v2)
Copy OK

Track 17

Filename C:\CSHK\17 - Anna Vissi - Aftos Pou Perimeno (Dream in the House Mix).wav

Pre-gap length 0:00:02.00

Peak level 99.9 %
Extraction speed 4.7 X
Track quality 100.0 %
Test CRC C9B2D6BD
Copy CRC C9B2D6BD
Accurately ripped (confidence 1) [762E743D] (AR v2)
Copy OK

Track 18

Filename C:\CSHK\18 - Anna Vissi - Oso Eho Foni (Club Mix).wav

Pre-gap length 0:00:02.00

Peak level 99.9 %
Extraction speed 2.9 X
Track quality 99.9 %
Test CRC 55873E65
Copy CRC 55873E65
Accurately ripped (confidence 1) [EEF07706] (AR v2)
Copy OK


All tracks accurately ripped

No errors occurred

End of status report

==== Log checksum 1ED15BD909420B4DDA51A7BED15FBF64FEDCA59ED95F76B46F83113DB649DCC0 ====
Exact Audio Copy V1.3 from 2. September 2016

EAC extraction logfile from 23. February 2017, 23:58

Anna Vissi / CD2 - Love Songs & Ballads

Used drive : TSSTcorpCDDVDW SE-S224Q Adapter: 1 ID: 3

Read mode : Secure
Utilize accurate stream : Yes
Defeat audio cache : Yes
Make use of C2 pointers : No

Read offset correction : 6
Overread into Lead-In and Lead-Out : No
Fill up missing offset samples with silence : Yes
Delete leading and trailing silent blocks : No
Null samples used in CRC calculations : Yes
Used interface : Native Win32 interface for Win NT & 2000
Gap handling : Appended to previous track

Used output format : User Defined Encoder
Selected bitrate : 128 kBit/s
Quality : High
Add ID3 tag : No
Command line compressor : C:\Program Files\Exact Audio Copy\Flac\flac.exe
Additional command line options : -8 -V -T "ARTIST=%artist%" -T "TITLE=%title%" -T "ALBUM=%albumtitle%" -T "DATE=%year%" -T "TRACKNUMBER=%tracknr%" -T "TOTALTRACKS=%numtracks%" -T "GENRE=%genre%" -T "ALBUMARTIST=%albumartist%" -T "ALBUM ARTIST=%albumartist%" -T "COMMENT=EAC Secure Mode, Test & Copy, AccurateRip, FLAC -8" %source%


TOC of the extracted CD

Track | Start | Length | Start sector | End sector
––––––––––––––––––––––––––––-
1 | 0:00.00 | 2:45.01 | 0 | 12375
2 | 2:45.01 | 4:01.05 | 12376 | 30455
3 | 6:46.06 | 4:11.60 | 30456 | 49340
4 | 10:57.66 | 3:10.36 | 49341 | 63626
5 | 14:08.27 | 3:06.13 | 63627 | 77589
6 | 17:14.40 | 3:15.71 | 77590 | 92285
7 | 20:30.36 | 2:35.09 | 92286 | 103919
8 | 23:05.45 | 3:08.36 | 103920 | 118055
9 | 26:14.06 | 2:53.48 | 118056 | 131078
10 | 29:07.54 | 3:37.08 | 131079 | 147361
11 | 32:44.62 | 2:56.58 | 147362 | 160619
12 | 35:41.45 | 2:50.06 | 160620 | 173375
13 | 38:31.51 | 2:26.74 | 173376 | 184399
14 | 40:58.50 | 2:44.24 | 184400 | 196723
15 | 43:42.74 | 3:23.58 | 196724 | 212006
16 | 47:06.57 | 4:05.03 | 212007 | 230384
17 | 51:11.60 | 2:27.35 | 230385 | 241444
18 | 53:39.20 | 2:43.66 | 241445 | 253735


Track 1

Filename C:\CSHK\01 - Mono I Agapi (Love Is a Lonely Weekend).wav

Pre-gap length 0:00:02.00

Peak level 99.9 %
Extraction speed 1.9 X
Track quality 99.9 %
Test CRC 2E2B7D85
Copy CRC 2E2B7D85
Accurately ripped (confidence 1) [844F1422] (AR v2)
Copy OK

Track 2

Filename C:\CSHK\02 - To Xero Tha 'rthis Xana (Woman in Love).wav

Peak level 91.1 %
Extraction speed 3.0 X
Track quality 100.0 %
Test CRC 487253FF
Copy CRC 487253FF
Accurately ripped (confidence 1) [F16223AF] (AR v2)
Copy OK

Track 3

Filename C:\CSHK\03 - Ma Itan Psemata (Un Po Di Piu).wav

Peak level 91.1 %
Extraction speed 3.3 X
Track quality 100.0 %
Test CRC 9A864637
Copy CRC 9A864637
Accurately ripped (confidence 1) [39CB0184] (AR v2)
Copy OK

Track 4

Filename C:\CSHK\04 - Hanome.wav

Peak level 91.1 %
Extraction speed 3.4 X
Track quality 100.0 %
Test CRC 0E7630C4
Copy CRC 0E7630C4
Accurately ripped (confidence 1) [EDFE51B0] (AR v2)
Copy OK

Track 5

Filename C:\CSHK\05 - Xehase Me.wav

Peak level 91.1 %
Extraction speed 3.5 X
Track quality 100.0 %
Test CRC 3353C110
Copy CRC 3353C110
Accurately ripped (confidence 1) [CED8EF23] (AR v2)
Copy OK

Track 6

Filename C:\CSHK\06 - Se Lipame.wav

Peak level 91.1 %
Extraction speed 3.7 X
Track quality 100.0 %
Test CRC B5BD413E
Copy CRC B5BD413E
Accurately ripped (confidence 1) [E20D21F7] (AR v2)
Copy OK

Track 7

Filename C:\CSHK\07 - Kles Esi Ke Pono (Je Reviens De Chercher).wav

Peak level 91.1 %
Extraction speed 3.7 X
Track quality 100.0 %
Test CRC 727DB60F
Copy CRC 727DB60F
Accurately ripped (confidence 1) [708BFB3C] (AR v2)
Copy OK

Track 8

Filename C:\CSHK\08 - Ma De Fovame.wav

Peak level 91.2 %
Extraction speed 3.9 X
Track quality 100.0 %
Test CRC EDC41BD9
Copy CRC EDC41BD9
Accurately ripped (confidence 1) [55294D12] (AR v2)
Copy OK

Track 9

Filename C:\CSHK\09 - Milise Mou.wav

Peak level 91.1 %
Extraction speed 2.5 X
Track quality 99.9 %
Test CRC 51807043
Copy CRC 51807043
Accurately ripped (confidence 1) [B1E53518] (AR v2)
Copy OK

Track 10

Filename C:\CSHK\10 - Vres Ton Tropo.wav

Peak level 91.1 %
Extraction speed 2.9 X
Track quality 99.9 %
Test CRC 12F37BAA
Copy CRC 12F37BAA
Accurately ripped (confidence 1) [ADA72906] (AR v2)
Copy OK

Track 11

Filename C:\CSHK\11 - Agapi Mou.wav

Peak level 91.1 %
Extraction speed 4.3 X
Track quality 100.0 %
Test CRC 0E36C32A
Copy CRC 0E36C32A
Accurately ripped (confidence 1) [0CA5A164] (AR v2)
Copy OK

Track 12

Filename C:\CSHK\12 - An Toulahiston.wav

Peak level 91.1 %
Extraction speed 4.5 X
Track quality 100.0 %
Test CRC 9AFACF7D
Copy CRC 9AFACF7D
Accurately ripped (confidence 1) [F6252B28] (AR v2)
Copy OK

Track 13

Filename C:\CSHK\13 - M' Agapas.wav

Peak level 91.1 %
Extraction speed 4.4 X
Track quality 100.0 %
Test CRC 3C0C2D7E
Copy CRC 3C0C2D7E
Accurately ripped (confidence 1) [1EC27AA7] (AR v2)
Copy OK

Track 14

Filename C:\CSHK\14 - Krivame Tin Agapi Mas.wav

Peak level 91.1 %
Extraction speed 2.6 X
Track quality 99.9 %
Test CRC 31193FA5
Copy CRC 31193FA5
Accurately ripped (confidence 1) [703F6C4B] (AR v2)
Copy OK

Track 15

Filename C:\CSHK\15 - S' Agapo.wav

Peak level 91.1 %
Extraction speed 4.9 X
Track quality 100.0 %
Test CRC 3A5D38D4
Copy CRC 3A5D38D4
Accurately ripped (confidence 1) [F6A20349] (AR v2)
Copy OK

Track 16

Filename C:\CSHK\16 - Dipsasa Stin Porta Sou.wav

Peak level 91.1 %
Extraction speed 3.3 X
Track quality 99.9 %
Test CRC C04D93EE
Copy CRC C04D93EE
Accurately ripped (confidence 1) [7B7D63EB] (AR v2)
Copy OK

Track 17

Filename C:\CSHK\17 - Gia Tin Agapi Pes Mou.wav

Peak level 91.1 %
Extraction speed 4.8 X
Track quality 100.0 %
Test CRC C1B369F9
Copy CRC C1B369F9
Accurately ripped (confidence 1) [15BBDF5B] (AR v2)
Copy OK

Track 18

Filename C:\CSHK\18 - Paramythi Xehasmeno.wav

Peak level 91.1 %
Extraction speed 5.0 X
Track quality 100.0 %
Test CRC D9401DA4
Copy CRC D9401DA4
Accurately ripped (confidence 1) [CF422FD3] (AR v2)
Copy OK


All tracks accurately ripped

No errors occurred

End of status report

==== Log checksum 7928472EC2F6D4856DDECC226959292E271AAD36565979437C70A53A641839EC ====
Exact Audio Copy V1.3 from 2. September 2016

EAC extraction logfile from 24. February 2017, 1:23

Anna Vissi / CD3 - The Rest of the Best

Used drive : TSSTcorpCDDVDW SE-S224Q Adapter: 1 ID: 3

Read mode : Secure
Utilize accurate stream : Yes
Defeat audio cache : Yes
Make use of C2 pointers : No

Read offset correction : 6
Overread into Lead-In and Lead-Out : No
Fill up missing offset samples with silence : Yes
Delete leading and trailing silent blocks : No
Null samples used in CRC calculations : Yes
Used interface : Native Win32 interface for Win NT & 2000
Gap handling : Appended to previous track

Used output format : User Defined Encoder
Selected bitrate : 128 kBit/s
Quality : High
Add ID3 tag : No
Command line compressor : C:\Program Files\Exact Audio Copy\Flac\flac.exe
Additional command line options : -8 -V -T "ARTIST=%artist%" -T "TITLE=%title%" -T "ALBUM=%albumtitle%" -T "DATE=%year%" -T "TRACKNUMBER=%tracknr%" -T "TOTALTRACKS=%numtracks%" -T "GENRE=%genre%" -T "ALBUMARTIST=%albumartist%" -T "ALBUM ARTIST=%albumartist%" -T "COMMENT=EAC Secure Mode, Test & Copy, AccurateRip, FLAC -8" %source%


TOC of the extracted CD

Track | Start | Length | Start sector | End sector
––––––––––––––––––––––––––––-
1 | 0:00.00 | 3:08.16 | 0 | 14115
2 | 3:08.16 | 3:24.19 | 14116 | 29434
3 | 6:32.35 | 2:23.13 | 29435 | 40172
4 | 8:55.48 | 2:20.47 | 40173 | 50719
5 | 11:16.20 | 2:57.41 | 50720 | 64035
6 | 14:13.61 | 2:38.07 | 64036 | 75892
7 | 16:51.68 | 2:54.39 | 75893 | 88981
8 | 19:46.32 | 2:37.09 | 88982 | 100765
9 | 22:23.41 | 2:15.70 | 100766 | 110960
10 | 24:39.36 | 2:22.08 | 110961 | 121618
11 | 27:01.44 | 2:41.25 | 121619 | 133718
12 | 29:42.69 | 2:21.18 | 133719 | 144311
13 | 32:04.12 | 2:15.51 | 144312 | 154487
14 | 34:19.63 | 2:37.57 | 154488 | 166319
15 | 36:57.45 | 2:25.47 | 166320 | 177241
16 | 39:23.17 | 2:58.53 | 177242 | 190644
17 | 42:21.70 | 3:42.46 | 190645 | 207340
18 | 46:04.41 | 3:18.74 | 207341 | 222264


Track 1

Filename C:\CSHK\01 - Anna Vissi - Ela Na Zisoume.wav

Pre-gap length 0:00:02.00

Peak level 91.1 %
Extraction speed 1.7 X
Track quality 99.9 %
Test CRC 6D145C7A
Copy CRC 6D145C7A
Accurately ripped (confidence 1) [7FE8B913] (AR v2)
Copy OK

Track 2

Filename C:\CSHK\02 - Anna Vissi - Xanazo.wav

Peak level 91.1 %
Extraction speed 2.1 X
Track quality 100.0 %
Test CRC D388EFBE
Copy CRC D388EFBE
Accurately ripped (confidence 1) [156A3069] (AR v2)
Copy OK

Track 3

Filename C:\CSHK\03 - Anna Vissi - Gi Afto Sou Leo Mi.wav

Peak level 91.1 %
Extraction speed 1.9 X
Track quality 100.0 %
Test CRC 6E2F6FA9
Copy CRC 6E2F6FA9
Accurately ripped (confidence 1) [5C0E1261] (AR v2)
Copy OK

Track 4

Filename C:\CSHK\04 - Anna Vissi - Ti Me Rotas.wav

Peak level 91.1 %
Extraction speed 1.9 X
Track quality 100.0 %
Test CRC 5EABDB4B
Copy CRC 5EABDB4B
Accurately ripped (confidence 1) [09EFC779] (AR v2)
Copy OK

Track 5

Filename C:\CSHK\05 - Anna Vissi - Na I Zoi.wav

Peak level 91.2 %
Extraction speed 2.0 X
Track quality 100.0 %
Test CRC 5F17940E
Copy CRC 5F17940E
Accurately ripped (confidence 1) [5D053B5A] (AR v2)
Copy OK

Track 6

Filename C:\CSHK\06 - Anna Vissi - M' Agapouses Kapou-Kapou.wav

Peak level 91.2 %
Extraction speed 2.0 X
Track quality 100.0 %
Test CRC BC12C3FB
Copy CRC BC12C3FB
Accurately ripped (confidence 1) [29598D9A] (AR v2)
Copy OK

Track 7

Filename C:\CSHK\07 - Anna Vissi - Kegete O Kosmos, Kegete.wav

Peak level 91.1 %
Extraction speed 2.0 X
Track quality 100.0 %
Test CRC 25199978
Copy CRC 25199978
Accurately ripped (confidence 1) [F1402DCC] (AR v2)
Copy OK

Track 8

Filename C:\CSHK\08 - Anna Vissi - Ti Ta Thelis Lipon.wav

Peak level 91.1 %
Extraction speed 2.0 X
Track quality 100.0 %
Test CRC 90F1254C
Copy CRC 90F1254C
Accurately ripped (confidence 1) [FF01768F] (AR v2)
Copy OK

Track 9

Filename C:\CSHK\09 - Anna Vissi - Diskolos Keros.wav

Peak level 91.1 %
Extraction speed 1.8 X
Track quality 100.0 %
Test CRC 21132BB2
Copy CRC 21132BB2
Accurately ripped (confidence 1) [A62A1103] (AR v2)
Copy OK

Track 10

Filename C:\CSHK\10 - Anna Vissi - Ki Esi Milas.wav

Peak level 91.1 %
Extraction speed 1.6 X
Track quality 99.9 %
Test CRC F7F00BE8
Copy CRC F7F00BE8
Accurately ripped (confidence 1) [5BB93C8D] (AR v2)
Copy OK

Track 11

Filename C:\CSHK\11 - Anna Vissi - Tote Tha Figo.wav

Peak level 91.1 %
Extraction speed 1.6 X
Track quality 99.9 %
Test CRC B148BC19
Copy CRC B148BC19
Accurately ripped (confidence 1) [80DD68E6] (AR v2)
Copy OK

Track 12

Filename C:\CSHK\12 - Anna Vissi - Giati Gelas.wav

Peak level 91.1 %
Extraction speed 1.9 X
Track quality 100.0 %
Test CRC E5CD1912
Copy CRC E5CD1912
Accurately ripped (confidence 1) [713BD92F] (AR v2)
Copy OK

Track 13

Filename C:\CSHK\13 - Anna Vissi - Oute Ena S' Agapo.wav

Peak level 91.1 %
Extraction speed 1.9 X
Track quality 100.0 %
Test CRC F7B1532A
Copy CRC F7B1532A
Accurately ripped (confidence 1) [F0B1927C] (AR v2)
Copy OK

Track 14

Filename C:\CSHK\14 - Anna Vissi - San Ta Pinasmena Peristeria.wav

Peak level 91.1 %
Extraction speed 2.0 X
Track quality 100.0 %
Test CRC 82DC8725
Copy CRC 82DC8725
Accurately ripped (confidence 1) [C2B2B50F] (AR v2)
Copy OK

Track 15

Filename C:\CSHK\15 - Anna Vissi - O, Maria.wav

Peak level 95.4 %
Extraction speed 1.9 X
Track quality 100.0 %
Test CRC 66163D76
Copy CRC 66163D76
Accurately ripped (confidence 1) [2C41E720] (AR v2)
Copy OK

Track 16

Filename C:\CSHK\16 - Anna Vissi - O Kirios Nobel.wav

Peak level 95.4 %
Extraction speed 2.0 X
Track quality 100.0 %
Test CRC 2AD4B69C
Copy CRC 2AD4B69C
Accurately ripped (confidence 1) [D27EE2F5] (AR v2)
Copy OK

Track 17

Filename C:\CSHK\17 - Anna Vissi & Doros Georgiadis - Nikisame.wav

Peak level 91.1 %
Extraction speed 2.1 X
Track quality 100.0 %
Test CRC 26CFBFBC
Copy CRC 26CFBFBC
Accurately ripped (confidence 1) [A00BC1E6] (AR v2)
Copy OK

Track 18

Filename C:\CSHK\18 - Anna Vissi - To Etos Tou Pediou.wav

Peak level 79.4 %
Extraction speed 2.0 X
Track quality 100.0 %
Test CRC D92793BB
Copy CRC D92793BB
Accurately ripped (confidence 1) [94833D76] (AR v2)
Copy OK


All tracks accurately ripped

No errors occurred

End of status report

==== Log checksum C2A157A1F0AB08838FFAE0D51EDBF68B25B72964170CA9BD2435680077B6299A ====
Exact Audio Copy V1.3 from 2. September 2016

EAC extraction logfile from 25. February 2017, 6:13

Anna Vissi / CD4 - Early Years & the First Recordings

Used drive : TSSTcorpCDDVDW SE-S224Q Adapter: 1 ID: 3

Read mode : Secure
Utilize accurate stream : Yes
Defeat audio cache : Yes
Make use of C2 pointers : No

Read offset correction : 6
Overread into Lead-In and Lead-Out : No
Fill up missing offset samples with silence : Yes
Delete leading and trailing silent blocks : No
Null samples used in CRC calculations : Yes
Used interface : Native Win32 interface for Win NT & 2000
Gap handling : Appended to previous track

Used output format : User Defined Encoder
Selected bitrate : 128 kBit/s
Quality : High
Add ID3 tag : No
Command line compressor : C:\Program Files\Exact Audio Copy\Flac\flac.exe
Additional command line options : -8 -V -T "ARTIST=%artist%" -T "TITLE=%title%" -T "ALBUM=%albumtitle%" -T "DATE=%year%" -T "TRACKNUMBER=%tracknr%" -T "TOTALTRACKS=%numtracks%" -T "GENRE=%genre%" -T "ALBUMARTIST=%albumartist%" -T "ALBUM ARTIST=%albumartist%" -T "COMMENT=EAC Secure Mode, Test & Copy, AccurateRip, FLAC -8" %source%


TOC of the extracted CD

Track | Start | Length | Start sector | End sector
––––––––––––––––––––––––––––-
1 | 0:00.00 | 3:46.64 | 0 | 17013
2 | 3:46.64 | 2:46.01 | 17014 | 29464
3 | 6:32.65 | 2:15.07 | 29465 | 39596
4 | 8:47.72 | 3:52.00 | 39597 | 56996
5 | 12:39.72 | 3:20.56 | 56997 | 72052
6 | 16:00.53 | 2:47.06 | 72053 | 84583
7 | 18:47.59 | 3:08.31 | 84584 | 98714
8 | 21:56.15 | 2:55.55 | 98715 | 111894
9 | 24:51.70 | 3:04.16 | 111895 | 125710
10 | 27:56.11 | 2:50.53 | 125711 | 138513
11 | 30:46.64 | 2:18.46 | 138514 | 148909
12 | 33:05.35 | 3:28.57 | 148910 | 164566
13 | 36:34.17 | 2:15.07 | 164567 | 174698
14 | 38:49.24 | 2:55.57 | 174699 | 187880
15 | 41:45.06 | 2:42.22 | 187881 | 200052
16 | 44:27.28 | 3:17.00 | 200053 | 214827
17 | 47:44.28 | 3:05.73 | 214828 | 228775
18 | 50:50.26 | 2:33.35 | 228776 | 240285
19 | 53:23.61 | 2:55.74 | 240286 | 253484
20 | 56:19.60 | 2:09.28 | 253485 | 263187


Track 1

Filename C:\CSHK\01 - As Kanoume Apopse Mia Arhi.wav

Pre-gap length 0:00:02.00

Peak level 91.1 %
Extraction speed 2.8 X
Track quality 100.0 %
Test CRC 440D5193
Copy CRC 440D5193
Accurately ripped (confidence 1) [2D6CA9A2] (AR v2)
Copy OK

Track 2

Filename C:\CSHK\02 - Agapise Me.wav

Peak level 91.1 %
Extraction speed 2.1 X
Track quality 99.9 %
Test CRC 83B2C259
Copy CRC 83B2C259
Accurately ripped (confidence 1) [29959472] (AR v2)
Copy OK

Track 3

Filename C:\CSHK\03 - Na 'mouna Sta Heria Sou Karavi.wav

Peak level 91.1 %
Extraction speed 2.0 X
Track quality 99.9 %
Test CRC 719309C6
Copy CRC 719309C6
Accurately ripped (confidence 1) [A0ABF5B7] (AR v2)
Copy OK

Track 4

Filename C:\CSHK\04 - I Kyklades.wav

Peak level 91.1 %
Extraction speed 3.4 X
Track quality 100.0 %
Test CRC 6AC35A62
Copy CRC 6AC35A62
Accurately ripped (confidence 1) [29B000F2] (AR v2)
Copy OK

Track 5

Filename C:\CSHK\05 - I Nikimeni Imaste Emis.wav

Peak level 91.1 %
Extraction speed 3.5 X
Track quality 100.0 %
Test CRC B0B08F5F
Copy CRC B0B08F5F
Accurately ripped (confidence 1) [ADF77632] (AR v2)
Copy OK

Track 6

Filename C:\CSHK\06 - Mi Vazis Mavro.wav

Peak level 91.1 %
Extraction speed 3.5 X
Track quality 100.0 %
Test CRC BCC1ABE9
Copy CRC BCC1ABE9
Accurately ripped (confidence 1) [7B2D8D39] (AR v2)
Copy OK

Track 7

Filename C:\CSHK\07 - Kladi Rodias.wav

Peak level 91.1 %
Extraction speed 3.8 X
Track quality 100.0 %
Test CRC 5D2FA9A4
Copy CRC 5D2FA9A4
Accurately ripped (confidence 1) [6125F140] (AR v2)
Copy OK

Track 8

Filename C:\CSHK\08 - Apo 'do Ki Apo 'ki.wav

Peak level 91.1 %
Extraction speed 3.9 X
Track quality 100.0 %
Test CRC DF6105F5
Copy CRC DF6105F5
Accurately ripped (confidence 1) [535401D8] (AR v2)
Copy OK

Track 9

Filename C:\CSHK\09 - Sou 'dosa Na Piis.wav

Peak level 91.1 %
Extraction speed 4.0 X
Track quality 100.0 %
Test CRC 787C79C8
Copy CRC 787C79C8
Accurately ripped (confidence 1) [37C2E71F] (AR v2)
Copy OK

Track 10

Filename C:\CSHK\10 - Gia Sas Triandafilla.wav

Peak level 91.1 %
Extraction speed 4.1 X
Track quality 100.0 %
Test CRC 263F0157
Copy CRC 263F0157
Accurately ripped (confidence 1) [1067AB90] (AR v2)
Copy OK

Track 11

Filename C:\CSHK\11 - I Agapi Sou Sholio.wav

Peak level 91.1 %
Extraction speed 4.0 X
Track quality 100.0 %
Test CRC 2586CE13
Copy CRC 2586CE13
Accurately ripped (confidence 1) [E0B96477] (AR v2)
Copy OK

Track 12

Filename C:\CSHK\12 - To Tali-Bo.wav

Peak level 91.1 %
Extraction speed 4.4 X
Track quality 100.0 %
Test CRC 2ADD0870
Copy CRC 2ADD0870
Accurately ripped (confidence 1) [0B3FFDDF] (AR v2)
Copy OK

Track 13

Filename C:\CSHK\13 - Ilie Mou.wav

Peak level 91.1 %
Extraction speed 2.9 X
Track quality 99.9 %
Test CRC 6C72779D
Copy CRC 6C72779D
Accurately ripped (confidence 1) [8C664093] (AR v2)
Copy OK

Track 14

Filename C:\CSHK\14 - To Palio T' Aeroplano.wav

Peak level 91.1 %
Extraction speed 4.5 X
Track quality 100.0 %
Test CRC 95680C93
Copy CRC 95680C93
Accurately ripped (confidence 1) [B6908154] (AR v2)
Copy OK

Track 15

Filename C:\CSHK\15 - Savvatiatika.wav

Peak level 91.1 %
Extraction speed 4.6 X
Track quality 100.0 %
Test CRC C0B47119
Copy CRC C0B47119
Accurately ripped (confidence 1) [70A34D2E] (AR v2)
Copy OK

Track 16

Filename C:\CSHK\16 - To Palikari.wav

Peak level 91.1 %
Extraction speed 4.9 X
Track quality 100.0 %
Test CRC 9AC31651
Copy CRC 9AC31651
Accurately ripped (confidence 1) [91800347] (AR v2)
Copy OK

Track 17

Filename C:\CSHK\17 - Mia Mikri Psihoula.wav

Peak level 91.1 %
Extraction speed 5.0 X
Track quality 100.0 %
Test CRC 8EFAB588
Copy CRC 8EFAB588
Accurately ripped (confidence 1) [51E7A626] (AR v2)
Copy OK

Track 18

Filename C:\CSHK\18 - Thelo.wav

Peak level 91.1 %
Extraction speed 4.8 X
Track quality 100.0 %
Test CRC AAFFD1B6
Copy CRC AAFFD1B6
Accurately ripped (confidence 1) [3BABB26F] (AR v2)
Copy OK

Track 19

Filename C:\CSHK\19 - Krasi, Thalassa Ke T' Agori Mou.wav

Peak level 91.1 %
Extraction speed 5.1 X
Track quality 100.0 %
Test CRC 166A6041
Copy CRC 166A6041
Accurately ripped (confidence 1) [00B19BCD] (AR v2)
Copy OK

Track 20

Filename C:\CSHK\20 - Ego Ime Ego.wav

Peak level 91.1 %
Extraction speed 4.8 X
Track quality 100.0 %
Test CRC 5A67DAEB
Copy CRC 5A67DAEB
Accurately ripped (confidence 1) [FBDEA82C] (AR v2)
Copy OK


All tracks accurately ripped

No errors occurred

End of status report

==== Log checksum 04656EEBFD6D0E8A98C614425C4DC48ABEB6D094847E7DD68E6F5F171E533367 ====


Anna Vissi - Back to Time - Complete EMI Years (2007) {4CD Set EMI-Capitol 5099951042929 rec 1974-1982}



===