Tags
Language
Tags

Anthony Phillips - The Geese & The Ghost (2CD) (1977/2015) {Reissue, Remastered}

Posted By: Domestos
Anthony Phillips - The Geese & The Ghost (2CD) (1977/2015) {Reissue, Remastered}

Anthony Phillips - The Geese & The Ghost (2CD) (1977/2015) {Reissue, Remastered}
EAC Rip | FLAC (tracks+.cue, log) ~ 258.03 Mb + 320.99 Mb | 01:50:49 | Cover
Progressive Rock | Country: UK | Label: Esoteric Recordings - ECLEC 32482

The definitive edition of the 1977 seminal debut solo album by GENESIS founding member ANTHONY PHILLIPS, The Geese and the Ghost. The music album could arguably be seen to have begun life as far back as 1969, but in essence it was the result of nearly four years hard work by Anthony, in collaboration with MIKE RUTHERFORD (who co-wrote three of the pieces on the record), beginning with a series of recordings made on TEAC 4 track tape recorders, progressing to sessions on the barge studio of engineer Tom Newman. Enlisting the assistance of PHIL COLLINS, JOHN HACKETT, VIV McAULIFFE, JACK LANCASTER and many others, The Geese and the Ghost finally appeared in 1977 in America on the Passport label and in the UK on the Hit & Run imprint.

Lauded by many as a supreme achievement, this definitive of The Geese and the Ghost has been newly re-mastered from the original master tapes by Simon Heyworth and includes a stunning new 5.1 Surround Sound mix of the album by Andy Myles and Simon Heyworth, along with a CD of demos and early versions of the tracks on Geese. The bonus tracks are completed with the addition of both sides of an abortive single from 1973, 'Silver Song' and 'Only Your Love' (previously unreleased). Both tracks feature Phil Collins as vocalist.



CD1: The Stereo Remaster (00:49:32)
1 Wind - Tales [1:03]
2 Which Way The Wind Blows [5:52]
3 Henry: Portraits From Tudor Times [14:03]
3.1 Fanfare
3.2 Lute's Chorus
3.3 Misty Battlements
3.4 Lute's Chorus (Reprise)
3.5 Henry Goes To War
3.6 Death Of A Knight
3.7 Triumphant Return
4 God If I Saw Her Now [4:14]
5 Chinese Mushroom Cloud [0:46]
6 The Geese And The Ghost [15:51]
6.1 Part One
6.2 Part Two
7 Collections [3:07]
8 Sleepfall: The Geese Fly West [4:36]

CD2: Bonus Tracks (01:01:16)
1 Master Of Time (Demo) [7:38]
2 Title Inspiration [0:34]
3 The Geese And The Ghost - Part One (Basic Track) [7:48]
4 Collections Link [0:42]
5 Which Way The Wind Blows (Basic Track) [6:28]
6 Silver Song (Geese Sessions Version) [4:25]
7 Henry: Portrait's From Tudor Times (Basic Version) [5:40]
7.1 Fanfare
7.2 Lute's Chorus
7.3 Lute's Chorus Reprise
7.4 Misty Battlements
8 Collections (Demo) [4:18]
9 The Geese And The Ghost - Part Two (Basic Track) [7:33]
10 God If I Saw Her Now (Basic Track) [4:20]
11 Sleepfall (Basic Track) [4:26]
12 Silver Song (1973 Unreleased Single Version) [4:16]
13 Only Your Love (1973) (Previously Unreleased) [3:09]

Acoustic Guitar [Acoustic 6 String Guitar], 12-String Acoustic Guitar [Acoustic 12 String Guitar], Classical Guitar, Electric Guitar [Electric 6 String Guitar], Twelve-String Guitar [Electric 12 String Guitar], Bass, Dulcimer [Dulcimer Guitar], Bouzouki [Bazouki], Synthesizer [Synthesizers], Mellotron, Harmonium, Piano, Organ, Celesta [Celeste], Drums, Glockenspiel, Timbales, Bells, Chimes, Gong – Anthony Phillips
Acoustic Guitar [Acoustic 6 String Guitar], 12-String Acoustic Guitar [Acoustic 12 String Guitar], Classical Guitar, Electric Guitar [Electric 6 String Guitar], Twelve-String Guitar [Electric 12 String Guitar], Bass, Organ, Drums, Timbales, Glockenspiel, Cymbal, Bells – Mike Rutherford
Artwork [Original Cover Artwork] – Peter Cross (2)
Authoring – Neil Wilkes
Cello – Charlie Martin (2), Kirk Trevor
Compiled By [Re-Issue] – Anthony Phillips, Jonathan Dann
Conductor – Jeremy Gilbert
Coordinator [Additional Project Co-Ordination] – Vicky Powell
Coordinator [Project Conceived And Co-Ordinated By] – Mark Powell
Design [Package] – Phil Smee
Flute – John Hackett
Flute, Flute [Baroque Flute], Recorder, Piccolo Flute [Piccolo] – Wil Sleath
Flute, Lyricon – Jack Lancaster
Heckelphone, Other [Bulk Eraser] – Tom Newman (2)
Mixed By [Bonus Material] – Jonathan Dann
Mixed By [Surround] – Andy Miles (2), Simon Heyworth
Oboe – Rob Phillips
Oboe, Cor Anglais – Lazo Momchilovich*
Orchestra – Barge Rabble, Send Barns Orchestra
Producer [Surround Mix] – Beau Heyworth, Simon Heyworth
Producer, Engineer – Anthony Phillips, Mike Rutherford, Simon Heyworth
Remastered By – Simon Heyworth
Soloist – Ralph Bernascone
Timpani – Martin Westlake
Transferred By [Analog To Digital Transfer Of Original Multi-Track Masters] – Richard Whittaker
Violin – Nick Hayley
Written-By – Anthony Phillips, Mike Rutherford (tracks: CD1-3, CD1-5, CD1-6, DVD-3, DVD-5, DVD-6)

Exact Audio Copy V1.5 from 20. February 2020

EAC extraction logfile from 18. June 2020, 14:34

Anthony Phillips / The Geese & the Ghost [2015]

Used drive : ASUS DRW-24D5MT Adapter: 1 ID: 0

Read mode : Secure
Utilize accurate stream : Yes
Defeat audio cache : Yes
Make use of C2 pointers : No

Read offset correction : 6
Overread into Lead-In and Lead-Out : No
Fill up missing offset samples with silence : Yes
Delete leading and trailing silent blocks : No
Null samples used in CRC calculations : Yes
Used interface : Native Win32 interface for Win NT & 2000
Gap handling : Appended to previous track

Used output format : User Defined Encoder
Selected bitrate : 128 kBit/s
Quality : High
Add ID3 tag : No
Command line compressor : C:\Program Files (x86)\Exact Audio Copy\Flac\flac.exe
Additional command line options : -V -8 -T "Genre=%genre%" -T "Artist=%artist%" -T "Title=%title%" -T "Album=%albumtitle%" -T "Date=%year%" -T "Tracknumber=%tracknr%" -T "Comment=%comment%" %source%


TOC of the extracted CD

Track | Start | Length | Start sector | End sector
––––––––––––––––––––––––––––-
1 | 0:00.00 | 1:03.29 | 0 | 4753
2 | 1:03.29 | 5:52.11 | 4754 | 31164
3 | 6:55.40 | 14:03.29 | 31165 | 94418
4 | 20:58.69 | 4:14.13 | 94419 | 113481
5 | 25:13.07 | 0:46.04 | 113482 | 116935
6 | 25:59.11 | 15:50.71 | 116936 | 188256
7 | 41:50.07 | 3:07.02 | 188257 | 202283
8 | 44:57.09 | 4:35.64 | 202284 | 222972


Track 1

Filename C:\Users\user\Music\Rips\Anthony Phillips\1977 - The Geese & the Ghost [2015]\01. Wind-Tales.wav

Pre-gap length 0:00:02.00

Peak level 75.5 %
Extraction speed 0.5 X
Track quality 99.8 %
Test CRC A583A337
Copy CRC A583A337
Accurately ripped (confidence 33) [3A3FAB95] (AR v2)
Copy OK

Track 2

Filename C:\Users\user\Music\Rips\Anthony Phillips\1977 - The Geese & the Ghost [2015]\02. Which Way the Wind Blows.wav

Peak level 91.2 %
Extraction speed 4.8 X
Track quality 100.0 %
Test CRC 103B0340
Copy CRC 103B0340
Accurately ripped (confidence 34) [D96AE4B2] (AR v2)
Copy OK

Track 3

Filename C:\Users\user\Music\Rips\Anthony Phillips\1977 - The Geese & the Ghost [2015]\03. Henry- Portraits of Tudor Times-Fanfare.wav

Pre-gap length 0:00:01.55

Peak level 96.6 %
Extraction speed 6.1 X
Track quality 100.0 %
Test CRC 5661275D
Copy CRC 5661275D
Accurately ripped (confidence 34) [091DEEAB] (AR v2)
Copy OK

Track 4

Filename C:\Users\user\Music\Rips\Anthony Phillips\1977 - The Geese & the Ghost [2015]\04. God If I Saw Her Now.wav

Pre-gap length 0:00:03.21

Peak level 95.4 %
Extraction speed 6.4 X
Track quality 100.0 %
Test CRC 54C63B69
Copy CRC 54C63B69
Accurately ripped (confidence 34) [AAB4F6F8] (AR v2)
Copy OK

Track 5

Filename C:\Users\user\Music\Rips\Anthony Phillips\1977 - The Geese & the Ghost [2015]\05. Chinese Mushroom Cloud.wav

Pre-gap length 0:00:02.18

Peak level 96.4 %
Extraction speed 4.2 X
Track quality 100.0 %
Test CRC EDB0C16C
Copy CRC EDB0C16C
Accurately ripped (confidence 33) [932D996B] (AR v2)
Copy OK

Track 6

Filename C:\Users\user\Music\Rips\Anthony Phillips\1977 - The Geese & the Ghost [2015]\06. The Geese & The Ghost-Part I.wav

Pre-gap length 0:00:01.43

Peak level 96.6 %
Extraction speed 8.0 X
Track quality 100.0 %
Test CRC A1C416CA
Copy CRC A1C416CA
Accurately ripped (confidence 34) [68BC6A33] (AR v2)
Copy OK

Track 7

Filename C:\Users\user\Music\Rips\Anthony Phillips\1977 - The Geese & the Ghost [2015]\07. Collections.wav

Pre-gap length 0:00:05.33

Peak level 96.5 %
Extraction speed 7.5 X
Track quality 100.0 %
Test CRC C4536E56
Copy CRC C4536E56
Accurately ripped (confidence 34) [983B21A5] (AR v2)
Copy OK

Track 8

Filename C:\Users\user\Music\Rips\Anthony Phillips\1977 - The Geese & the Ghost [2015]\08. Sleepfall- The Geese Fly West.wav

Peak level 86.0 %
Extraction speed 8.1 X
Track quality 100.0 %
Test CRC 8AE40E03
Copy CRC 8AE40E03
Accurately ripped (confidence 34) [69E57BD3] (AR v2)
Copy OK


All tracks accurately ripped

No errors occurred

End of status report

–– CUETools DB Plugin V2.1.6

[CTDB TOCID: bKuFBpsb9qSW9j3llXgq81qjgGM-] found
Submit result: bKuFBpsb9qSW9j3llXgq81qjgGM- has been confirmed
Track | CTDB Status
1 | (74/75) Accurately ripped
2 | (74/75) Accurately ripped
3 | (74/75) Accurately ripped
4 | (74/75) Accurately ripped
5 | (74/75) Accurately ripped
6 | (74/75) Accurately ripped
7 | (74/75) Accurately ripped
8 | (74/75) Accurately ripped


==== Log checksum CA48F0FD2E6FEC860BD18C92D2AB38E6EBA8E3BE22F67D6DF265FB50445CB3EF ====

Exact Audio Copy V1.5 from 20. February 2020

EAC extraction logfile from 18. June 2020, 15:29

Anthony Phillips / The Geese & the Ghost-Bonus Tracks [2015]

Used drive : ASUS DRW-24D5MT Adapter: 1 ID: 0

Read mode : Secure
Utilize accurate stream : Yes
Defeat audio cache : Yes
Make use of C2 pointers : No

Read offset correction : 6
Overread into Lead-In and Lead-Out : No
Fill up missing offset samples with silence : Yes
Delete leading and trailing silent blocks : No
Null samples used in CRC calculations : Yes
Used interface : Native Win32 interface for Win NT & 2000
Gap handling : Appended to previous track

Used output format : User Defined Encoder
Selected bitrate : 128 kBit/s
Quality : High
Add ID3 tag : No
Command line compressor : C:\Program Files (x86)\Exact Audio Copy\Flac\flac.exe
Additional command line options : -V -8 -T "Genre=%genre%" -T "Artist=%artist%" -T "Title=%title%" -T "Album=%albumtitle%" -T "Date=%year%" -T "Tracknumber=%tracknr%" -T "Comment=%comment%" %source%


TOC of the extracted CD

Track | Start | Length | Start sector | End sector
––––––––––––––––––––––––––––-
1 | 0:00.00 | 7:38.04 | 0 | 34353
2 | 7:38.04 | 0:34.02 | 34354 | 36905
3 | 8:12.06 | 7:48.04 | 36906 | 72009
4 | 16:00.10 | 0:42.15 | 72010 | 75174
5 | 16:42.25 | 6:27.72 | 75175 | 104271
6 | 23:10.22 | 4:24.47 | 104272 | 124118
7 | 27:34.69 | 5:40.28 | 124119 | 149646
8 | 33:15.22 | 4:17.63 | 149647 | 168984
9 | 37:33.10 | 7:32.64 | 168985 | 202948
10 | 45:05.74 | 4:19.58 | 202949 | 222431
11 | 49:25.57 | 4:25.71 | 222432 | 242377
12 | 53:51.53 | 4:16.25 | 242378 | 261602
13 | 58:08.03 | 3:08.62 | 261603 | 275764


Track 1

Filename C:\Users\user\Music\Rips\Anthony Phillips\1977 - The Geese & the Ghost-Bonus Tracks [2015]\01. Master of Time (demo).wav

Pre-gap length 0:00:02.00

Peak level 96.6 %
Extraction speed 2.0 X
Track quality 100.0 %
Test CRC 62B32CBA
Copy CRC 62B32CBA
Accurately ripped (confidence 31) [1423CC42] (AR v2)
Copy OK

Track 2

Filename C:\Users\user\Music\Rips\Anthony Phillips\1977 - The Geese & the Ghost-Bonus Tracks [2015]\02. Title Inspiration.wav

Pre-gap length 0:00:01.02

Peak level 39.6 %
Extraction speed 1.1 X
Track quality 100.0 %
Test CRC 1805F836
Copy CRC 1805F836
Accurately ripped (confidence 31) [B893D62F] (AR v2)
Copy OK

Track 3

Filename C:\Users\user\Music\Rips\Anthony Phillips\1977 - The Geese & the Ghost-Bonus Tracks [2015]\03. The Geese & the Ghost - Part One (basic track).wav

Pre-gap length 0:00:02.38

Peak level 96.5 %
Extraction speed 2.4 X
Track quality 100.0 %
Test CRC F3AC8AC8
Copy CRC F3AC8AC8
Accurately ripped (confidence 31) [F779B55C] (AR v2)
Copy OK

Track 4

Filename C:\Users\user\Music\Rips\Anthony Phillips\1977 - The Geese & the Ghost-Bonus Tracks [2015]\04. Collections link.wav

Pre-gap length 0:00:02.20

Peak level 68.1 %
Extraction speed 1.4 X
Track quality 100.0 %
Test CRC 9FACEBBC
Copy CRC 9FACEBBC
Accurately ripped (confidence 31) [B0ECA1D7] (AR v2)
Copy OK

Track 5

Filename C:\Users\user\Music\Rips\Anthony Phillips\1977 - The Geese & the Ghost-Bonus Tracks [2015]\05. Which Way the Wind Blows.wav

Pre-gap length 0:00:03.23

Peak level 81.9 %
Extraction speed 2.7 X
Track quality 100.0 %
Test CRC F9C1238E
Copy CRC F9C1238E
Accurately ripped (confidence 31) [6F5C5C4A] (AR v2)
Copy OK

Track 6

Filename C:\Users\user\Music\Rips\Anthony Phillips\1977 - The Geese & the Ghost-Bonus Tracks [2015]\06. Silver Song (basic track).wav

Pre-gap length 0:00:02.37

Peak level 91.1 %
Extraction speed 2.5 X
Track quality 99.9 %
Test CRC B636B4F2
Copy CRC B636B4F2
Accurately ripped (confidence 31) [147B744B] (AR v2)
Copy OK

Track 7

Filename C:\Users\user\Music\Rips\Anthony Phillips\1977 - The Geese & the Ghost-Bonus Tracks [2015]\07. Henry- Portraits From Tudor Times (basic track).wav

Pre-gap length 0:00:02.46

Peak level 96.6 %
Extraction speed 3.0 X
Track quality 100.0 %
Test CRC 68EEACE9
Copy CRC 68EEACE9
Accurately ripped (confidence 31) [DE0A830F] (AR v2)
Copy OK

Track 8

Filename C:\Users\user\Music\Rips\Anthony Phillips\1977 - The Geese & the Ghost-Bonus Tracks [2015]\08. Collections (demo).wav

Pre-gap length 0:00:03.15

Peak level 87.9 %
Extraction speed 3.1 X
Track quality 100.0 %
Test CRC 99CE964A
Copy CRC 99CE964A
Accurately ripped (confidence 31) [C4BD9AD2] (AR v2)
Copy OK

Track 9

Filename C:\Users\user\Music\Rips\Anthony Phillips\1977 - The Geese & the Ghost-Bonus Tracks [2015]\09. The Geese & the Ghost - Part Two (basic track).wav

Pre-gap length 0:00:04.18

Peak level 96.6 %
Extraction speed 3.2 X
Track quality 99.9 %
Test CRC 64F14740
Copy CRC 64F14740
Accurately ripped (confidence 31) [F8E8EB05] (AR v2)
Copy OK

Track 10

Filename C:\Users\user\Music\Rips\Anthony Phillips\1977 - The Geese & the Ghost-Bonus Tracks [2015]\10. God If I Saw Her Now (basic track).wav

Pre-gap length 0:00:03.03

Peak level 94.3 %
Extraction speed 3.4 X
Track quality 100.0 %
Test CRC D59536B0
Copy CRC D59536B0
Accurately ripped (confidence 31) [D4F0F004] (AR v2)
Copy OK

Track 11

Filename C:\Users\user\Music\Rips\Anthony Phillips\1977 - The Geese & the Ghost-Bonus Tracks [2015]\11. Sleepfall (basic track).wav

Pre-gap length 0:00:04.29

Peak level 72.6 %
Extraction speed 3.2 X
Track quality 99.9 %
Test CRC 4C2848B3
Copy CRC 4C2848B3
Accurately ripped (confidence 31) [F979E9A8] (AR v2)
Copy OK

Track 12

Filename C:\Users\user\Music\Rips\Anthony Phillips\1977 - The Geese & the Ghost-Bonus Tracks [2015]\12. Silver Song (unreleased single version, 1973).wav

Pre-gap length 0:00:04.28

Peak level 96.6 %
Extraction speed 3.6 X
Track quality 100.0 %
Test CRC 5410A96D
Copy CRC 5410A96D
Accurately ripped (confidence 31) [AC42C0CA] (AR v2)
Copy OK

Track 13

Filename C:\Users\user\Music\Rips\Anthony Phillips\1977 - The Geese & the Ghost-Bonus Tracks [2015]\13. Only Your Love (1973 - previously unreleased).wav

Pre-gap length 0:00:02.30

Peak level 93.3 %
Extraction speed 3.5 X
Track quality 100.0 %
Test CRC 2A059B3C
Copy CRC 2A059B3C
Accurately ripped (confidence 32) [4B0182F3] (AR v2)
Copy OK


All tracks accurately ripped

No errors occurred

End of status report

–– CUETools DB Plugin V2.1.6

[CTDB TOCID: hRjjEhRBnmLbAieIk_Q9cn51f58-] found
Submit result: hRjjEhRBnmLbAieIk_Q9cn51f58- has been confirmed
Track | CTDB Status
1 | (76/77) Accurately ripped
2 | (76/77) Accurately ripped
3 | (76/77) Accurately ripped
4 | (76/77) Accurately ripped
5 | (76/77) Accurately ripped
6 | (76/77) Accurately ripped
7 | (76/77) Accurately ripped
8 | (76/77) Accurately ripped
9 | (76/77) Accurately ripped
10 | (76/77) Accurately ripped
11 | (75/77) Accurately ripped
12 | (75/77) Accurately ripped
13 | (76/77) Accurately ripped


==== Log checksum 593074693F27C928660F62D1537311FE3012D749DB6734ABED593CC443A46C12 ====

All thanks go to the k0syak47

More Music in My Blog
Follow My RSS Channel