Tags
Language
Tags
June 2024
Su Mo Tu We Th Fr Sa
26 27 28 29 30 31 1
2 3 4 5 6 7 8
9 10 11 12 13 14 15
16 17 18 19 20 21 22
23 24 25 26 27 28 29
30 1 2 3 4 5 6

Anton Du Beke - From The Top (2017)

Posted By: delpotro
Anton Du Beke - From The Top (2017)

Anton Du Beke - From The Top (2017)
EAC Rip | FLAC (tracks+log+.cue) | 00:48:11 | 326 Mb
Vocal Jazz, Pop | Label: Polydor Records

Anthony Paul Beke (born 20 July 1966), known professionally as Anton Du Beke, is a British ballroom and Latin dancer and television presenter, best known as a professional dancer and judge on the BBC One celebrity dancing show, Strictly Come Dancing, since the show began in 2004. His professional dance partner since 1997 has been Erin Boag. In 2009, he presented the UK version of Hole in the Wall, for the BBC, replacing Dale Winton after being a team captain in 2008. In November 2017, Du Beke released his debut studio album, From the Top, on Polydor Records. It reached number 21 on the UK Albums Chart.
Tracklist:
1. Putting on the Ritz (02:08)
2. Me and My Shadow (feat. Lance Ellington) (02:58)
3. Something Stupid (feat. Hayley Sanderson) (02:36)
4. More (02:26)
5. City of Stars (feat. Connie Fisher) (02:50)
6. Moondance (feat. The Overtones) (03:50)
7. Fly Me to the Moon (02:32)
8. Beyond the Sea (03:11)
9. Moon River (02:57)
10. Don't Rain on My Parade (02:56)
11. It Had to Be You (02:17)
12. That's Amore (feat. Lance Ellington) (03:05)
13. Blue Moon (02:47)
14. Nothing but Love (02:45)
15. Pure Imagination (03:23)
16. I Bet You Look Good on the Dancefloor (02:39)
17. It's the Most Wonderful Time of the Year (02:41)

Exact Audio Copy V1.5 from 20. February 2020

EAC extraction logfile from 3. July 2022, 14:08

Anton Du Beke / From The Top

Used drive : ATAPI iHAS124 F Adapter: 1 ID: 0

Read mode : Secure
Utilize accurate stream : Yes
Defeat audio cache : Yes
Make use of C2 pointers : No

Read offset correction : 6
Overread into Lead-In and Lead-Out : No
Fill up missing offset samples with silence : Yes
Delete leading and trailing silent blocks : No
Null samples used in CRC calculations : Yes
Used interface : Native Win32 interface for Win NT & 2000
Gap handling : Appended to previous track

Used output format : User Defined Encoder
Selected bitrate : 1024 kBit/s
Quality : High
Add ID3 tag : No
Command line compressor : C:\Program Files (x86)\Exact Audio Copy\Flac\flac.exe
Additional command line options : -8 -e -p -V -T "ARTIST=%artist%" -T "TITLE=%title%" -T "ALBUM=%albumtitle%" -T "DATE=%year%" -T "TRACKNUMBER=%tracknr%" -T "GENRE=%genre%" -T "PERFORMER=%albuminterpret%" -T "COMPOSER=%composer%" %haslyrics%–tag-from-file=LYRICS="%lyricsfile%"%haslyrics% -T "ALBUMARTIST=%albumartist%" -T "DISCNUMBER=%cdnumber%" -T "TOTALDISCS=%totalcds%" -T "TOTALTRACKS=%numtracks%" -T "COMMENT=%comment%" %source% -o %dest%


TOC of the extracted CD

Track | Start | Length | Start sector | End sector
––––––––––––––––––––––––––––-
1 | 0:00.00 | 2:08.37 | 0 | 9636
2 | 2:08.37 | 2:58.70 | 9637 | 23056
3 | 5:07.32 | 2:36.28 | 23057 | 34784
4 | 7:43.60 | 2:26.71 | 34785 | 45805
5 | 10:10.56 | 2:50.60 | 45806 | 58615
6 | 13:01.41 | 3:50.53 | 58616 | 75918
7 | 16:52.19 | 2:32.13 | 75919 | 87331
8 | 19:24.32 | 3:11.59 | 87332 | 101715
9 | 22:36.16 | 2:57.61 | 101716 | 115051
10 | 25:34.02 | 2:56.43 | 115052 | 128294
11 | 28:30.45 | 2:17.37 | 128295 | 138606
12 | 30:48.07 | 3:05.32 | 138607 | 152513
13 | 33:53.39 | 2:47.24 | 152514 | 165062
14 | 36:40.63 | 2:45.24 | 165063 | 177461
15 | 39:26.12 | 3:23.69 | 177462 | 192755
16 | 42:50.06 | 2:39.73 | 192756 | 204753
17 | 45:30.04 | 2:41.48 | 204754 | 216876


Track 1

Filename C:\Users\user\Music\Anton Du Beke - From The Top (2017) [6708042] {CD - FLAC}\01 Putting On The Ritz.wav

Pre-gap length 0:00:02.00

Peak level 100.0 %
Extraction speed 3.3 X
Track quality 99.9 %
Test CRC 3407B921
Copy CRC 3407B921
Accurately ripped (confidence 2) [7FF13D52] (AR v2)
Copy OK

Track 2

Filename C:\Users\user\Music\Anton Du Beke - From The Top (2017) [6708042] {CD - FLAC}\02 Me And My Shadow.wav

Peak level 100.0 %
Extraction speed 4.1 X
Track quality 99.9 %
Test CRC C0A134AD
Copy CRC C0A134AD
Accurately ripped (confidence 2) [4D191F0D] (AR v2)
Copy OK

Track 3

Filename C:\Users\user\Music\Anton Du Beke - From The Top (2017) [6708042] {CD - FLAC}\03 Something Stupid.wav

Peak level 100.0 %
Extraction speed 4.1 X
Track quality 99.9 %
Test CRC EDDB4694
Copy CRC EDDB4694
Accurately ripped (confidence 2) [C312666B] (AR v2)
Copy OK

Track 4

Filename C:\Users\user\Music\Anton Du Beke - From The Top (2017) [6708042] {CD - FLAC}\04 More.wav

Peak level 100.0 %
Extraction speed 5.6 X
Track quality 100.0 %
Test CRC BB3234BE
Copy CRC BB3234BE
Accurately ripped (confidence 2) [E8255722] (AR v2)
Copy OK

Track 5

Filename C:\Users\user\Music\Anton Du Beke - From The Top (2017) [6708042] {CD - FLAC}\05 City Of Stars.wav

Peak level 99.8 %
Extraction speed 6.1 X
Track quality 100.0 %
Test CRC 1D9FF2DB
Copy CRC 1D9FF2DB
Accurately ripped (confidence 2) [FEDC6868] (AR v2)
Copy OK

Track 6

Filename C:\Users\user\Music\Anton Du Beke - From The Top (2017) [6708042] {CD - FLAC}\06 Moondance.wav

Peak level 100.0 %
Extraction speed 5.5 X
Track quality 99.9 %
Test CRC 8352CFE2
Copy CRC 8352CFE2
Accurately ripped (confidence 2) [101997EA] (AR v2)
Copy OK

Track 7

Filename C:\Users\user\Music\Anton Du Beke - From The Top (2017) [6708042] {CD - FLAC}\07 Fly Me To The Moon.wav

Peak level 100.0 %
Extraction speed 6.7 X
Track quality 100.0 %
Test CRC DA83A335
Copy CRC DA83A335
Accurately ripped (confidence 2) [228CF6C7] (AR v2)
Copy OK

Track 8

Filename C:\Users\user\Music\Anton Du Beke - From The Top (2017) [6708042] {CD - FLAC}\08 Beyond The Sea.wav

Peak level 100.0 %
Extraction speed 7.3 X
Track quality 100.0 %
Test CRC 6E64D928
Copy CRC 6E64D928
Accurately ripped (confidence 2) [4E9BB839] (AR v2)
Copy OK

Track 9

Filename C:\Users\user\Music\Anton Du Beke - From The Top (2017) [6708042] {CD - FLAC}\09 Moon River.wav

Peak level 99.8 %
Extraction speed 7.5 X
Track quality 100.0 %
Test CRC A82321EC
Copy CRC A82321EC
Accurately ripped (confidence 2) [34B467D2] (AR v2)
Copy OK

Track 10

Filename C:\Users\user\Music\Anton Du Beke - From The Top (2017) [6708042] {CD - FLAC}\10 Don't Rain On My Parade.wav

Peak level 100.0 %
Extraction speed 7.7 X
Track quality 100.0 %
Test CRC 92D11DD8
Copy CRC 92D11DD8
Accurately ripped (confidence 2) [3A3B80C0] (AR v2)
Copy OK

Track 11

Filename C:\Users\user\Music\Anton Du Beke - From The Top (2017) [6708042] {CD - FLAC}\11 It Had To Be You.wav

Peak level 100.0 %
Extraction speed 7.6 X
Track quality 100.0 %
Test CRC 1F2091F2
Copy CRC 1F2091F2
Accurately ripped (confidence 2) [0BA8629D] (AR v2)
Copy OK

Track 12

Filename C:\Users\user\Music\Anton Du Beke - From The Top (2017) [6708042] {CD - FLAC}\12 That's Amore.wav

Peak level 100.0 %
Extraction speed 8.2 X
Track quality 100.0 %
Test CRC 12DCAE59
Copy CRC 12DCAE59
Accurately ripped (confidence 2) [997E7A26] (AR v2)
Copy OK

Track 13

Filename C:\Users\user\Music\Anton Du Beke - From The Top (2017) [6708042] {CD - FLAC}\13 Blue Moon.wav

Peak level 100.0 %
Extraction speed 6.5 X
Track quality 99.9 %
Test CRC CF6CEEEC
Copy CRC CF6CEEEC
Accurately ripped (confidence 2) [8F12F217] (AR v2)
Copy OK

Track 14

Filename C:\Users\user\Music\Anton Du Beke - From The Top (2017) [6708042] {CD - FLAC}\14 Nothing But Love.wav

Peak level 100.0 %
Extraction speed 6.5 X
Track quality 99.9 %
Test CRC F382D499
Copy CRC F382D499
Accurately ripped (confidence 2) [DCD1F882] (AR v2)
Copy OK

Track 15

Filename C:\Users\user\Music\Anton Du Beke - From The Top (2017) [6708042] {CD - FLAC}\15 Pure Imagination.wav

Peak level 100.0 %
Extraction speed 9.1 X
Track quality 100.0 %
Test CRC 47C797F4
Copy CRC 47C797F4
Accurately ripped (confidence 2) [4CD8A7FC] (AR v2)
Copy OK

Track 16

Filename C:\Users\user\Music\Anton Du Beke - From The Top (2017) [6708042] {CD - FLAC}\16 I Bet You Look Good On The Dancefloor.wav

Peak level 99.8 %
Extraction speed 6.6 X
Track quality 99.9 %
Test CRC 7984165F
Copy CRC 7984165F
Accurately ripped (confidence 2) [132945A5] (AR v2)
Copy OK

Track 17

Filename C:\Users\user\Music\Anton Du Beke - From The Top (2017) [6708042] {CD - FLAC}\17 It's The Most Wonderful Time Of The Year.wav

Peak level 100.0 %
Extraction speed 9.0 X
Track quality 100.0 %
Test CRC 419A5048
Copy CRC 419A5048
Accurately ripped (confidence 2) [6750416A] (AR v2)
Copy OK


All tracks accurately ripped

No errors occurred

End of status report

–– CUETools DB Plugin V2.1.6

[CTDB TOCID: bA.OBU0z2H5LJtJdAlD5BDzHTno-] found
Submit result: bA.OBU0z2H5LJtJdAlD5BDzHTno- has been confirmed
Track | CTDB Status
1 | (14/14) Accurately ripped
2 | (14/14) Accurately ripped
3 | (14/14) Accurately ripped
4 | (14/14) Accurately ripped
5 | (14/14) Accurately ripped
6 | (14/14) Accurately ripped
7 | (14/14) Accurately ripped
8 | (14/14) Accurately ripped
9 | (14/14) Accurately ripped
10 | (14/14) Accurately ripped
11 | (14/14) Accurately ripped
12 | (14/14) Accurately ripped
13 | (14/14) Accurately ripped
14 | (14/14) Accurately ripped
15 | (14/14) Accurately ripped
16 | (14/14) Accurately ripped
17 | (14/14) Accurately ripped


==== Log checksum AAF9033F5D7DD8B858538D360A332D9AE582B7C3787CDE321067F48C1568631E ====

Thanks to the Original ripper !