Subcategories

The Aristocrats - Culture Clash (2013) {Deluxe Edition with DVD5 NTSC, BOING! Music BM 00005}

Posted By: ruskaval
The Aristocrats - Culture Clash (2013) {Deluxe Edition with DVD5 NTSC, BOING! Music BM 00005}

The Aristocrats - Culture Clash (2013) {Deluxe Edition with DVD5 NTSC, BOING! Music BM 00005}
XLD rip (secure mode) | FLAC (tracks)+CUE+LOG -> 419 Mb | MP3 @320 -> 138 Mb | Artwork
DVD5 -> 1.87 Gb | All Regions | NTSC 16:9 | Dolby AC3, 2 ch | ISO Image | ~34 min | 5% repair rar
© 2013 BOING! Music | BM 00005
Rock / Jazz Rock / Prog Rock / Fusion / Instrumental / Alternative Rock / Jazz

For me, this release took time to sink in because there is so much going on. Not just shredding but dynamics and melody that gives your brain a workout. Then it clicked - holy crap this is an incredible collaboration of sonic nirvana! Every song on "Culture Clash" is killer and has its own personality. Whether rock, fusion, techno, rockabilly, or prog-metal, these tunes are clever and well thought out with arrangements to die for. The disc clocks in just over 57 minutes, all instrumental, and each band mate wrote three songs. You can get lost in these songs and shouldn't focus too long on one instrument because the sum is better than its parts.
The Aristocrats - Culture Clash (2013) {Deluxe Edition with DVD5 NTSC, BOING! Music BM 00005}

The songwriting is bolder and more aggressive than their debut release and the interplay between musicians is so tight and flawless it will leave your jaw on the floor. This is one of a few instrumental discs I can listen to over and over without it getting old.

The Deluxe Edition includes a 33 minute "making of" DVD documentary with interviews and studio footage. The good news from this footage is the band gets along and no egos dominate, so fans may see more tours and albums down the road. In the documentary Bryan, Marco and Guthrie describe their different production and writing styles. You will find out the inspiration for Marco's tune "Ohhhh Noooo", and learn how to make Bryan's favorite cocktail. I also noticed how humble and down to earth these guys are.

This is a high quality total package. Great tunes, musicianship, engineering, documentary, and artwork that every music fan should own.
The Aristocrats - Culture Clash (2013) {Deluxe Edition with DVD5 NTSC, BOING! Music BM 00005}


INFO
More INFO


Personnel:
Guthrie Govan ……… Guitar
Bryan Beller ………. Bass
Marco Minnemann ……. Drums and Percussion

Track Listing

CD

01. Dance Of The Aristocrats (5:50)
02. Culture Clash (7:00)
03. Louisville Stomp (4:40)
04. Ohhhh Noooo (6:47)
05. Gaping Head Wound (6:34)
06. Desert Tornado (5:35)
07. Cocktail Umbrellas (7:21)
08. Living The Dream (7:10)
09. And Finally (6:12)

The Aristocrats - Culture Clash (2013) {Deluxe Edition with DVD5 NTSC, BOING! Music BM 00005}


Bonus DVD: Accept The Mystey - The Making Of The Aristocrats' Culture Clash

The Aristocrats - Culture Clash (2013) {Deluxe Edition with DVD5 NTSC, BOING! Music BM 00005}


X Lossless Decoder version 20130602 (143.2)

XLD extraction logfile from 2013-07-15 22:55:51 -0700

The Aristocrats / Culture Clash

Used drive : PIONEER DVD-RW DVR-112D (revision AC08)
Media type : Pressed CD

Ripper mode : XLD Secure Ripper
Disable audio cache : OK for the drive with a cache less than 1375KiB
Make use of C2 pointers : NO
Read offset correction : 48
Max retry count : 20
Gap status : Analyzed, Appended (except HTOA)

TOC of the extracted CD
Track | Start | Length | Start sector | End sector
––––––––––––––––––––––––––––-
1 | 00:00:00 | 05:50:12 | 0 | 26261
2 | 05:50:12 | 06:59:62 | 26262 | 57748
3 | 12:49:74 | 04:39:43 | 57749 | 78716
4 | 17:29:42 | 06:47:32 | 78717 | 109273
5 | 24:16:74 | 06:34:14 | 109274 | 138837
6 | 30:51:13 | 05:34:50 | 138838 | 163937
7 | 36:25:63 | 07:21:08 | 163938 | 197020
8 | 43:46:71 | 07:09:55 | 197021 | 229250
9 | 50:56:51 | 06:12:05 | 229251 | 257155

AccurateRip Summary
Disc not found in AccurateRip DB.

All Tracks
Album gain : -5.98 dB
Peak : 1.000000
Statistics
Read error : 0
Jitter error (maybe fixed) : 0
Retry sector count : 0
Damaged sector count : 0

Track 01
Filename : /Users/artbromage/Desktop/The Aristocrats - Culture Clash (2013) [FLAC]/01 Dance Of The Aristocrats.flac
Pre-gap length : 00:02:00

Track gain : -5.94 dB
Peak : 0.999969
CRC32 hash (test run) : FC6E978D
CRC32 hash : FC6E978D
CRC32 hash (skip zero) : BBB21640
AccurateRip v1 signature : 994CE473
AccurateRip v2 signature : 13E95F8D
->Track not present in AccurateRip database.
Statistics
Read error : 0
Jitter error (maybe fixed) : 0
Retry sector count : 0
Damaged sector count : 0

Track 02
Filename : /Users/artbromage/Desktop/The Aristocrats - Culture Clash (2013) [FLAC]/02 Culture Clash.flac

Track gain : -5.58 dB
Peak : 1.000000
CRC32 hash (test run) : 7F54A316
CRC32 hash : 7F54A316
CRC32 hash (skip zero) : 5D8B2D90
AccurateRip v1 signature : B9CF8871
AccurateRip v2 signature : 344BAB43
->Track not present in AccurateRip database.
Statistics
Read error : 0
Jitter error (maybe fixed) : 0
Retry sector count : 0
Damaged sector count : 0

Track 03
Filename : /Users/artbromage/Desktop/The Aristocrats - Culture Clash (2013) [FLAC]/03 Louisville Stomp.flac

Track gain : -6.32 dB
Peak : 1.000000
CRC32 hash (test run) : 351156E0
CRC32 hash : 351156E0
CRC32 hash (skip zero) : 805A7382
AccurateRip v1 signature : 4DF184BD
AccurateRip v2 signature : FFEA3482
->Track not present in AccurateRip database.
Statistics
Read error : 0
Jitter error (maybe fixed) : 0
Retry sector count : 0
Damaged sector count : 0

Track 04
Filename : /Users/artbromage/Desktop/The Aristocrats - Culture Clash (2013) [FLAC]/04 Ohhhh Noooo.flac

Track gain : -5.90 dB
Peak : 0.991699
CRC32 hash (test run) : 584C5653
CRC32 hash : 584C5653
CRC32 hash (skip zero) : 06C45B21
AccurateRip v1 signature : 1396A2CF
AccurateRip v2 signature : BDE1828D
->Track not present in AccurateRip database.
Statistics
Read error : 0
Jitter error (maybe fixed) : 0
Retry sector count : 0
Damaged sector count : 0

Track 05
Filename : /Users/artbromage/Desktop/The Aristocrats - Culture Clash (2013) [FLAC]/05 Gaping Head Wound.flac

Track gain : -5.63 dB
Peak : 1.000000
CRC32 hash (test run) : C9A394DB
CRC32 hash : C9A394DB
CRC32 hash (skip zero) : 319E64CC
AccurateRip v1 signature : 0C4383B3
AccurateRip v2 signature : BAB81950
->Track not present in AccurateRip database.
Statistics
Read error : 0
Jitter error (maybe fixed) : 0
Retry sector count : 0
Damaged sector count : 0

Track 06
Filename : /Users/artbromage/Desktop/The Aristocrats - Culture Clash (2013) [FLAC]/06 Desert Tornado.flac

Track gain : -6.58 dB
Peak : 1.000000
CRC32 hash (test run) : B2C8F9D1
CRC32 hash : B2C8F9D1
CRC32 hash (skip zero) : F0A153B4
AccurateRip v1 signature : 648C0303
AccurateRip v2 signature : DA6232CE
->Track not present in AccurateRip database.
Statistics
Read error : 0
Jitter error (maybe fixed) : 0
Retry sector count : 0
Damaged sector count : 0

Track 07
Filename : /Users/artbromage/Desktop/The Aristocrats - Culture Clash (2013) [FLAC]/07 Cocktail Umbrellas.flac

Track gain : -6.01 dB
Peak : 1.000000
CRC32 hash (test run) : AB0E1FFE
CRC32 hash : AB0E1FFE
CRC32 hash (skip zero) : 395F4BE5
AccurateRip v1 signature : C2198624
AccurateRip v2 signature : C9BCFCAC
->Track not present in AccurateRip database.
Statistics
Read error : 0
Jitter error (maybe fixed) : 0
Retry sector count : 0
Damaged sector count : 0

Track 08
Filename : /Users/artbromage/Desktop/The Aristocrats - Culture Clash (2013) [FLAC]/08 Living The Dream.flac

Track gain : -6.15 dB
Peak : 0.985870
CRC32 hash (test run) : 88AA0FD5
CRC32 hash : 88AA0FD5
CRC32 hash (skip zero) : 73BAEC33
AccurateRip v1 signature : 0871CE49
AccurateRip v2 signature : F5AA041E
->Track not present in AccurateRip database.
Statistics
Read error : 0
Jitter error (maybe fixed) : 0
Retry sector count : 0
Damaged sector count : 0

Track 09
Filename : /Users/artbromage/Desktop/The Aristocrats - Culture Clash (2013) [FLAC]/09 And Finally.flac

Track gain : -5.33 dB
Peak : 0.983612
CRC32 hash (test run) : 101C7D35
CRC32 hash : 101C7D35
CRC32 hash (skip zero) : 020FE1CF
AccurateRip v1 signature : 9AFC95C5
AccurateRip v2 signature : CE8AFB2B
->Track not present in AccurateRip database.
Statistics
Read error : 0
Jitter error (maybe fixed) : 0
Retry sector count : 0
Damaged sector count : 0

No errors occurred

End of status report

I 22:21:48 DVD Decrypter Version 3.5.4.0 started!
I 22:21:48 Media Center Edition (6.1, Build 7601 : Service Pack 1)
I 22:21:48 Initialising SPTI…
I 22:21:48 Searching for SCSI / ATAPI devices…
I 22:21:48 Found 2 DVD-ROMs and 1 DVD-RAM/±RW!
W 22:22:12 Possible Structure Protection Found!
W 22:22:12 1 area has been marked as 'suspect'.
W 22:22:12 Dummy sectors will be inserted where necessary.
I 22:22:57 Operation Started!
I 22:22:57 Source Device: [4:0:0] ASUS DRW-1814BLT 1.10 (H:) (ATA)
I 22:22:57 Source Media Type: DVD-ROM
I 22:22:57 Source Media Region Code: 1; 2; 3; 4; 5; 6; 8
I 22:22:57 Source Media Copyright Protection System Type: None
I 22:22:57 Source Media Implementation Identifier: Apple Computer, Inc.
I 22:22:57 Destination File: E:\Bobby29\Rips\The Aristocrats - Culture Clash (2013) [FLAC] {Deluxe Edition with DVD}\Image\CULTURE_CLASH.ISO
I 22:22:57 File Splitting: None
I 22:22:57 Hardware Read Error Retries: 20
I 22:22:57 Remove Structure Protection: No
I 22:22:57 Bad Sector Removal Method: Normal
I 22:22:57 Detect Mastering Errors: No
I 22:22:57 Remove Macrovision Protection: Yes
I 22:22:57 Extracting Sectors… (LBA: 0 - 957583)
I 22:22:57 Found IFO File: VIDEO_TS.IFO - (LBA: 298 - 304)
I 22:22:57 Found VOB File: VIDEO_TS.VOB - (LBA: 305 - 361) - KEY: N/A
I 22:22:58 Found BUP File: VIDEO_TS.BUP - (LBA: 362 - 368)
I 22:22:58 Found IFO File: VTS_01_0.IFO - (LBA: 369 - 378)
I 22:22:58 Found VOB File: VTS_01_0.VOB - (LBA: 379 - 438) - KEY: N/A
I 22:22:58 Found VOB File: VTS_01_1.VOB - (LBA: 439 - 2664) - KEY: N/A
I 22:22:58 Found BUP File: VTS_01_0.BUP - (LBA: 2665 - 2674)
I 22:22:59 Found IFO File: VTS_02_0.IFO - (LBA: 2675 - 2693)
I 22:22:59 Found VOB File: VTS_02_0.VOB - (LBA: 2694 - 2750) - KEY: N/A
I 22:22:59 Found VOB File: VTS_02_1.VOB - (LBA: 2751 - 526952) - KEY: N/A
I 22:24:36 Found VOB File: VTS_02_2.VOB - (LBA: 526953 - 957559) - KEY: N/A
I 22:25:35 Found BUP File: VTS_02_0.BUP - (LBA: 957560 - 957578)
I 22:25:35 Operation Successfully Completed! - Duration: 00:02:38
I 22:25:35 Average Read Rate: 12 121 KB/s (8.8x) - Maximum Read Rate: 15 950 KB/s (11.5x)


The Aristocrats - Culture Clash (2013) {Deluxe Edition with DVD5 NTSC, BOING! Music BM 00005}

The Aristocrats - Culture Clash (2013) {Deluxe Edition with DVD5 NTSC, BOING! Music BM 00005}

The Aristocrats - Culture Clash (2013) {Deluxe Edition with DVD5 NTSC, BOING! Music BM 00005}

The Aristocrats - Culture Clash (2013) {Deluxe Edition with DVD5 NTSC, BOING! Music BM 00005}

The Aristocrats - Culture Clash (2013) {Deluxe Edition with DVD5 NTSC, BOING! Music BM 00005}

The Aristocrats - Culture Clash (2013) {Deluxe Edition with DVD5 NTSC, BOING! Music BM 00005}


see more The Aristocrats…


===