Subcategories

Armin van Buuren - A State Of Trance 800 (The Official Compilation) (2017)

Posted By: delpotro
Armin van Buuren - A State Of Trance 800 (The Official Compilation) (2017)

Armin van Buuren - A State Of Trance 800 (The Official Compilation) (2017)
XLD Rip | FLAC (tracks+log+.cue) | 02:22:32 | 1 Gb
Trance | Label: Armada Music Bundles

We managed to create something astounding every single year, allowing A State Of Trance to become bigger, better and exponentially more badass. So when we're talking about 'A State Of Trance 800 (The Official Compilation)', you better know that expectations will be shattered to pieces. With 'A State Of Trance 800 (The Official Compilation)', the best in Trance are kicking it up a notch.
Tracklist:
1. Armin van Buuren – I Live For That Energy (ASOT 800 Anthem) (03:21)
2. Aly & Fila, Susana & Roger Shah – Unbreakable (03:20)
3. MaRLo & Chloe – You And Me feat. Chloe (03:01)
4. Orjan Nilsen – Iconic (03:52)
5. Ruben De Ronde & Kimberly Hale – All In (04:23)
6. Omnia – Hold Me (02:58)
7. Genix – Orca (03:08)
8. Sivan & Yoel Lewis – Caesarea feat. Sivan (03:48)
9. Super8 & Tab – Into (03:24)
10. Coming Soon!!! – Innocence Lost (03:23)
11. Armin van Buuren, Hilight Tribe & Vini Vici – Great Spirit feat. Hilight Tribe (03:36)
12. Mark Sherry – Gravitational Waves (04:24)
13. Denis Kenzo & Vika – Reasons Why (03:19)
14. Giuseppe Ottaviani & Christian Burns – Brightheart (03:34)
15. Jorn Van Deynhoven – Space Girl (03:25)
16. John O'Callaghan – The Forging Of Steel (03:57)
17. Ben Nicky & Chris Schweizer – The Switch (02:15)
18. PureNRG – Scarlett (03:25)
19. Bryan Kearney & Christina Novelli – By My Side (03:54)
20. Ram – RAMexico (03:34)
21. Armin van Buuren & Orjan Nilsen – Flashlight (03:06)
22. Super8 & Tab – Nino (03:46)
23. Denis Kenzo & Hanna Finsen – Dancing In The Dark (03:50)
24. Ruben De Ronde, Rodg, Louise Rademakers & Louise Rademakers – Leave A Light On feat. Louise Rademakers (04:05)
25. Estiva – Star Walk (03:50)
26. Rodg – Apollo (03:38)
27. Omnia & Jonny Rose – Why Do You Run feat. Jonny Rose (03:52)
28. MaRLo & Emma Chatt – Leave My Hand feat. Emma Chatt (03:13)
29. Radion6 – Awake (03:11)
30. Liquid Soul – Have You Ever (03:19)
31. Aly & Fila & Ahmed Romel – Kingdoms (FSOE 450 Anthem) (03:30)
32. Coming Soon!!! – Race To The Moon (02:52)
33. Chris Schweizer – Sub Zero (03:15)
34. Berg – Randa (03:37)
35. Liquid Soul & Vini Vici – Universe Inside Me (03:39)
36. Dan Stone – Macy (03:48)
37. Astrix – Deep Jungle Walk (04:10)
38. Ben Nicky – Hectic (03:13)
39. Freedom Fighters – Clockwork (03:39)
40. Waio & Avalon – Super Duper feat. Waio (04:10)

X Lossless Decoder version 20151214 (149.1)

XLD extraction logfile from 2017-04-01 01:26:40 -0400

Armin van Buuren / A State of Trance 800 (The Official Compilation)

Used drive : HL-DT-ST DVDRW GSA-S10N (revision BP10)
Media type : Pressed CD

Ripper mode : XLD Secure Ripper
Disable audio cache : OK for the drive with a cache less than 1375KiB
Make use of C2 pointers : NO
Read offset correction : 667
Max retry count : 20
Gap status : Analyzed, Appended (except HTOA)

TOC of the extracted CD
Track | Start | Length | Start sector | End sector
––––––––––––––––––––––––––––-
1 | 00:00:00 | 03:35:02 | 0 | 16126
2 | 03:35:02 | 03:20:16 | 16127 | 31142
3 | 06:55:18 | 03:01:62 | 31143 | 44779
4 | 09:57:05 | 03:52:00 | 44780 | 62179
5 | 13:49:05 | 04:24:15 | 62180 | 81994
6 | 18:13:20 | 02:59:16 | 81995 | 95435
7 | 21:12:36 | 03:42:65 | 95436 | 112150
8 | 24:55:26 | 03:48:59 | 112151 | 129309
9 | 28:44:10 | 03:24:12 | 129310 | 144621
10 | 32:08:22 | 03:22:37 | 144622 | 159808
11 | 35:30:59 | 03:35:69 | 159809 | 176002
12 | 39:06:53 | 04:24:34 | 176003 | 195836
13 | 43:31:12 | 03:19:72 | 195837 | 210833
14 | 46:51:09 | 03:33:57 | 210834 | 226865
15 | 50:24:66 | 03:25:26 | 226866 | 242266
16 | 53:50:17 | 03:57:33 | 242267 | 260074
17 | 57:47:50 | 02:14:73 | 260075 | 270197
18 | 60:02:48 | 03:24:59 | 270198 | 285556
19 | 63:27:32 | 03:53:39 | 285557 | 303070
20 | 67:20:71 | 03:34:39 | 303071 | 319159

AccurateRip Summary (DiscID: 003361fd-02f1d7fc-14109f14)
Track 01 : OK (v2, confidence 1/1)
Track 02 : OK (v2, confidence 1/1)
Track 03 : OK (v2, confidence 1/1)
Track 04 : OK (v2, confidence 1/1)
Track 05 : OK (v2, confidence 1/1)
Track 06 : OK (v2, confidence 1/1)
Track 07 : OK (v2, confidence 1/1)
Track 08 : OK (v2, confidence 1/1)
Track 09 : OK (v2, confidence 1/1)
Track 10 : OK (v2, confidence 1/1)
Track 11 : OK (v2, confidence 1/1)
Track 12 : OK (v2, confidence 1/1)
Track 13 : OK (v2, confidence 1/1)
Track 14 : OK (v2, confidence 1/1)
Track 15 : OK (v2, confidence 1/1)
Track 16 : OK (v2, confidence 1/1)
Track 17 : OK (v2, confidence 1/1)
Track 18 : OK (v2, confidence 1/1)
Track 19 : OK (v2, confidence 1/1)
Track 20 : OK (v2, confidence 1/1)
->All tracks accurately ripped.

All Tracks
Album gain : -7.53 dB
Peak : 0.966095
Statistics
Read error : 0
Jitter error (maybe fixed) : 0
Retry sector count : 0
Damaged sector count : 0

Track 01
Filename : /XLD_Rips/Armin van Buuren - A State of Trance 800 (The Official Compilation) (2017) [FLAC]/01 - I Live For That Energy (ASOT 800 Anthem).flac
Pre-gap length : 00:02:00

Track gain : -6.86 dB
Peak : 0.864227
CRC32 hash (test run) : ED2EAE7D
CRC32 hash : ED2EAE7D
CRC32 hash (skip zero) : 9C9A7A42
AccurateRip v1 signature : 9ACA1792
AccurateRip v2 signature : 7D54A5A9
->Accurately ripped (v2, confidence 1/1)
Statistics
Read error : 0
Jitter error (maybe fixed) : 0
Retry sector count : 0
Damaged sector count : 0

Track 02
Filename : /XLD_Rips/Armin van Buuren - A State of Trance 800 (The Official Compilation) (2017) [FLAC]/02 - Unbreakable.flac

Track gain : -8.10 dB
Peak : 0.869202
CRC32 hash (test run) : A6C2B68D
CRC32 hash : A6C2B68D
CRC32 hash (skip zero) : 4EDD3C81
AccurateRip v1 signature : 5D8925E0
AccurateRip v2 signature : E5BDB64F
->Accurately ripped (v2, confidence 1/1)
Statistics
Read error : 0
Jitter error (maybe fixed) : 0
Retry sector count : 0
Damaged sector count : 0

Track 03
Filename : /XLD_Rips/Armin van Buuren - A State of Trance 800 (The Official Compilation) (2017) [FLAC]/03 - You and Me (feat. Chloe).flac

Track gain : -6.10 dB
Peak : 0.966095
CRC32 hash (test run) : AC81F1B7
CRC32 hash : AC81F1B7
CRC32 hash (skip zero) : 61D9BA6C
AccurateRip v1 signature : 12518FC2
AccurateRip v2 signature : D6E8C68F
->Accurately ripped (v2, confidence 1/1)
Statistics
Read error : 0
Jitter error (maybe fixed) : 0
Retry sector count : 0
Damaged sector count : 0

Track 04
Filename : /XLD_Rips/Armin van Buuren - A State of Trance 800 (The Official Compilation) (2017) [FLAC]/04 - Iconic.flac

Track gain : -7.82 dB
Peak : 0.812866
CRC32 hash (test run) : 1151E7C3
CRC32 hash : 1151E7C3
CRC32 hash (skip zero) : B0961D16
AccurateRip v1 signature : 1F2FA15E
AccurateRip v2 signature : 14DA3B81
->Accurately ripped (v2, confidence 1/1)
Statistics
Read error : 0
Jitter error (maybe fixed) : 0
Retry sector count : 0
Damaged sector count : 0

Track 05
Filename : /XLD_Rips/Armin van Buuren - A State of Trance 800 (The Official Compilation) (2017) [FLAC]/05 - All In.flac

Track gain : -7.79 dB
Peak : 0.861694
CRC32 hash (test run) : AF318A5E
CRC32 hash : AF318A5E
CRC32 hash (skip zero) : BE767AD2
AccurateRip v1 signature : 8578286C
AccurateRip v2 signature : EA20CF22
->Accurately ripped (v2, confidence 1/1)
Statistics
Read error : 0
Jitter error (maybe fixed) : 0
Retry sector count : 0
Damaged sector count : 0

Track 06
Filename : /XLD_Rips/Armin van Buuren - A State of Trance 800 (The Official Compilation) (2017) [FLAC]/06 - Hold Me.flac

Track gain : -8.95 dB
Peak : 0.870911
CRC32 hash (test run) : D6754638
CRC32 hash : D6754638
CRC32 hash (skip zero) : A839A589
AccurateRip v1 signature : 41E9C11A
AccurateRip v2 signature : 7249182D
->Accurately ripped (v2, confidence 1/1)
Statistics
Read error : 0
Jitter error (maybe fixed) : 0
Retry sector count : 0
Damaged sector count : 0

Track 07
Filename : /XLD_Rips/Armin van Buuren - A State of Trance 800 (The Official Compilation) (2017) [FLAC]/07 - Orca.flac

Track gain : -7.51 dB
Peak : 0.966095
CRC32 hash (test run) : D364A634
CRC32 hash : D364A634
CRC32 hash (skip zero) : 89EEFD13
AccurateRip v1 signature : 500BB1D0
AccurateRip v2 signature : 6544E9F7
->Accurately ripped (v2, confidence 1/1)
Statistics
Read error : 0
Jitter error (maybe fixed) : 0
Retry sector count : 0
Damaged sector count : 0

Track 08
Filename : /XLD_Rips/Armin van Buuren - A State of Trance 800 (The Official Compilation) (2017) [FLAC]/08 - Caesarea (feat. Sivan).flac

Track gain : -7.58 dB
Peak : 0.719635
CRC32 hash (test run) : 2C18535B
CRC32 hash : 2C18535B
CRC32 hash (skip zero) : D5168D52
AccurateRip v1 signature : 8AEC4E10
AccurateRip v2 signature : 310D2C01
->Accurately ripped (v2, confidence 1/1)
Statistics
Read error : 0
Jitter error (maybe fixed) : 0
Retry sector count : 0
Damaged sector count : 0

Track 09
Filename : /XLD_Rips/Armin van Buuren - A State of Trance 800 (The Official Compilation) (2017) [FLAC]/09 - Into.flac

Track gain : -7.19 dB
Peak : 0.857147
CRC32 hash (test run) : 2C518549
CRC32 hash : 2C518549
CRC32 hash (skip zero) : 3C43639A
AccurateRip v1 signature : 0BF7448F
AccurateRip v2 signature : D70B20CC
->Accurately ripped (v2, confidence 1/1)
Statistics
Read error : 0
Jitter error (maybe fixed) : 0
Retry sector count : 0
Damaged sector count : 0

Track 10
Filename : /XLD_Rips/Armin van Buuren - A State of Trance 800 (The Official Compilation) (2017) [FLAC]/10 - Innocence Lost.flac

Track gain : -5.91 dB
Peak : 0.966064
CRC32 hash (test run) : 3432CBEB
CRC32 hash : 3432CBEB
CRC32 hash (skip zero) : B9C333F7
AccurateRip v1 signature : 8411A6CF
AccurateRip v2 signature : FAEDD989
->Accurately ripped (v2, confidence 1/1)
Statistics
Read error : 0
Jitter error (maybe fixed) : 0
Retry sector count : 0
Damaged sector count : 0

Track 11
Filename : /XLD_Rips/Armin van Buuren - A State of Trance 800 (The Official Compilation) (2017) [FLAC]/11 - Great Spirit (feat. Hilight Tribe).flac

Track gain : -6.31 dB
Peak : 0.703369
CRC32 hash (test run) : D22AEE44
CRC32 hash : D22AEE44
CRC32 hash (skip zero) : ED07B0C4
AccurateRip v1 signature : C60FC346
AccurateRip v2 signature : 6AFE324A
->Accurately ripped (v2, confidence 1/1)
Statistics
Read error : 0
Jitter error (maybe fixed) : 0
Retry sector count : 0
Damaged sector count : 0

Track 12
Filename : /XLD_Rips/Armin van Buuren - A State of Trance 800 (The Official Compilation) (2017) [FLAC]/12 - Gravitational Waves.flac

Track gain : -7.33 dB
Peak : 0.772644
CRC32 hash (test run) : F02684AC
CRC32 hash : F02684AC
CRC32 hash (skip zero) : 948716BC
AccurateRip v1 signature : 5566FC28
AccurateRip v2 signature : 5FA5D5A3
->Accurately ripped (v2, confidence 1/1)
Statistics
Read error : 0
Jitter error (maybe fixed) : 0
Retry sector count : 0
Damaged sector count : 0

Track 13
Filename : /XLD_Rips/Armin van Buuren - A State of Trance 800 (The Official Compilation) (2017) [FLAC]/13 - Reasons Why.flac

Track gain : -8.39 dB
Peak : 0.741669
CRC32 hash (test run) : 39EBF4AF
CRC32 hash : 39EBF4AF
CRC32 hash (skip zero) : F9769D43
AccurateRip v1 signature : 51DC56EA
AccurateRip v2 signature : 7A29F532
->Accurately ripped (v2, confidence 1/1)
Statistics
Read error : 0
Jitter error (maybe fixed) : 0
Retry sector count : 0
Damaged sector count : 0

Track 14
Filename : /XLD_Rips/Armin van Buuren - A State of Trance 800 (The Official Compilation) (2017) [FLAC]/14 - Brightheart.flac

Track gain : -7.52 dB
Peak : 0.966064
CRC32 hash (test run) : 73415FB9
CRC32 hash : 73415FB9
CRC32 hash (skip zero) : FE065984
AccurateRip v1 signature : 56E4081E
AccurateRip v2 signature : 7856181C
->Accurately ripped (v2, confidence 1/1)
Statistics
Read error : 0
Jitter error (maybe fixed) : 0
Retry sector count : 0
Damaged sector count : 0

Track 15
Filename : /XLD_Rips/Armin van Buuren - A State of Trance 800 (The Official Compilation) (2017) [FLAC]/15 - Space Girl.flac

Track gain : -6.45 dB
Peak : 0.867676
CRC32 hash (test run) : 7AEE6806
CRC32 hash : 7AEE6806
CRC32 hash (skip zero) : 63B8600C
AccurateRip v1 signature : A9F5BAA2
AccurateRip v2 signature : 29B8FE0A
->Accurately ripped (v2, confidence 1/1)
Statistics
Read error : 0
Jitter error (maybe fixed) : 0
Retry sector count : 0
Damaged sector count : 0

Track 16
Filename : /XLD_Rips/Armin van Buuren - A State of Trance 800 (The Official Compilation) (2017) [FLAC]/16 - The Forging of Steel.flac

Track gain : -6.05 dB
Peak : 0.825684
CRC32 hash (test run) : 594DCB75
CRC32 hash : 594DCB75
CRC32 hash (skip zero) : 2938A18D
AccurateRip v1 signature : FA12911F
AccurateRip v2 signature : 0E7BC5C6
->Accurately ripped (v2, confidence 1/1)
Statistics
Read error : 0
Jitter error (maybe fixed) : 0
Retry sector count : 0
Damaged sector count : 0

Track 17
Filename : /XLD_Rips/Armin van Buuren - A State of Trance 800 (The Official Compilation) (2017) [FLAC]/17 - The Switch.flac

Track gain : -7.19 dB
Peak : 0.767792
CRC32 hash (test run) : 334826CF
CRC32 hash : 334826CF
CRC32 hash (skip zero) : C76AC497
AccurateRip v1 signature : 5B6A8B24
AccurateRip v2 signature : E975B385
->Accurately ripped (v2, confidence 1/1)
Statistics
Read error : 0
Jitter error (maybe fixed) : 0
Retry sector count : 0
Damaged sector count : 0

Track 18
Filename : /XLD_Rips/Armin van Buuren - A State of Trance 800 (The Official Compilation) (2017) [FLAC]/18 - Scarlett.flac

Track gain : -7.19 dB
Peak : 0.765839
CRC32 hash (test run) : A99B4A96
CRC32 hash : A99B4A96
CRC32 hash (skip zero) : 1E276AC0
AccurateRip v1 signature : 208EF07C
AccurateRip v2 signature : 43263E38
->Accurately ripped (v2, confidence 1/1)
Statistics
Read error : 0
Jitter error (maybe fixed) : 0
Retry sector count : 0
Damaged sector count : 0

Track 19
Filename : /XLD_Rips/Armin van Buuren - A State of Trance 800 (The Official Compilation) (2017) [FLAC]/19 - By My Side.flac

Track gain : -5.67 dB
Peak : 0.966095
CRC32 hash (test run) : 5A56994A
CRC32 hash : 5A56994A
CRC32 hash (skip zero) : 8E80E89A
AccurateRip v1 signature : 38CF9C5E
AccurateRip v2 signature : E37806D7
->Accurately ripped (v2, confidence 1/1)
Statistics
Read error : 0
Jitter error (maybe fixed) : 0
Retry sector count : 0
Damaged sector count : 0

Track 20
Filename : /XLD_Rips/Armin van Buuren - A State of Trance 800 (The Official Compilation) (2017) [FLAC]/20 - RAMexico.flac

Track gain : -7.12 dB
Peak : 0.845123
CRC32 hash (test run) : 04ABDDC6
CRC32 hash : 04ABDDC6
CRC32 hash (skip zero) : 8B3D157C
AccurateRip v1 signature : 4B53189E
AccurateRip v2 signature : F9147A62
->Accurately ripped (v2, confidence 1/1)
Statistics
Read error : 0
Jitter error (maybe fixed) : 0
Retry sector count : 0
Damaged sector count : 0

No errors occurred

End of status report

––-BEGIN XLD SIGNATURE––-
44jJBFIaudHq3gqyawnx5a8N9avYui_A5nFg651au9UiyVU5XByYVB99FvGnDRkWxsim3ztIYhaha.Q73sQkETsWtpo504D0mGtVSSi
––-END XLD SIGNATURE––-

X Lossless Decoder version 20151214 (149.1)

XLD extraction logfile from 2017-04-01 02:18:08 -0400

Armin van Buuren / A State of Trance 800 (The Official Compilation)

Used drive : HL-DT-ST DVDRW GSA-S10N (revision BP10)
Media type : Pressed CD

Ripper mode : XLD Secure Ripper
Disable audio cache : OK for the drive with a cache less than 1375KiB
Make use of C2 pointers : NO
Read offset correction : 667
Max retry count : 20
Gap status : Analyzed, Appended (except HTOA)

TOC of the extracted CD
Track | Start | Length | Start sector | End sector
––––––––––––––––––––––––––––-
1 | 00:00:00 | 03:15:40 | 0 | 14664
2 | 03:15:40 | 03:46:55 | 14665 | 31669
3 | 07:02:20 | 03:50:43 | 31670 | 48962
4 | 10:52:63 | 04:05:62 | 48963 | 67399
5 | 14:58:50 | 03:50:30 | 67400 | 84679
6 | 18:49:05 | 03:38:20 | 84680 | 101049
7 | 22:27:25 | 03:52:42 | 101050 | 118491
8 | 26:19:67 | 03:13:72 | 118492 | 133038
9 | 29:33:64 | 03:11:20 | 133039 | 147383
10 | 32:45:09 | 03:19:38 | 147384 | 162346
11 | 36:04:47 | 03:29:61 | 162347 | 178082
12 | 39:34:33 | 02:52:21 | 178083 | 191003
13 | 42:26:54 | 03:14:57 | 191004 | 205610
14 | 45:41:36 | 03:37:42 | 205611 | 221927
15 | 49:19:03 | 03:17:59 | 221928 | 236761
16 | 52:36:62 | 03:47:70 | 236762 | 253856
17 | 56:24:57 | 04:10:36 | 253857 | 272642
18 | 60:35:18 | 03:13:68 | 272643 | 287185
19 | 63:49:11 | 03:39:01 | 287186 | 303611
20 | 67:28:12 | 04:09:04 | 303612 | 322290

AccurateRip Summary (DiscID: 00339d8b-02f1fcbd-2d10c914)
Track 01 : OK (v2, confidence 1/1)
Track 02 : OK (v2, confidence 1/1)
Track 03 : OK (v2, confidence 1/1)
Track 04 : OK (v2, confidence 1/1)
Track 05 : OK (v2, confidence 1/1)
Track 06 : OK (v2, confidence 1/1)
Track 07 : OK (v2, confidence 1/1)
Track 08 : OK (v2, confidence 1/1)
Track 09 : OK (v2, confidence 1/1)
Track 10 : OK (v2, confidence 1/1)
Track 11 : OK (v2, confidence 1/1)
Track 12 : OK (v2, confidence 1/1)
Track 13 : OK (v2, confidence 1/1)
Track 14 : OK (v2, confidence 1/1)
Track 15 : OK (v2, confidence 1/1)
Track 16 : OK (v2, confidence 1/1)
Track 17 : OK (v2, confidence 1/1)
Track 18 : OK (v2, confidence 1/1)
Track 19 : OK (v2, confidence 1/1)
Track 20 : OK (v2, confidence 1/1)
->All tracks accurately ripped.

All Tracks
Album gain : -7.22 dB
Peak : 0.966064
Statistics
Read error : 0
Jitter error (maybe fixed) : 0
Retry sector count : 0
Damaged sector count : 0

Track 01
Filename : /XLD_Rips/Armin van Buuren - A State of Trance 800 (The Official Compilation) (2017) [FLAC]/01 - Flashlight.flac
Pre-gap length : 00:02:00

Track gain : -6.62 dB
Peak : 0.914642
CRC32 hash (test run) : 5F306BA1
CRC32 hash : 5F306BA1
CRC32 hash (skip zero) : 6FD1FAD7
AccurateRip v1 signature : 3461548D
AccurateRip v2 signature : 87A9A1B9
->Accurately ripped (v2, confidence 1/1)
Statistics
Read error : 0
Jitter error (maybe fixed) : 0
Retry sector count : 0
Damaged sector count : 0

Track 02
Filename : /XLD_Rips/Armin van Buuren - A State of Trance 800 (The Official Compilation) (2017) [FLAC]/02 - Nino.flac

Track gain : -8.10 dB
Peak : 0.719330
CRC32 hash (test run) : 7C062B46
CRC32 hash : 7C062B46
CRC32 hash (skip zero) : A13B6B62
AccurateRip v1 signature : 446EFB40
AccurateRip v2 signature : 5F5D8FB4
->Accurately ripped (v2, confidence 1/1)
Statistics
Read error : 0
Jitter error (maybe fixed) : 0
Retry sector count : 0
Damaged sector count : 0

Track 03
Filename : /XLD_Rips/Armin van Buuren - A State of Trance 800 (The Official Compilation) (2017) [FLAC]/03 - Dancing In The Dark.flac

Track gain : -7.18 dB
Peak : 0.833344
CRC32 hash (test run) : C5161EDF
CRC32 hash : C5161EDF
CRC32 hash (skip zero) : 7F9C40A9
AccurateRip v1 signature : 5C630A0D
AccurateRip v2 signature : 6D0BF3AF
->Accurately ripped (v2, confidence 1/1)
Statistics
Read error : 0
Jitter error (maybe fixed) : 0
Retry sector count : 0
Damaged sector count : 0

Track 04
Filename : /XLD_Rips/Armin van Buuren - A State of Trance 800 (The Official Compilation) (2017) [FLAC]/04 - Leave a Light On (feat. Louise Rademakers).flac

Track gain : -7.16 dB
Peak : 0.882477
CRC32 hash (test run) : A138B6F8
CRC32 hash : A138B6F8
CRC32 hash (skip zero) : C8266E98
AccurateRip v1 signature : BEC87947
AccurateRip v2 signature : 9CA9AB54
->Accurately ripped (v2, confidence 1/1)
Statistics
Read error : 0
Jitter error (maybe fixed) : 0
Retry sector count : 0
Damaged sector count : 0

Track 05
Filename : /XLD_Rips/Armin van Buuren - A State of Trance 800 (The Official Compilation) (2017) [FLAC]/05 - Starwalk.flac

Track gain : -7.31 dB
Peak : 0.934540
CRC32 hash (test run) : 3E109092
CRC32 hash : 3E109092
CRC32 hash (skip zero) : E1062DFA
AccurateRip v1 signature : 69128ECD
AccurateRip v2 signature : 0FA96EC1
->Accurately ripped (v2, confidence 1/1)
Statistics
Read error : 0
Jitter error (maybe fixed) : 0
Retry sector count : 0
Damaged sector count : 0

Track 06
Filename : /XLD_Rips/Armin van Buuren - A State of Trance 800 (The Official Compilation) (2017) [FLAC]/06 - Apollo.flac

Track gain : -7.73 dB
Peak : 0.937317
CRC32 hash (test run) : 5527D1BC
CRC32 hash : 5527D1BC
CRC32 hash (skip zero) : 6444322D
AccurateRip v1 signature : A536786F
AccurateRip v2 signature : 011920B5
->Accurately ripped (v2, confidence 1/1)
Statistics
Read error : 0
Jitter error (maybe fixed) : 0
Retry sector count : 0
Damaged sector count : 0

Track 07
Filename : /XLD_Rips/Armin van Buuren - A State of Trance 800 (The Official Compilation) (2017) [FLAC]/07 - Why Do You Run (feat. Jonny Rose).flac

Track gain : -8.04 dB
Peak : 0.894440
CRC32 hash (test run) : 13453C0E
CRC32 hash : 13453C0E
CRC32 hash (skip zero) : 6C4B4CFA
AccurateRip v1 signature : 22AFA718
AccurateRip v2 signature : 73508A07
->Accurately ripped (v2, confidence 1/1)
Statistics
Read error : 0
Jitter error (maybe fixed) : 0
Retry sector count : 0
Damaged sector count : 0

Track 08
Filename : /XLD_Rips/Armin van Buuren - A State of Trance 800 (The Official Compilation) (2017) [FLAC]/08 - Leave My Hand (feat. Emma Chatt).flac

Track gain : -6.52 dB
Peak : 0.841858
CRC32 hash (test run) : 786A6FDB
CRC32 hash : 786A6FDB
CRC32 hash (skip zero) : C41C85F5
AccurateRip v1 signature : C9B8A42D
AccurateRip v2 signature : 4E03E58D
->Accurately ripped (v2, confidence 1/1)
Statistics
Read error : 0
Jitter error (maybe fixed) : 0
Retry sector count : 0
Damaged sector count : 0

Track 09
Filename : /XLD_Rips/Armin van Buuren - A State of Trance 800 (The Official Compilation) (2017) [FLAC]/09 - Awake.flac

Track gain : -5.41 dB
Peak : 0.966064
CRC32 hash (test run) : FADC10CC
CRC32 hash : FADC10CC
CRC32 hash (skip zero) : 77307AA9
AccurateRip v1 signature : 1996245C
AccurateRip v2 signature : EF594291
->Accurately ripped (v2, confidence 1/1)
Statistics
Read error : 0
Jitter error (maybe fixed) : 0
Retry sector count : 0
Damaged sector count : 0

Track 10
Filename : /XLD_Rips/Armin van Buuren - A State of Trance 800 (The Official Compilation) (2017) [FLAC]/10 - Have You Ever.flac

Track gain : -4.73 dB
Peak : 0.856171
CRC32 hash (test run) : 2470247A
CRC32 hash : 2470247A
CRC32 hash (skip zero) : AFAB3A6D
AccurateRip v1 signature : 84FAEAA0
AccurateRip v2 signature : F9C2B842
->Accurately ripped (v2, confidence 1/1)
Statistics
Read error : 0
Jitter error (maybe fixed) : 0
Retry sector count : 0
Damaged sector count : 0

Track 11
Filename : /XLD_Rips/Armin van Buuren - A State of Trance 800 (The Official Compilation) (2017) [FLAC]/11 - Kingdoms (FSOE 450 Anthem).flac

Track gain : -7.22 dB
Peak : 0.836945
CRC32 hash (test run) : E5200EBB
CRC32 hash : E5200EBB
CRC32 hash (skip zero) : BED40892
AccurateRip v1 signature : E4E45EFD
AccurateRip v2 signature : 3B4B4AD2
->Accurately ripped (v2, confidence 1/1)
Statistics
Read error : 0
Jitter error (maybe fixed) : 0
Retry sector count : 0
Damaged sector count : 0

Track 12
Filename : /XLD_Rips/Armin van Buuren - A State of Trance 800 (The Official Compilation) (2017) [FLAC]/12 - Race to the Moon.flac

Track gain : -5.79 dB
Peak : 0.795563
CRC32 hash (test run) : 36121AA6
CRC32 hash : 36121AA6
CRC32 hash (skip zero) : C5E36B8A
AccurateRip v1 signature : C80F7D89
AccurateRip v2 signature : A201605F
->Accurately ripped (v2, confidence 1/1)
Statistics
Read error : 0
Jitter error (maybe fixed) : 0
Retry sector count : 0
Damaged sector count : 0

Track 13
Filename : /XLD_Rips/Armin van Buuren - A State of Trance 800 (The Official Compilation) (2017) [FLAC]/13 - Sub Zero.flac

Track gain : -7.23 dB
Peak : 0.877747
CRC32 hash (test run) : F14E5AFA
CRC32 hash : F14E5AFA
CRC32 hash (skip zero) : 0E637359
AccurateRip v1 signature : E1C70EA3
AccurateRip v2 signature : ADBE5537
->Accurately ripped (v2, confidence 1/1)
Statistics
Read error : 0
Jitter error (maybe fixed) : 0
Retry sector count : 0
Damaged sector count : 0

Track 14
Filename : /XLD_Rips/Armin van Buuren - A State of Trance 800 (The Official Compilation) (2017) [FLAC]/14 - Randa.flac

Track gain : -6.16 dB
Peak : 0.838989
CRC32 hash (test run) : 73876ABF
CRC32 hash : 73876ABF
CRC32 hash (skip zero) : 98A86184
AccurateRip v1 signature : C21A5835
AccurateRip v2 signature : 912A433F
->Accurately ripped (v2, confidence 1/1)
Statistics
Read error : 0
Jitter error (maybe fixed) : 0
Retry sector count : 0
Damaged sector count : 0

Track 15
Filename : /XLD_Rips/Armin van Buuren - A State of Trance 800 (The Official Compilation) (2017) [FLAC]/15 - Universe Inside Me.flac

Track gain : -5.37 dB
Peak : 0.854431
CRC32 hash (test run) : 14B23306
CRC32 hash : 14B23306
CRC32 hash (skip zero) : 0F54965E
AccurateRip v1 signature : 014A1E16
AccurateRip v2 signature : BD5179B9
->Accurately ripped (v2, confidence 1/1)
Statistics
Read error : 0
Jitter error (maybe fixed) : 0
Retry sector count : 0
Damaged sector count : 0

Track 16
Filename : /XLD_Rips/Armin van Buuren - A State of Trance 800 (The Official Compilation) (2017) [FLAC]/16 - Macy.flac

Track gain : -7.02 dB
Peak : 0.789612
CRC32 hash (test run) : 64AC881D
CRC32 hash : 64AC881D
CRC32 hash (skip zero) : E711EA1A
AccurateRip v1 signature : 53321324
AccurateRip v2 signature : 20D68FD9
->Accurately ripped (v2, confidence 1/1)
Statistics
Read error : 0
Jitter error (maybe fixed) : 0
Retry sector count : 0
Damaged sector count : 0

Track 17
Filename : /XLD_Rips/Armin van Buuren - A State of Trance 800 (The Official Compilation) (2017) [FLAC]/17 - Deep Junglewalk.flac

Track gain : -4.90 dB
Peak : 0.902313
CRC32 hash (test run) : 9ACB51D7
CRC32 hash : 9ACB51D7
CRC32 hash (skip zero) : 1BE2CD80
AccurateRip v1 signature : 1FFED7C1
AccurateRip v2 signature : 4348F749
->Accurately ripped (v2, confidence 1/1)
Statistics
Read error : 0
Jitter error (maybe fixed) : 0
Retry sector count : 0
Damaged sector count : 0

Track 18
Filename : /XLD_Rips/Armin van Buuren - A State of Trance 800 (The Official Compilation) (2017) [FLAC]/18 - Hectic.flac

Track gain : -7.01 dB
Peak : 0.697845
CRC32 hash (test run) : 30E7C960
CRC32 hash : 30E7C960
CRC32 hash (skip zero) : AE5210C5
AccurateRip v1 signature : BF155714
AccurateRip v2 signature : CE8872F0
->Accurately ripped (v2, confidence 1/1)
Statistics
Read error : 0
Jitter error (maybe fixed) : 0
Retry sector count : 0
Damaged sector count : 0

Track 19
Filename : /XLD_Rips/Armin van Buuren - A State of Trance 800 (The Official Compilation) (2017) [FLAC]/19 - Clockwork.flac

Track gain : -5.75 dB
Peak : 0.966064
CRC32 hash (test run) : F22EE90E
CRC32 hash : F22EE90E
CRC32 hash (skip zero) : E1B2ADD5
AccurateRip v1 signature : 5E81E640
AccurateRip v2 signature : 128692BA
->Accurately ripped (v2, confidence 1/1)
Statistics
Read error : 0
Jitter error (maybe fixed) : 0
Retry sector count : 0
Damaged sector count : 0

Track 20
Filename : /XLD_Rips/Armin van Buuren - A State of Trance 800 (The Official Compilation) (2017) [FLAC]/20 - Superduper (feat. Waio).flac

Track gain : -5.57 dB
Peak : 0.952637
CRC32 hash (test run) : CB1FD7FF
CRC32 hash : CB1FD7FF
CRC32 hash (skip zero) : 77EC1913
AccurateRip v1 signature : 0D554D4A
AccurateRip v2 signature : FC20A73A
->Accurately ripped (v2, confidence 1/1)
Statistics
Read error : 0
Jitter error (maybe fixed) : 0
Retry sector count : 0
Damaged sector count : 0

No errors occurred

End of status report

––-BEGIN XLD SIGNATURE––-
CWHccXERFtLzfY.rq7jiKMkC0lF3yE.ZbmtjSpoVSZ5BOZ3xGWv5RFXG2q.ervc2Vb84955.y6WGJhnb0j4B2Aktt3JJuq4x8dybSN8
––-END XLD SIGNATURE––-

Thanks to the Original ripper pulsar !