Subcategories
Tags
Language
Tags

Asia - Phoenix (Expanded Edition) (2008/2016)

Posted By: delpotro
Asia - Phoenix (Expanded Edition) (2008/2016)

Asia - Phoenix (Expanded Edition) (2008/2016)
XLD Rip | FLAC (tracks+log+.cue) - 992 Mb | MP3 CBR 320 kbps - 331 Mb | 02:19:23
Progressive Rock | Label: Asia Music

Digitally remastered and expanded two CD edition. Legendary band Asia released the biggest selling album in the world in 1982. The original line-up of the band reunited in 2006 and recorded the studio album Phoenix in 2008. This album features original members Geoff Downes (Yes/The Buggles)/Steve Howe (Yes), Carl Palmer (ELP) and John Wetton (King Crimson/UK). The Phoenix album gave rise to the hit An Extraordinary Life, which has been played all around the world, including as the theme to America's Got Talent advertising. This expanded edition collects together the original European version of the album, the two bonus tracks and the US only remix into the same place for the first time ever!

"EU and US versions have different mastering. Also the opening track on US version ("Never Again") has different mix."

AllMusic Review by Stephen Thomas Erlewine
Like the Phoenix of the title of their 2008 album, Asia has risen from the ashes and made their first studio album with their original lineup in a quarter century. The remarkable thing about Phoenix is that in pure sonic terms, it could have appeared as the sequel to Alpha in 1985 instead of the Steve Howe-less Astra, which is a remarkable achievement in many ways, but what makes the album more interesting is that it is suffused with a sense of mortality. This is no doubt due in part to singer/songwriter/bassist John Wetton's brush with death via open heart surgery in 1997, but his frankness in regards to death gives Phoenix an emotional pull that Asia lacked on their twin blockbusters of 1982's Asia and 1983's Alpha. This makes Phoenix a richer experience, but the nice thing about the album is that it's also easy to appreciate on a simpler musical level, in how the band has a suppleness when they stretch out into multi-part suites while retaining a knack for big, arena pop hooks. All this adds up to a comeback that is surprisingly compelling and surprisingly moving, something that only die-hard fans may have suspected the band still had in them.
Tracklist:
Disc 1 (01:14:30)
1. Never Again (04:55)
2. Nothing's Forever (05:46)
3. Heroine (04:54)
4. Sleeping Giant / No Way Back / Reprise (08:10)
5. Alibis (05:40)
6. I Will Remember You (05:12)
7. Shadow Of A Doubt (04:18)
8. Parallel Worlds / Vortex / Déyà (08:13)
9. Wish I'd Known All Along (04:07)
10. Orchard Of Mines (05:12)
11. Over And Over (03:34)
12. An Extraordinary Life (04:59)
13. I Will Remember You (Acoustic Remix) (05:14)
14. An Extraordinary Life (Acoustic Remix) (04:16)

Disc 2 (01:04:54)
1. Never Again (04:55)
2. Nothing's Forever (05:46)
3. Heroine (04:53)
4. Sleeping Giant / No Way Back / Reprise (08:11)
5. Alibis (05:40)
6. I Will Remember You (05:10)
7. Shadow Of A Doubt (04:18)
8. Parallel Worlds / Vortex / Déyà (08:12)
9. Wish I'd Known All Along (04:06)
10. Orchard Of Mines (05:12)
11. Over And Over (03:34)
12. An Extraordinary Life (04:57)

X Lossless Decoder version 20191004 (152.0)

XLD extraction logfile from 2020-04-17 21:58:49 +0100

Asia / Phoenix

Used drive : MATSHITA BD-MLT UJ240AF (revision 1.00)
Media type : Pressed CD

Ripper mode : XLD Secure Ripper
Disable audio cache : OK for the drive with a cache less than 1375KiB
Make use of C2 pointers : NO
Read offset correction : 103
Max retry count : 25
Gap status : Analyzed, Appended (except HTOA)

TOC of the extracted CD
Track | Start | Length | Start sector | End sector
––––––––––––––––––––––––––––-
1 | 00:00:00 | 04:54:74 | 0 | 22123
2 | 04:54:74 | 05:46:11 | 22124 | 48084
3 | 10:41:10 | 04:54:18 | 48085 | 70152
4 | 15:35:28 | 08:10:11 | 70153 | 106913
5 | 23:45:39 | 05:40:03 | 106914 | 132416
6 | 29:25:42 | 05:12:29 | 132417 | 155845
7 | 34:37:71 | 04:18:31 | 155846 | 175226
8 | 38:56:27 | 08:12:59 | 175227 | 212185
9 | 47:09:11 | 04:06:72 | 212186 | 230707
10 | 51:16:08 | 05:12:32 | 230708 | 254139
11 | 56:28:40 | 03:33:56 | 254140 | 270170
12 | 60:02:21 | 04:59:03 | 270171 | 292598
13 | 65:01:24 | 05:13:53 | 292599 | 316126
14 | 70:15:02 | 04:16:01 | 316127 | 335327

AccurateRip Summary (DiscID: 00280249-01a84455-d111770e)
Track 01 : OK (v2, confidence 10/10)
Track 02 : OK (v2, confidence 10/10)
Track 03 : OK (v2, confidence 10/10)
Track 04 : OK (v2, confidence 10/10)
Track 05 : OK (v2, confidence 10/10)
Track 06 : OK (v2, confidence 10/10)
Track 07 : OK (v2, confidence 10/10)
Track 08 : OK (v2, confidence 10/10)
Track 09 : OK (v2, confidence 10/10)
Track 10 : OK (v2, confidence 10/10)
Track 11 : OK (v2, confidence 10/10)
Track 12 : OK (v2, confidence 10/10)
Track 13 : OK (v2, confidence 10/10)
Track 14 : OK (v2, confidence 10/10)
->All tracks accurately ripped.

All Tracks
Album gain : -8.86 dB
Peak : 0.999969
Statistics
Read error : 0
Jitter error (maybe fixed) : 1
Retry sector count : 0
Damaged sector count : 0

Track 01
Filename : /Users/imac/Working Folder/XLD/Asia - Phoenix (2016) [FLAC]/01 - Asia - Never Again.flac
/Users/imac/Working Folder/XLD/Asia - Phoenix (2016) [MP3-320]/01 - Asia - Never Again.mp3
/Users/imac/Working Folder/XLD/Asia - Phoenix (2016) [MP3-V0]/01 - Asia - Never Again.mp3
/Users/imac/Working Folder/XLD/Asia - Phoenix (2016) [MP3-V2]/01 - Asia - Never Again.mp3
Pre-gap length : 00:02:00

Track gain : -10.22 dB
Peak : 0.999969
CRC32 hash (test run) : ADDA8359
CRC32 hash : ADDA8359
CRC32 hash (skip zero) : 50790DE2
AccurateRip v1 signature : F292F1AB
AccurateRip v2 signature : 06DB75D9
->Accurately ripped (v2, confidence 10/10)
Statistics
Read error : 0
Jitter error (maybe fixed) : 0
Retry sector count : 0
Damaged sector count : 0

Track 02
Filename : /Users/imac/Working Folder/XLD/Asia - Phoenix (2016) [FLAC]/02 - Asia - Nothing's Forever.flac
/Users/imac/Working Folder/XLD/Asia - Phoenix (2016) [MP3-320]/02 - Asia - Nothing's Forever.mp3
/Users/imac/Working Folder/XLD/Asia - Phoenix (2016) [MP3-V0]/02 - Asia - Nothing's Forever.mp3
/Users/imac/Working Folder/XLD/Asia - Phoenix (2016) [MP3-V2]/02 - Asia - Nothing's Forever.mp3

Track gain : -9.05 dB
Peak : 0.999969
CRC32 hash (test run) : 0A2C5CA4
CRC32 hash : 0A2C5CA4
CRC32 hash (skip zero) : FA352D4F
AccurateRip v1 signature : 0A82B90D
AccurateRip v2 signature : 2E3CCEAF
->Accurately ripped (v2, confidence 10/10)
Statistics
Read error : 0
Jitter error (maybe fixed) : 0
Retry sector count : 0
Damaged sector count : 0

Track 03
Filename : /Users/imac/Working Folder/XLD/Asia - Phoenix (2016) [FLAC]/03 - Asia - Heroine.flac
/Users/imac/Working Folder/XLD/Asia - Phoenix (2016) [MP3-320]/03 - Asia - Heroine.mp3
/Users/imac/Working Folder/XLD/Asia - Phoenix (2016) [MP3-V0]/03 - Asia - Heroine.mp3
/Users/imac/Working Folder/XLD/Asia - Phoenix (2016) [MP3-V2]/03 - Asia - Heroine.mp3

Track gain : -9.31 dB
Peak : 0.999969
CRC32 hash (test run) : 015E623E
CRC32 hash : 015E623E
CRC32 hash (skip zero) : 8D507FB2
AccurateRip v1 signature : 274B3486
AccurateRip v2 signature : 441B9846
->Accurately ripped (v2, confidence 10/10)
Statistics
Read error : 0
Jitter error (maybe fixed) : 0
Retry sector count : 0
Damaged sector count : 0

Track 04
Filename : /Users/imac/Working Folder/XLD/Asia - Phoenix (2016) [FLAC]/04 - Asia - Sleeping Giant - No Way Back - Reprise.flac
/Users/imac/Working Folder/XLD/Asia - Phoenix (2016) [MP3-320]/04 - Asia - Sleeping Giant - No Way Back - Reprise.mp3
/Users/imac/Working Folder/XLD/Asia - Phoenix (2016) [MP3-V0]/04 - Asia - Sleeping Giant - No Way Back - Reprise.mp3
/Users/imac/Working Folder/XLD/Asia - Phoenix (2016) [MP3-V2]/04 - Asia - Sleeping Giant - No Way Back - Reprise.mp3

Track gain : -8.82 dB
Peak : 0.999969
CRC32 hash (test run) : 6BC020D8
CRC32 hash : 6BC020D8
CRC32 hash (skip zero) : 48FB0751
AccurateRip v1 signature : 92E1D5F0
AccurateRip v2 signature : 9AF3A189
->Accurately ripped (v2, confidence 10/10)
Statistics
Read error : 0
Jitter error (maybe fixed) : 0
Retry sector count : 0
Damaged sector count : 0

Track 05
Filename : /Users/imac/Working Folder/XLD/Asia - Phoenix (2016) [FLAC]/05 - Asia - Alibis.flac
/Users/imac/Working Folder/XLD/Asia - Phoenix (2016) [MP3-320]/05 - Asia - Alibis.mp3
/Users/imac/Working Folder/XLD/Asia - Phoenix (2016) [MP3-V0]/05 - Asia - Alibis.mp3
/Users/imac/Working Folder/XLD/Asia - Phoenix (2016) [MP3-V2]/05 - Asia - Alibis.mp3

Track gain : -9.45 dB
Peak : 0.999969
CRC32 hash (test run) : 53992472
CRC32 hash : 53992472
CRC32 hash (skip zero) : FF73FD29
AccurateRip v1 signature : E12A2DB6
AccurateRip v2 signature : 772AB788
->Accurately ripped (v2, confidence 10/10)
Statistics
Read error : 0
Jitter error (maybe fixed) : 0
Retry sector count : 0
Damaged sector count : 0

Track 06
Filename : /Users/imac/Working Folder/XLD/Asia - Phoenix (2016) [FLAC]/06 - Asia - I Will Remember You.flac
/Users/imac/Working Folder/XLD/Asia - Phoenix (2016) [MP3-320]/06 - Asia - I Will Remember You.mp3
/Users/imac/Working Folder/XLD/Asia - Phoenix (2016) [MP3-V0]/06 - Asia - I Will Remember You.mp3
/Users/imac/Working Folder/XLD/Asia - Phoenix (2016) [MP3-V2]/06 - Asia - I Will Remember You.mp3

Track gain : -7.83 dB
Peak : 0.999969
CRC32 hash (test run) : 6859958C
CRC32 hash : 6859958C
CRC32 hash (skip zero) : 878DAAC3
AccurateRip v1 signature : 3905E6C1
AccurateRip v2 signature : E3AD2AA4
->Accurately ripped (v2, confidence 10/10)
Statistics
Read error : 0
Jitter error (maybe fixed) : 0
Retry sector count : 0
Damaged sector count : 0

Track 07
Filename : /Users/imac/Working Folder/XLD/Asia - Phoenix (2016) [FLAC]/07 - Asia - Shadow of a Doubt.flac
/Users/imac/Working Folder/XLD/Asia - Phoenix (2016) [MP3-320]/07 - Asia - Shadow of a Doubt.mp3
/Users/imac/Working Folder/XLD/Asia - Phoenix (2016) [MP3-V0]/07 - Asia - Shadow of a Doubt.mp3
/Users/imac/Working Folder/XLD/Asia - Phoenix (2016) [MP3-V2]/07 - Asia - Shadow of a Doubt.mp3

Track gain : -10.06 dB
Peak : 0.999969
CRC32 hash (test run) : A826A449
CRC32 hash : A826A449
CRC32 hash (skip zero) : 6EC46877
AccurateRip v1 signature : FB561FC2
AccurateRip v2 signature : 38E2DFBE
->Accurately ripped (v2, confidence 10/10)
Statistics
Read error : 0
Jitter error (maybe fixed) : 0
Retry sector count : 0
Damaged sector count : 0

Track 08
Filename : /Users/imac/Working Folder/XLD/Asia - Phoenix (2016) [FLAC]/08 - Asia - Parallel Worlds - Vortex - Deya.flac
/Users/imac/Working Folder/XLD/Asia - Phoenix (2016) [MP3-320]/08 - Asia - Parallel Worlds - Vortex - Deya.mp3
/Users/imac/Working Folder/XLD/Asia - Phoenix (2016) [MP3-V0]/08 - Asia - Parallel Worlds - Vortex - Deya.mp3
/Users/imac/Working Folder/XLD/Asia - Phoenix (2016) [MP3-V2]/08 - Asia - Parallel Worlds - Vortex - Deya.mp3

Track gain : -8.29 dB
Peak : 0.999969
CRC32 hash (test run) : E91EF46B
CRC32 hash : E91EF46B
CRC32 hash (skip zero) : DECE6699
AccurateRip v1 signature : EB3D48E0
AccurateRip v2 signature : 716258F9
->Accurately ripped (v2, confidence 10/10)
Statistics
Read error : 0
Jitter error (maybe fixed) : 0
Retry sector count : 0
Damaged sector count : 0

Track 09
Filename : /Users/imac/Working Folder/XLD/Asia - Phoenix (2016) [FLAC]/09 - Asia - Wish I'd Known All Along.flac
/Users/imac/Working Folder/XLD/Asia - Phoenix (2016) [MP3-320]/09 - Asia - Wish I'd Known All Along.mp3
/Users/imac/Working Folder/XLD/Asia - Phoenix (2016) [MP3-V0]/09 - Asia - Wish I'd Known All Along.mp3
/Users/imac/Working Folder/XLD/Asia - Phoenix (2016) [MP3-V2]/09 - Asia - Wish I'd Known All Along.mp3

Track gain : -8.23 dB
Peak : 0.999969
CRC32 hash (test run) : 92FA0935
CRC32 hash : 92FA0935
CRC32 hash (skip zero) : B0ABCA83
AccurateRip v1 signature : 22FD986E
AccurateRip v2 signature : C932DF4F
->Accurately ripped (v2, confidence 10/10)
Statistics
Read error : 0
Jitter error (maybe fixed) : 0
Retry sector count : 0
Damaged sector count : 0

Track 10
Filename : /Users/imac/Working Folder/XLD/Asia - Phoenix (2016) [FLAC]/10 - Asia - Orchard of Mines.flac
/Users/imac/Working Folder/XLD/Asia - Phoenix (2016) [MP3-320]/10 - Asia - Orchard of Mines.mp3
/Users/imac/Working Folder/XLD/Asia - Phoenix (2016) [MP3-V0]/10 - Asia - Orchard of Mines.mp3
/Users/imac/Working Folder/XLD/Asia - Phoenix (2016) [MP3-V2]/10 - Asia - Orchard of Mines.mp3

Track gain : -7.80 dB
Peak : 0.999969
CRC32 hash (test run) : 715AFD3F
CRC32 hash : 715AFD3F
CRC32 hash (skip zero) : 2623877E
AccurateRip v1 signature : 2597188B
AccurateRip v2 signature : E0DB4460
->Accurately ripped (v2, confidence 10/10)
Statistics
Read error : 0
Jitter error (maybe fixed) : 0
Retry sector count : 0
Damaged sector count : 0

Track 11
Filename : /Users/imac/Working Folder/XLD/Asia - Phoenix (2016) [FLAC]/11 - Asia - Over and Over.flac
/Users/imac/Working Folder/XLD/Asia - Phoenix (2016) [MP3-320]/11 - Asia - Over and Over.mp3
/Users/imac/Working Folder/XLD/Asia - Phoenix (2016) [MP3-V0]/11 - Asia - Over and Over.mp3
/Users/imac/Working Folder/XLD/Asia - Phoenix (2016) [MP3-V2]/11 - Asia - Over and Over.mp3

Track gain : -9.15 dB
Peak : 0.999969
CRC32 hash (test run) : 821C6846
CRC32 hash : 821C6846
CRC32 hash (skip zero) : 40F2FF84
AccurateRip v1 signature : 1AE384E1
AccurateRip v2 signature : 3CCBF566
->Accurately ripped (v2, confidence 10/10)
Statistics
Read error : 0
Jitter error (maybe fixed) : 0
Retry sector count : 0
Damaged sector count : 0

Track 12
Filename : /Users/imac/Working Folder/XLD/Asia - Phoenix (2016) [FLAC]/12 - Asia - An Extraordinary Life.flac
/Users/imac/Working Folder/XLD/Asia - Phoenix (2016) [MP3-320]/12 - Asia - An Extraordinary Life.mp3
/Users/imac/Working Folder/XLD/Asia - Phoenix (2016) [MP3-V0]/12 - Asia - An Extraordinary Life.mp3
/Users/imac/Working Folder/XLD/Asia - Phoenix (2016) [MP3-V2]/12 - Asia - An Extraordinary Life.mp3

Track gain : -9.68 dB
Peak : 0.999969
CRC32 hash (test run) : 41086C23
CRC32 hash : 41086C23
CRC32 hash (skip zero) : 7AF42CBA
AccurateRip v1 signature : EA723784
AccurateRip v2 signature : 63F392DC
->Accurately ripped (v2, confidence 10/10)
Statistics
Read error : 0
Jitter error (maybe fixed) : 0
Retry sector count : 0
Damaged sector count : 0

Track 13
Filename : /Users/imac/Working Folder/XLD/Asia - Phoenix (2016) [FLAC]/13 - Asia - I Will Remember You (Acoustic Remix).flac
/Users/imac/Working Folder/XLD/Asia - Phoenix (2016) [MP3-320]/13 - Asia - I Will Remember You (Acoustic Remix).mp3
/Users/imac/Working Folder/XLD/Asia - Phoenix (2016) [MP3-V0]/13 - Asia - I Will Remember You (Acoustic Remix).mp3
/Users/imac/Working Folder/XLD/Asia - Phoenix (2016) [MP3-V2]/13 - Asia - I Will Remember You (Acoustic Remix).mp3

Track gain : -6.37 dB
Peak : 0.999969
CRC32 hash (test run) : 9E3DCDF2
CRC32 hash : 9E3DCDF2
CRC32 hash (skip zero) : BC8A32B8
AccurateRip v1 signature : FBD1D286
AccurateRip v2 signature : 8C35566C
->Accurately ripped (v2, confidence 10/10)
Statistics
Read error : 0
Jitter error (maybe fixed) : 0
Retry sector count : 0
Damaged sector count : 0

Track 14
Filename : /Users/imac/Working Folder/XLD/Asia - Phoenix (2016) [FLAC]/14 - Asia - An Extraordinary Life (Acoustic Remix).flac
/Users/imac/Working Folder/XLD/Asia - Phoenix (2016) [MP3-320]/14 - Asia - An Extraordinary Life (Acoustic Remix).mp3
/Users/imac/Working Folder/XLD/Asia - Phoenix (2016) [MP3-V0]/14 - Asia - An Extraordinary Life (Acoustic Remix).mp3
/Users/imac/Working Folder/XLD/Asia - Phoenix (2016) [MP3-V2]/14 - Asia - An Extraordinary Life (Acoustic Remix).mp3

Track gain : -8.44 dB
Peak : 0.999969
CRC32 hash (test run) : 3B48A624
CRC32 hash : 3B48A624
CRC32 hash (skip zero) : FB3AF2E9
AccurateRip v1 signature : 7C83EF5D
AccurateRip v2 signature : FDAA98E3
->Accurately ripped (v2, confidence 10/10)
Statistics
Read error : 0
Jitter error (maybe fixed) : 1
Retry sector count : 0
Damaged sector count : 0

No errors occurred

End of status report

––-BEGIN XLD SIGNATURE––-
uD6EMkEpHFjCq6PEdnfSBcH9d2Po1lNx9ybfkr1Qk5Biqu3rg3o.it_ikK9Fez8IqYkH8hUvGN_dB91.1stZ_suFVoOuY8_Ju1S92ba
––-END XLD SIGNATURE––-
X Lossless Decoder version 20191004 (152.0)

XLD extraction logfile from 2020-04-17 22:27:07 +0100

Asia / Phoenix

Used drive : MATSHITA BD-MLT UJ240AF (revision 1.00)
Media type : Pressed CD

Ripper mode : XLD Secure Ripper
Disable audio cache : OK for the drive with a cache less than 1375KiB
Make use of C2 pointers : NO
Read offset correction : 103
Max retry count : 25
Gap status : Analyzed, Appended (except HTOA)

TOC of the extracted CD
Track | Start | Length | Start sector | End sector
––––––––––––––––––––––––––––-
1 | 00:00:00 | 04:54:65 | 0 | 22114
2 | 04:54:65 | 05:46:12 | 22115 | 48076
3 | 10:41:02 | 04:52:68 | 48077 | 70044
4 | 15:33:70 | 08:10:52 | 70045 | 106846
5 | 23:44:47 | 05:39:40 | 106847 | 132311
6 | 29:24:12 | 05:10:28 | 132312 | 155589
7 | 34:34:40 | 04:18:02 | 155590 | 174941
8 | 38:52:42 | 08:11:45 | 174942 | 211811
9 | 47:04:12 | 04:05:55 | 211812 | 230241
10 | 51:09:67 | 05:11:70 | 230242 | 253636
11 | 56:21:62 | 03:33:53 | 253637 | 269664
12 | 59:55:40 | 04:56:65 | 269665 | 291929

List of alternate offset correction values
# | Absolute | Relative | Confidence
–––––––––––––––––––––
1 | 97 | -6 | 97
2 | -567 | -670 | 4

AccurateRip Summary (DiscID: 001e046e-011777d4-b30f340c)
Track 01 : OK (v2, confidence 12/113)
Track 02 : OK (v2, confidence 12/111)
Track 03 : OK (v2, confidence 12/112)
Track 04 : OK (v2, confidence 12/112)
Track 05 : OK (v2, confidence 12/111)
Track 06 : OK (v2, confidence 12/111)
Track 07 : OK (v2, confidence 12/111)
Track 08 : OK (v2, confidence 12/113)
Track 09 : OK (v2, confidence 12/111)
Track 10 : OK (v2, confidence 12/112)
Track 11 : OK (v2, confidence 12/111)
Track 12 : OK (v2, confidence 12/109)
->All tracks accurately ripped.

All Tracks
Album gain : -10.25 dB
Peak : 0.988586
Statistics
Read error : 0
Jitter error (maybe fixed) : 0
Retry sector count : 0
Damaged sector count : 0

Track 01
Filename : /Users/imac/Working Folder/XLD/Asia - Phoenix (2016) [FLAC]/01 - Asia - Never Again.flac
/Users/imac/Working Folder/XLD/Asia - Phoenix (2016) [MP3-320]/01 - Asia - Never Again.mp3
/Users/imac/Working Folder/XLD/Asia - Phoenix (2016) [MP3-V0]/01 - Asia - Never Again.mp3
/Users/imac/Working Folder/XLD/Asia - Phoenix (2016) [MP3-V2]/01 - Asia - Never Again.mp3
Pre-gap length : 00:02:00

Track gain : -11.50 dB
Peak : 0.978607
CRC32 hash (test run) : F216C226
CRC32 hash : F216C226
CRC32 hash (skip zero) : 0D1F7584
AccurateRip v1 signature : 7C1C406C
AccurateRip v2 signature : 2B793E55
->Accurately ripped (v2, confidence 12/113)
Statistics
Read error : 0
Jitter error (maybe fixed) : 0
Retry sector count : 0
Damaged sector count : 0

Track 02
Filename : /Users/imac/Working Folder/XLD/Asia - Phoenix (2016) [FLAC]/02 - Asia - Nothing's Forever.flac
/Users/imac/Working Folder/XLD/Asia - Phoenix (2016) [MP3-320]/02 - Asia - Nothing's Forever.mp3
/Users/imac/Working Folder/XLD/Asia - Phoenix (2016) [MP3-V0]/02 - Asia - Nothing's Forever.mp3
/Users/imac/Working Folder/XLD/Asia - Phoenix (2016) [MP3-V2]/02 - Asia - Nothing's Forever.mp3

Track gain : -9.50 dB
Peak : 0.977264
CRC32 hash (test run) : 233ADCD2
CRC32 hash : 233ADCD2
CRC32 hash (skip zero) : 3822ED3E
AccurateRip v1 signature : 63A61DA0
AccurateRip v2 signature : 26ED7837
->Accurately ripped (v2, confidence 12/111)
Statistics
Read error : 0
Jitter error (maybe fixed) : 0
Retry sector count : 0
Damaged sector count : 0

Track 03
Filename : /Users/imac/Working Folder/XLD/Asia - Phoenix (2016) [FLAC]/03 - Asia - Heroine.flac
/Users/imac/Working Folder/XLD/Asia - Phoenix (2016) [MP3-320]/03 - Asia - Heroine.mp3
/Users/imac/Working Folder/XLD/Asia - Phoenix (2016) [MP3-V0]/03 - Asia - Heroine.mp3
/Users/imac/Working Folder/XLD/Asia - Phoenix (2016) [MP3-V2]/03 - Asia - Heroine.mp3

Track gain : -10.46 dB
Peak : 0.984772
CRC32 hash (test run) : 6270162B
CRC32 hash : 6270162B
CRC32 hash (skip zero) : 3894E77F
AccurateRip v1 signature : 0AE992AE
AccurateRip v2 signature : B3F84C73
->Accurately ripped (v2, confidence 12/112)
Statistics
Read error : 0
Jitter error (maybe fixed) : 0
Retry sector count : 0
Damaged sector count : 0

Track 04
Filename : /Users/imac/Working Folder/XLD/Asia - Phoenix (2016) [FLAC]/04 - Asia - Sleeping Giant - No Way Back - Reprise.flac
/Users/imac/Working Folder/XLD/Asia - Phoenix (2016) [MP3-320]/04 - Asia - Sleeping Giant - No Way Back - Reprise.mp3
/Users/imac/Working Folder/XLD/Asia - Phoenix (2016) [MP3-V0]/04 - Asia - Sleeping Giant - No Way Back - Reprise.mp3
/Users/imac/Working Folder/XLD/Asia - Phoenix (2016) [MP3-V2]/04 - Asia - Sleeping Giant - No Way Back - Reprise.mp3

Track gain : -9.10 dB
Peak : 0.973877
CRC32 hash (test run) : 844D84C6
CRC32 hash : 844D84C6
CRC32 hash (skip zero) : F673CCEA
AccurateRip v1 signature : 50C65D81
AccurateRip v2 signature : 2BE9833C
->Accurately ripped (v2, confidence 12/112)
Statistics
Read error : 0
Jitter error (maybe fixed) : 0
Retry sector count : 0
Damaged sector count : 0

Track 05
Filename : /Users/imac/Working Folder/XLD/Asia - Phoenix (2016) [FLAC]/05 - Asia - Alibis.flac
/Users/imac/Working Folder/XLD/Asia - Phoenix (2016) [MP3-320]/05 - Asia - Alibis.mp3
/Users/imac/Working Folder/XLD/Asia - Phoenix (2016) [MP3-V0]/05 - Asia - Alibis.mp3
/Users/imac/Working Folder/XLD/Asia - Phoenix (2016) [MP3-V2]/05 - Asia - Alibis.mp3

Track gain : -10.96 dB
Peak : 0.973999
CRC32 hash (test run) : D544CF56
CRC32 hash : D544CF56
CRC32 hash (skip zero) : 4EF2A3FB
AccurateRip v1 signature : B334159C
AccurateRip v2 signature : 745E62FB
->Accurately ripped (v2, confidence 12/111)
Statistics
Read error : 0
Jitter error (maybe fixed) : 0
Retry sector count : 0
Damaged sector count : 0

Track 06
Filename : /Users/imac/Working Folder/XLD/Asia - Phoenix (2016) [FLAC]/06 - Asia - I Will Remember You.flac
/Users/imac/Working Folder/XLD/Asia - Phoenix (2016) [MP3-320]/06 - Asia - I Will Remember You.mp3
/Users/imac/Working Folder/XLD/Asia - Phoenix (2016) [MP3-V0]/06 - Asia - I Will Remember You.mp3
/Users/imac/Working Folder/XLD/Asia - Phoenix (2016) [MP3-V2]/06 - Asia - I Will Remember You.mp3

Track gain : -9.20 dB
Peak : 0.988586
CRC32 hash (test run) : D364AD3A
CRC32 hash : D364AD3A
CRC32 hash (skip zero) : DB1CF1AD
AccurateRip v1 signature : 14A4AD8D
AccurateRip v2 signature : 5233E38D
->Accurately ripped (v2, confidence 12/111)
Statistics
Read error : 0
Jitter error (maybe fixed) : 0
Retry sector count : 0
Damaged sector count : 0

Track 07
Filename : /Users/imac/Working Folder/XLD/Asia - Phoenix (2016) [FLAC]/07 - Asia - Shadow Of A Doubt.flac
/Users/imac/Working Folder/XLD/Asia - Phoenix (2016) [MP3-320]/07 - Asia - Shadow Of A Doubt.mp3
/Users/imac/Working Folder/XLD/Asia - Phoenix (2016) [MP3-V0]/07 - Asia - Shadow Of A Doubt.mp3
/Users/imac/Working Folder/XLD/Asia - Phoenix (2016) [MP3-V2]/07 - Asia - Shadow Of A Doubt.mp3

Track gain : -9.99 dB
Peak : 0.944092
CRC32 hash (test run) : E277D3C2
CRC32 hash : E277D3C2
CRC32 hash (skip zero) : 8AE5CD94
AccurateRip v1 signature : 655463DF
AccurateRip v2 signature : 9A99A862
->Accurately ripped (v2, confidence 12/111)
Statistics
Read error : 0
Jitter error (maybe fixed) : 0
Retry sector count : 0
Damaged sector count : 0

Track 08
Filename : /Users/imac/Working Folder/XLD/Asia - Phoenix (2016) [FLAC]/08 - Asia - Parallel Worlds - Vortex - Deya.flac
/Users/imac/Working Folder/XLD/Asia - Phoenix (2016) [MP3-320]/08 - Asia - Parallel Worlds - Vortex - Deya.mp3
/Users/imac/Working Folder/XLD/Asia - Phoenix (2016) [MP3-V0]/08 - Asia - Parallel Worlds - Vortex - Deya.mp3
/Users/imac/Working Folder/XLD/Asia - Phoenix (2016) [MP3-V2]/08 - Asia - Parallel Worlds - Vortex - Deya.mp3

Track gain : -10.21 dB
Peak : 0.950348
CRC32 hash (test run) : 989B9A54
CRC32 hash : 989B9A54
CRC32 hash (skip zero) : 721D68D8
AccurateRip v1 signature : 809F5168
AccurateRip v2 signature : 48AE013A
->Accurately ripped (v2, confidence 12/113)
Statistics
Read error : 0
Jitter error (maybe fixed) : 0
Retry sector count : 0
Damaged sector count : 0

Track 09
Filename : /Users/imac/Working Folder/XLD/Asia - Phoenix (2016) [FLAC]/09 - Asia - Wish I'd Known All Along.flac
/Users/imac/Working Folder/XLD/Asia - Phoenix (2016) [MP3-320]/09 - Asia - Wish I'd Known All Along.mp3
/Users/imac/Working Folder/XLD/Asia - Phoenix (2016) [MP3-V0]/09 - Asia - Wish I'd Known All Along.mp3
/Users/imac/Working Folder/XLD/Asia - Phoenix (2016) [MP3-V2]/09 - Asia - Wish I'd Known All Along.mp3

Track gain : -10.07 dB
Peak : 0.968384
CRC32 hash (test run) : D11C6AA9
CRC32 hash : D11C6AA9
CRC32 hash (skip zero) : 3807E643
AccurateRip v1 signature : 2E321CC3
AccurateRip v2 signature : 3BC57161
->Accurately ripped (v2, confidence 12/111)
Statistics
Read error : 0
Jitter error (maybe fixed) : 0
Retry sector count : 0
Damaged sector count : 0

Track 10
Filename : /Users/imac/Working Folder/XLD/Asia - Phoenix (2016) [FLAC]/10 - Asia - Orchard Of Mines.flac
/Users/imac/Working Folder/XLD/Asia - Phoenix (2016) [MP3-320]/10 - Asia - Orchard Of Mines.mp3
/Users/imac/Working Folder/XLD/Asia - Phoenix (2016) [MP3-V0]/10 - Asia - Orchard Of Mines.mp3
/Users/imac/Working Folder/XLD/Asia - Phoenix (2016) [MP3-V2]/10 - Asia - Orchard Of Mines.mp3

Track gain : -9.21 dB
Peak : 0.988586
CRC32 hash (test run) : 6F2B66FF
CRC32 hash : 6F2B66FF
CRC32 hash (skip zero) : 114DFE97
AccurateRip v1 signature : DFA031F9
AccurateRip v2 signature : 978813C6
->Accurately ripped (v2, confidence 12/112)
Statistics
Read error : 0
Jitter error (maybe fixed) : 0
Retry sector count : 0
Damaged sector count : 0

Track 11
Filename : /Users/imac/Working Folder/XLD/Asia - Phoenix (2016) [FLAC]/11 - Asia - Over And Over.flac
/Users/imac/Working Folder/XLD/Asia - Phoenix (2016) [MP3-320]/11 - Asia - Over And Over.mp3
/Users/imac/Working Folder/XLD/Asia - Phoenix (2016) [MP3-V0]/11 - Asia - Over And Over.mp3
/Users/imac/Working Folder/XLD/Asia - Phoenix (2016) [MP3-V2]/11 - Asia - Over And Over.mp3

Track gain : -11.22 dB
Peak : 0.974121
CRC32 hash (test run) : 780CCB08
CRC32 hash : 780CCB08
CRC32 hash (skip zero) : 1A10E777
AccurateRip v1 signature : 2428AED8
AccurateRip v2 signature : EEA9E034
->Accurately ripped (v2, confidence 12/111)
Statistics
Read error : 0
Jitter error (maybe fixed) : 0
Retry sector count : 0
Damaged sector count : 0

Track 12
Filename : /Users/imac/Working Folder/XLD/Asia - Phoenix (2016) [FLAC]/12 - Asia - An Extraordinary Life.flac
/Users/imac/Working Folder/XLD/Asia - Phoenix (2016) [MP3-320]/12 - Asia - An Extraordinary Life.mp3
/Users/imac/Working Folder/XLD/Asia - Phoenix (2016) [MP3-V0]/12 - Asia - An Extraordinary Life.mp3
/Users/imac/Working Folder/XLD/Asia - Phoenix (2016) [MP3-V2]/12 - Asia - An Extraordinary Life.mp3

Track gain : -11.33 dB
Peak : 0.988190
CRC32 hash (test run) : A894721F
CRC32 hash : A894721F
CRC32 hash (skip zero) : 51B726BF
AccurateRip v1 signature : 8E3A2569
AccurateRip v2 signature : CBEE40A9
->Accurately ripped (v2, confidence 12/109)
Statistics
Read error : 0
Jitter error (maybe fixed) : 0
Retry sector count : 0
Damaged sector count : 0

No errors occurred

End of status report

––-BEGIN XLD SIGNATURE––-
g0_di382e9CyMX0lhO5jVL8tWVbjm6cAsbSz01DknCB6PLA87dhAObOTsFEspMDr4N4RoIta5z2T7h3xtSey0b6RE3NS9FtAc.uPAb4
––-END XLD SIGNATURE––-

Thanks to the Original ripper swampsnake !