Subcategories

Backstreet Girls - Mental Shakedown

Posted By: Toxxy
831166
Backstreet Girls - Mental Shakedown
Year: 1986/1989 Polygram / Mercury | CD#: 838 746-2 | File-host: RS.com
FLAC-image + Mp3 @320 CBR | Complete Artwork (600dpi) | WinRAR Recovery 5%
Hard Boogie-Rock | CD-length 39:16 | 276 MB (FLAC) | 90 MB (Mp3)

EAC Secure-rip + LOG + CUE | Source: my CD-collection

This is the debut album of the greatest Rock'n'roll/Hard Boogie-Rock band ever to come out of Norway!



Album original released in 1986. My CD - this rip, is the re-issue from 1989 by Polygram/Mercury.


The Norwegian rock ’n’ roll legends Backstreet Girls are back! Formed in Oslo in the mid eighties, the band immediately become a huge success in the live-circuit, and just weeks after releasing their self-financed debut album “Mental Shakedown” they were snapped up by the PolyGram label Mercury who immediately re-released the album.

The band split with PolyGram after four albums. At the same tim, this was 1991, the band also parted with vocalist Bjørn Muller and found a replacement in the Swede Olle Hillborg from Glorious Bankrobbers. He lasted for just one album, and so did the band on their new label Warner Bros. A live-album was released on a small independent company, a new vocalist was recruited in Englishman Pat Diamond. A new albuma was recorded, but as Pat disappeared, God knows where, and Bjørn Muller re-joined the band, this album has so far not seen the light of day. With Muller back in the band, Backstreet Girls started working on a totally new album, signed on FaceFront and released an inferno of hard, catchy rock ‘n’ roll album entitled “Hellway To High”. During late summer of 1999 the band entered the studio again, this time to record a mini-album filled with Christmas songs – some originals, some cover songs. The return of Backstreet Girls resulted in Universal/Mercury released a best of album with the band in December 2000.

In late 2000 the band entered the studio again to record their newest opus, “Tuff, Tuff, Tuff”, which turned to be another ride in the wild world of Backstreet Girls rock ‘n’ roll. A European tour with Rose Tattoo followed, and some live-recordings from that tour can be found on “Black Boogie Death Rock ‘N’ Roll”, along six new studio tracks.

A raw and powerful new studioalbum followed a year later, and “Sick My Duck” is regarded as one of the bands finest moments. After endless touring to support the album, the band started to work on new material during the winter of 2006. “Shake Your Stimulator” is a mixture of all the different sides of Backstreet Girls – power, boogie and high octane rock ‘n’ roll. Before the album was recorded, original drummer BeeTee Baarli left the band and was late in the recording session replaced with Swede Martin H-son from Rampant Dogs, after using a number of session drummers during the early days of recording.

Try to imagine a mix of AC/DC, Rose Tattoo, Angel City and Ramones and you have Backstreet Girls! Backstreet Girls are rock ‘n’ roll few bands can capture the energy and show as these guys on stage!

”The Hard Sweat Factor” [MyStageMusic]


Backstreet Girls Homepage

Backstreet Girls at Wikipedia

Backstreet Girls at MySpace


Track List:

1. Repo Man
2. Mental Shakedown
3. Party Time
4. Rock'n Roll Shock
5. Never to Loud
6. Backstreet Boogie
7. Rattlesnake Charlie
8. Back in Jail
9. Please Me
10. Poor Ol'sam
11. Mainstream Summer


FLAC-image:
Part 1
Part 2
Part 3

Mp3 @320 CBR:
Download

Complete scanned artwork (600dpi):
Download


Password = thetoxxster

5% WinRar Recovery Record for ALL files.


Enjoy the tunes ;-)


NO mirror linx please! Thx!


Exact Audio Copy V0.99 prebeta 4 from 23. January 2008

EAC extraction logfile from 28. April 2009, 12:01

Backstreet Girls / Mental Shakedown

Used drive : TSSTcorpCDDVDW SH-S202N Adapter: 0 ID: 0

Read mode : Secure
Utilize accurate stream : Yes
Defeat audio cache : Yes
Make use of C2 pointers : No

Read offset correction : 6
Overread into Lead-In and Lead-Out : No
Fill up missing offset samples with silence : Yes
Delete leading and trailing silent blocks : No
Null samples used in CRC calculations : No
Used interface : Installed external ASPI interface

Used output format : User Defined Encoder
Selected bitrate : 320 kBit/s
Quality : High
Add ID3 tag : No
Command line compressor : C:\Programmer\Exact Audio Copy\Flac\flac.exe
Additional command line options : -V -8 -T "artist=%a" -T "title=%t" -T "album=%g" -T "date=%y" -T "tracknumber=%n" -T "genre=%m" %s


TOC of the extracted CD

Track | Start | Length | Start sector | End sector
––––––––––––––––––––––––––––-
1 | 0:00.33 | 1:36.65 | 33 | 7297
2 | 1:37.23 | 3:34.20 | 7298 | 23367
3 | 5:11.43 | 4:40.12 | 23368 | 44379
4 | 9:51.55 | 2:27.65 | 44380 | 55469
5 | 12:19.45 | 3:26.50 | 55470 | 70969
6 | 15:46.20 | 4:03.15 | 70970 | 89209
7 | 19:49.35 | 4:47.03 | 89210 | 110737
8 | 24:36.38 | 2:49.52 | 110738 | 123464
9 | 27:26.15 | 3:46.05 | 123465 | 140419
10 | 31:12.20 | 3:21.33 | 140420 | 155527
11 | 34:33.53 | 4:42.17 | 155528 | 176694


Range status and errors

Selected range

Filename D:\Backstreet Girls - Mental Shakedown.wav

Peak level 99.8 %
Range quality 100.0 %
Test CRC 1B13073E
Copy CRC 1B13073E
Copy OK

No errors occurred


AccurateRip summary

Track 1 not present in database
Track 2 not present in database
Track 3 not present in database
Track 4 not present in database
Track 5 not present in database
Track 6 not present in database
Track 7 not present in database
Track 8 not present in database
Track 9 not present in database
Track 10 not present in database
Track 11 not present in database

None of the tracks are present in the AccurateRip database

End of status report



The next posts from me, in no particular order, are gonna be:

Mark Foggo's Skasters - Ska Pig

The Business - The Complete Singles Collection

The Bottom Feeders - Big Six

Blitz - Voice of a Generation (The Punk Collectors Series)

3 Sloppy Seconds CD's:

More Trouble Than They're Worth
Live: No Time for Tuning
Garbage Days Regurgitated (CD-EP)

3 Huntingtons CD's:

Huntingtons - Get Lost
Plastic Surgery
Huntingtons & Darlington - Split CD


7 Backstreet Girls CD's:

Boogie Till You Puke
Party On Elm Street
Coming Down Hard
Let's Have It
Live - Get Yer Yo-Yo's Out!
Hellway To High
Christmas Crusher

All the above CD's will be available in both lossless and and lossy.