Subcategories

Bad Company - Japanese Cardboard Sleeve Reissue (1974-1982) [6 Albums - feat. 24-bit Remastering 2010] RE-UP

Posted By: perfecta
Bad Company - Japanese Cardboard Sleeve Reissue (1974-1982) [6 Albums - feat. 24-bit Remastering 2010] RE-UP

Bad Company - Japanese Cardboard Sleeve Reissue (6 Albums - feat. 24-bit Remastering 2010)
6x FLAC Images with CUEs and LOGs - 1,59 GB | Full PNG Scans - 489 MB | MP3 CBR 320 Kbps - 535 MB
Rock / Hard Rock / Blues Rock | TT > 235:20 minutes | Label: Warner Music Japan | Catalogue # WPCR-13902~13907

Cardboard sleeve reissue from Bad Company featuring the 2010 24-bit digital remastering. Part of a six-album Bad Company reissue series featuring albums "Bad Company", "Straight Shooter", "Run With The Pack", "Burnin' Sky", "Desolation Angels", and "Rough Diamonds". Features the cardboard sleeve faithfully repricating the original UK LP artwork with a color inner bag and a Japanese obi. Japanese original release.


Formed in 1973, the British hard rock outfit Bad Company was a supergroup comprised of ex-King Crimson bassist Boz Burrell, former Mott the Hoople guitarist Mick Ralphs, and singer Paul Rodgers and drummer Simon Kirke, both previous members of Free. Powered by Rodgers' muscular vocals and Ralphs' blues-based guitar work, Bad Company was the first group signed to Led Zeppelin's Swan Song vanity label. Bad Company's eponymous 1974 debut was an international hit, topping the U.S. album charts and scoring with the number one single "Can't Get Enough of Your Love."

Bad Company - Japanese Cardboard Sleeve Reissue (1974-1982) [6 Albums - feat. 24-bit Remastering 2010] RE-UP

Straight Shooter, issued the following year, was another major success, notching the hit "Feel Like Makin' Love," while 1976's Run With the Pack was Bad Company's third consecutive million-selling record. After 1977's Burnin' Sky, Bad Company recorded 1979's Desolation Angels, which embellished the group's sound with synthesizers and strings; a three-year hiatus followed before the release of Rough Diamonds, the group's final LP in its original incarnation.

Bad Company - Japanese Cardboard Sleeve Reissue (1974-1982) [6 Albums - feat. 24-bit Remastering 2010] RE-UP

Bad Company - Bad Company (1974)
EAC-FLAC with CUE & LOG - 244 MB | Full Scans - 79 MB | MP3 CBR 320 Kbps - 79 MB
Features 24-bit Digital Remastering 2010 | 34:53 min | Warner Music Japan # WPCR-13902

Bad Company's 1974 self-titled release stands as one of the most important and accomplished debut hard rock albums from the '70s. Though hardly visionary, it was one of the most successful steps in the continuing evolution of rock & roll, riding on the coattails of achievement from artists like the Eagles and Crosby, Stills, Nash and Young. From the simple electric guitar lick on "Can't Get Enough" to the haunting bassline in "Bad Company" and the fast beats of "Movin' On," Bad Company exemplified raw rock & roll at its best. Erupting out of an experimental period created by the likes of Pink Floyd, Bad Company signified a return to more primal, stripped-down rock & roll. Even while labelmates Led Zeppelin's Houses of the Holy and IV featured highly acclaimed, colorful album artwork, Bad Company's austere black and white record cover stood out in stark contrast. Six years later, AC/DC used the same idea on their smash Back in Black. Throughout the 35-minute album, Paul Rodgers' mesmerizing and gritty vocals hardly vary in tonal quality, offering a perfect complement to Mick Ralphs' blues-based guitar work. Several songs include three-chord verses offset by unembellished, distorted choruses, filled rich with Rodgers' cries. Bad Company is an essential addition to the rock & roll library; clearly influential to '70s and '80s hard rock bands like Tom Petty, Lynyrd Skynyrd, and Boston.

– Gautam Baksi, allmusic com

Tracklist:

01. Can't Get Enough
02. Rock Steady
03. Ready For Love
04. Don't Let Me Down
05. Bad Company
06. The Way I Choose
07. Movin' On
08. Seagull

More info @ Wikipedia

Exact Audio Copy V1.0 beta 2 from 29. April 2011

EAC extraction logfile from 10. August 2011, 20:26

Bad Company / Bad Company

Used drive : HL-DT-STDVDRAM GSA-H60N Adapter: 2 ID: 0

Read mode : Secure
Utilize accurate stream : Yes
Defeat audio cache : Yes
Make use of C2 pointers : No

Read offset correction : 667
Overread into Lead-In and Lead-Out : No
Fill up missing offset samples with silence : Yes
Delete leading and trailing silent blocks : No
Null samples used in CRC calculations : Yes
Used interface : Native Win32 interface for Win NT & 2000

Used output format : Internal WAV Routines
Sample format : 44.100 Hz; 16 Bit; Stereo


TOC of the extracted CD

Track | Start | Length | Start sector | End sector
––––––––––––––––––––––––––––-
1 | 0:00.00 | 4:16.73 | 0 | 19272
2 | 4:16.73 | 3:47.15 | 19273 | 36312
3 | 8:04.13 | 5:02.16 | 36313 | 58978
4 | 13:06.29 | 4:21.06 | 58979 | 78559
5 | 17:27.35 | 4:50.42 | 78560 | 100351
6 | 22:18.02 | 5:05.63 | 100352 | 123289
7 | 27:23.65 | 3:24.30 | 123290 | 138619
8 | 30:48.20 | 4:04.73 | 138620 | 156992


Range status and errors

Selected range

Filename C:\Documents and Settings\Admin\Рабочий стол\Rip by ALLexxess\Bad Company\1974 Bad Company (Warner Music Japan Mini LP CD 2010)\Bad Company - Bad Company.wav

Peak level 100.0 %
Extraction speed 5.4 X
Range quality 99.9 %
Test CRC E21DD67D
Copy CRC E21DD67D
Copy OK

No errors occurred


AccurateRip summary

Track 1 accurately ripped (confidence 2) [3C4CDF11] (AR v2)
Track 2 accurately ripped (confidence 2) [6C788574] (AR v2)
Track 3 accurately ripped (confidence 2) [AEF17479] (AR v2)
Track 4 accurately ripped (confidence 2) [D1596A9F] (AR v2)
Track 5 accurately ripped (confidence 2) [DE7EA0E5] (AR v2)
Track 6 accurately ripped (confidence 2) [5E071C4E] (AR v2)
Track 7 accurately ripped (confidence 2) [95480C98] (AR v2)
Track 8 accurately ripped (confidence 2) [690A457B] (AR v2)

All tracks accurately ripped

End of status report

==== Log checksum 759E603EF674B7570A1251BD6D7DAEC8A8D693C33953D9DFECC8941A50F57421 ====


_________________________________________________________________________________________


Bad Company - Japanese Cardboard Sleeve Reissue (1974-1982) [6 Albums - feat. 24-bit Remastering 2010] RE-UP

Bad Company - Straight Shooter (1975)
EAC-FLAC with CUE & LOG - 269 MB | Full Scans - 82 MB | MP3 CBR 320 Kbps - 89 MB
Features 24-bit Digital Remastering 2010 | 38:42 min | Warner Music Japan # WPCR-13903

One year after Bad Company's multi-platinum self-titled debut, the British band returned to London to record a follow-up. Utilizing material written earlier in 1973, vocalist and songwriter Paul Rodgers wrote two acoustic-based rock ballads that would live on forever in the annals of great rock history. "Shooting Star" and the Grammy-nominated "Feel Like Makin' Love" helped Straight Shooter rise quickly through the charts to reach Billboard's number three spot both in the U.S. and U.K. However, critically and commercially the album never achieved the tremendous success of its predecessor, largely due to the lack of strong follow-up singles and supporting tracks. Simon Kirke stepped out from behind the drum-set to help produce and write "Anna" and "Weep No More," two slower and less aggressive ballads indicative of the overall diminishing quality of the album. Following the release of Straight Shooter, Bad Company headlined their first North American tour.

– Gautam Baksi, allmusic com

Tracklist:

01. Good Lovin' Gone Bad
02. Feel Like Makin' Love
03. Weep No More
04. Shooting Star
05. Deal With The Preacher
06. Wild Fire Woman
07. Anna
08. Call On Me

More info @ Wikipedia

Exact Audio Copy V1.0 beta 2 from 29. April 2011

EAC extraction logfile from 10. August 2011, 19:44

Bad Company / Straight Shooter

Used drive : HL-DT-STDVDRAM GSA-H60N Adapter: 2 ID: 0

Read mode : Secure
Utilize accurate stream : Yes
Defeat audio cache : Yes
Make use of C2 pointers : No

Read offset correction : 667
Overread into Lead-In and Lead-Out : No
Fill up missing offset samples with silence : Yes
Delete leading and trailing silent blocks : No
Null samples used in CRC calculations : Yes
Used interface : Native Win32 interface for Win NT & 2000

Used output format : Internal WAV Routines
Sample format : 44.100 Hz; 16 Bit; Stereo


TOC of the extracted CD

Track | Start | Length | Start sector | End sector
––––––––––––––––––––––––––––-
1 | 0:00.00 | 3:37.62 | 0 | 16336
2 | 3:37.62 | 5:16.23 | 16337 | 40059
3 | 8:54.10 | 4:01.74 | 40060 | 58208
4 | 12:56.09 | 6:18.24 | 58209 | 86582
5 | 19:14.33 | 5:03.48 | 86583 | 109355
6 | 24:18.06 | 4:35.33 | 109356 | 130013
7 | 28:53.39 | 3:44.48 | 130014 | 146861
8 | 32:38.12 | 6:04.08 | 146862 | 174169


Range status and errors

Selected range

Filename C:\Documents and Settings\Admin\Рабочий стол\Rip by ALLexxess\Bad Company\1975 Straight Shooter (Warner Music Japan Mini LP CD 2010)\Bad Company - Straight Shooter.wav

Peak level 100.0 %
Extraction speed 5.7 X
Range quality 100.0 %
Test CRC AD1E2F6A
Copy CRC AD1E2F6A
Copy OK

No errors occurred


AccurateRip summary

Track 1 accurately ripped (confidence 2) [090C6483] (AR v2)
Track 2 accurately ripped (confidence 2) [BEC9B044] (AR v2)
Track 3 accurately ripped (confidence 2) [3A030D83] (AR v2)
Track 4 accurately ripped (confidence 2) [CE0BCD99] (AR v2)
Track 5 accurately ripped (confidence 2) [22FAE46C] (AR v2)
Track 6 accurately ripped (confidence 2) [ABD5D7E9] (AR v2)
Track 7 accurately ripped (confidence 2) [C1FC241D] (AR v2)
Track 8 accurately ripped (confidence 2) [9BBBF925] (AR v2)

All tracks accurately ripped

End of status report

==== Log checksum A034401D830DE6C30A0E340C0AAD43D580C801078D2470AF25770AE380A06F8E ====


_________________________________________________________________________________________


Bad Company - Japanese Cardboard Sleeve Reissue (1974-1982) [6 Albums - feat. 24-bit Remastering 2010] RE-UP

Bad Company - Run With The Pack (1976)
EAC-FLAC with CUE & LOG - 255 MB | Full Scans - 78 MB | MP3 CBR 320 Kbps - 83 MB
Features 24-bit Digital Remastering 2010 | 36:28 min | Warner Music Japan # WPCR-13904

It was no surprise when Straight Shooter, Bad Company's second album, came out sounding like a carbon copy of their first, Bad Company. After all, the first one had topped the charts. And with Straight Shooter also selling well, it was no surprise they wouldn't mess with the formula on this, their third album. But it was becoming increasingly clear that it was a formula, and an unusually restrictive one. (They tried adding strings on the title track, which is one of the rewrites of the song "Bad Company," but that was just a pretension, not a new direction.) With Bad Company slogging through the stadiums of the world and momentum on their side, Run with the Pack shot up the charts, too, but it didn't get quite as high or stay quite as long as its predecessors, mostly because of the lack of really memorable material – the biggest single was a cover of the Coasters' hit "Young Blood," a tired warhorse. "Honey Child," one of the "Can't Get Enough" rewrites that was released as a single, didn't make the Top 40, an ominous sign the band did not heed. For today's listeners, well, you only really need one Bad Company album to get the idea, and why not just get the first one? (Or, for a more complete view, the greatest-hits LP 10 from 6.) Then, if you really love what you hear, this record is more of the same.

– William Ruhlmann, allmusic com

Tracklist:

01. Live For The Music
02. Simple Man
03. Honey Child
04. Love Me Somebody
05. Run With The Pack
06. Silver, Blue & Gold
07. Young Blood
08. Do Right By Your Woman
09. Sweet Lil' Sister
10. Fade Away

More info @ Wikipedia

Exact Audio Copy V1.0 beta 2 from 29. April 2011

EAC extraction logfile from 10. August 2011, 16:40

Bad Company / Run With The Pack

Used drive : HL-DT-STDVDRAM GSA-H60N Adapter: 2 ID: 0

Read mode : Secure
Utilize accurate stream : Yes
Defeat audio cache : Yes
Make use of C2 pointers : No

Read offset correction : 667
Overread into Lead-In and Lead-Out : No
Fill up missing offset samples with silence : Yes
Delete leading and trailing silent blocks : No
Null samples used in CRC calculations : Yes
Used interface : Native Win32 interface for Win NT & 2000

Used output format : Internal WAV Routines
Sample format : 44.100 Hz; 16 Bit; Stereo


TOC of the extracted CD

Track | Start | Length | Start sector | End sector
––––––––––––––––––––––––––––-
1 | 0:00.00 | 3:59.21 | 0 | 17945
2 | 3:59.21 | 3:38.08 | 17946 | 34303
3 | 7:37.29 | 3:16.66 | 34304 | 49069
4 | 10:54.20 | 3:08.53 | 49070 | 63222
5 | 14:02.73 | 5:20.26 | 63223 | 87248
6 | 19:23.24 | 5:04.59 | 87249 | 110107
7 | 24:28.08 | 2:41.48 | 110108 | 122230
8 | 27:09.56 | 2:54.01 | 122231 | 135281
9 | 30:03.57 | 3:31.38 | 135282 | 151144
10 | 33:35.20 | 2:52.44 | 151145 | 164088


Range status and errors

Selected range

Filename C:\Documents and Settings\Admin\Рабочий стол\Rip by ALLexxess\Bad Company\1976 Run With The Pack (Warner Music Japan Mini LP CD 2010)\Bad Company - Run With The Pack.wav

Peak level 100.0 %
Extraction speed 5.5 X
Range quality 100.0 %
Test CRC CE992AA4
Copy CRC CE992AA4
Copy OK

No errors occurred


AccurateRip summary

Track 1 accurately ripped (confidence 2) [9C95E267] (AR v1)
Track 2 accurately ripped (confidence 2) [A1851B9A] (AR v1)
Track 3 accurately ripped (confidence 2) [5F8C4A8E] (AR v1)
Track 4 accurately ripped (confidence 2) [2344942D] (AR v1)
Track 5 accurately ripped (confidence 2) [1548DB8A] (AR v1)
Track 6 accurately ripped (confidence 2) [DC0098B2] (AR v1)
Track 7 accurately ripped (confidence 2) [F5BAF9D3] (AR v1)
Track 8 accurately ripped (confidence 2) [D9BA5655] (AR v1)
Track 9 accurately ripped (confidence 2) [FDDD9E85] (AR v1)
Track 10 accurately ripped (confidence 2) [F1740097] (AR v1)

All tracks accurately ripped

End of status report

==== Log checksum A0D5E66B62E29B574954DFB684403D94C116E593E439B4E603EE2B265D66FFAB ====


_________________________________________________________________________________________


Bad Company - Japanese Cardboard Sleeve Reissue (1974-1982) [6 Albums - feat. 24-bit Remastering 2010] RE-UP

Bad Company - Burnin' Sky (1977)
EAC-FLAC with CUE & LOG - 295 MB | Full Scans - 96 MB | MP3 CBR 320 Kbps - 103 MB
Features 24-bit Digital Remastering 2010 | 45:04 min | Warner Music Japan # WPCR-13905

The string finally ran out for Bad Company with their fourth album, Burnin' Sky. Their approach was so simple that it almost inevitably became formulaic, and although Mick Ralphs continued to screech with his sparse guitar leads and Paul Rodgers continued to present his lust in a soulful voice – well, one had heard it all before several times by now, hadn't one? A band that begins life declaring "I can't get enough of your love" doesn't really have anywhere to go, and by this, their fourth album, Bad Company were getting sloppy around the edges, tossing in a '50s pastiche in "Everything I Need," crooning "The Happy Wanderer" as if they were on a drunken pub crawl. There were plenty of those patented ominous midtempo rockers, too, of course, but nothing you'd want to add to the set list. Of course, the real reason this was the first of the band's LPs to miss the Top Ten in the U.S. and the U.K. is that last point: no hit single. Clearly, it was time to try something new, but after three years of stadium rocking, what Bad Company wanted to try instead was a vacation – they weren't heard from again for two years.

– William Ruhlmann, allmusic com

Tracklist:

01. Burnin' Sky
02. Morning Sun
03. Leaving You
04. Like Water
05. Knapsack
06. Everything I Need
07. Heartbeat
08. Peace Of Mind
09. Passing Time
10. Too Bad
11. Man Needs Woman
12. Master Of Ceremony

More info @ Wikipedia

Exact Audio Copy V1.0 beta 2 from 29. April 2011

EAC extraction logfile from 10. August 2011, 20:59

Bad Company / Burnin' Sky

Used drive : HL-DT-STDVDRAM GSA-H60N Adapter: 2 ID: 0

Read mode : Secure
Utilize accurate stream : Yes
Defeat audio cache : Yes
Make use of C2 pointers : No

Read offset correction : 667
Overread into Lead-In and Lead-Out : No
Fill up missing offset samples with silence : Yes
Delete leading and trailing silent blocks : No
Null samples used in CRC calculations : Yes
Used interface : Native Win32 interface for Win NT & 2000

Used output format : Internal WAV Routines
Sample format : 44.100 Hz; 16 Bit; Stereo


TOC of the extracted CD

Track | Start | Length | Start sector | End sector
––––––––––––––––––––––––––––-
1 | 0:00.00 | 5:20.63 | 0 | 24062
2 | 5:20.63 | 3:56.14 | 24063 | 41776
3 | 9:17.02 | 3:24.00 | 41777 | 57076
4 | 12:41.02 | 4:19.43 | 57077 | 76544
5 | 17:00.45 | 1:20.47 | 76545 | 82591
6 | 18:21.17 | 3:23.15 | 82592 | 97831
7 | 21:44.32 | 2:37.69 | 97832 | 109675
8 | 24:22.26 | 3:25.01 | 109676 | 125051
9 | 27:47.27 | 2:28.74 | 125052 | 136225
10 | 30:16.26 | 3:52.43 | 136226 | 153668
11 | 34:08.69 | 3:47.21 | 153669 | 170714
12 | 37:56.15 | 7:07.68 | 170715 | 202807


Range status and errors

Selected range

Filename C:\Documents and Settings\Admin\Рабочий стол\Rip by ALLexxess\Bad Company\1977 Burnin' Sky (Warner Music Japan Mini LP CD 2010)\Bad Company - Burnin' Sky.wav

Peak level 100.0 %
Extraction speed 5.8 X
Range quality 100.0 %
Test CRC 77CFB686
Copy CRC 77CFB686
Copy OK

No errors occurred


AccurateRip summary

Track 1 accurately ripped (confidence 2) [14D2E05A] (AR v1)
Track 2 accurately ripped (confidence 2) [9D314DEE] (AR v1)
Track 3 accurately ripped (confidence 2) [31CDEE84] (AR v1)
Track 4 accurately ripped (confidence 2) [7E05AE88] (AR v1)
Track 5 accurately ripped (confidence 2) [58FEACDA] (AR v1)
Track 6 accurately ripped (confidence 2) [88406857] (AR v1)
Track 7 accurately ripped (confidence 2) [60FED818] (AR v1)
Track 8 accurately ripped (confidence 2) [8C434BFC] (AR v1)
Track 9 accurately ripped (confidence 2) [6DC802C5] (AR v1)
Track 10 accurately ripped (confidence 2) [11B84006] (AR v1)
Track 11 accurately ripped (confidence 2) [35F9ED92] (AR v1)
Track 12 accurately ripped (confidence 2) [7B399329] (AR v1)

All tracks accurately ripped

End of status report

==== Log checksum 304DCD53119F733D9B7A4C6DE468A1E795731D5962AACA779463197FB7B3E6B2 ====


_________________________________________________________________________________________


Bad Company - Japanese Cardboard Sleeve Reissue (1974-1982) [6 Albums - feat. 24-bit Remastering 2010] RE-UP

Bad Company - Desolation Angels (1979)
EAC-FLAC with CUE & LOG - 305 MB | Full Scans - 81 MB | MP3 CBR 320 Kbps - 92 MB
Features 24-bit Digital Remastering 2010 | 41:18 min | Warner Music Japan # WPCR-13906

By the time Bad Company released Desolation Angels, it was evident that even Rodgers and Ralphs were getting tired of their '70s-styled, conveyor-belt brand of rock & roll, so they decided to add keyboards and some minor string work to the bulk of the tracks. Although this change of musical scenery was a slight breath of fresh air, it wasn't enough to give Desolation Angels the much added depth or distinction that was intended, and only the vocal passion of "Rock 'n' Roll Fantasy" really comes out on top, eventually becoming a gold single. The good news is that Desolation Angels is a noticeable improvement from 1977's Burnin' Sky, with Bad Company's sound taking on a smoother, more polished feel than its predecessor. "Gone, Gone, Gone," "Lonely for Your Love," and "She Brings Me Love" work best in Rodgers' favor, and fans did prove their loyalty, pushing the album to the number ten mark in the U.K. and to number three in the U.S. The campaign toward a new sound does cause a few of the cuts ("Crazy Circles," "Evil Wind") to appear a bit forced and overly glitzy (especially the use of electronic drums), and the album spawns a smattering of a few attractive moments rather than evolving as a complete, constructive listen. Things didn't get much better for Bad Company, and it was after the release of 1982's Rough Diamonds, a much weaker and unattached effort, that Rodgers decided to call it quits.

– Mike DeGagnei, allmusic com

Tracklist:

01. Rock 'N' Roll Fantasy
02. Crazy Circles
03. Gone, Gone, Gone
04. Evil Wind
05. Early In The Morning
06. Lonely For Your Love
07. Oh, Atlanta
08. Take The Time
09. Rhythm Machine
10. She Brings Me Love

More info @ Wikipedia

Exact Audio Copy V1.0 beta 2 from 29. April 2011

EAC extraction logfile from 9. August 2011, 22:25

Bad Company / Desolation Angels

Used drive : HL-DT-STDVDRAM GSA-H60N Adapter: 2 ID: 0

Read mode : Secure
Utilize accurate stream : Yes
Defeat audio cache : Yes
Make use of C2 pointers : No

Read offset correction : 667
Overread into Lead-In and Lead-Out : No
Fill up missing offset samples with silence : Yes
Delete leading and trailing silent blocks : No
Null samples used in CRC calculations : Yes
Used interface : Native Win32 interface for Win NT & 2000

Used output format : Internal WAV Routines
Sample format : 44.100 Hz; 16 Bit; Stereo


TOC of the extracted CD

Track | Start | Length | Start sector | End sector
––––––––––––––––––––––––––––-
1 | 0:00.00 | 3:20.33 | 0 | 15032
2 | 3:20.33 | 3:33.30 | 15033 | 31037
3 | 6:53.63 | 3:49.59 | 31038 | 48271
4 | 10:43.47 | 4:22.22 | 48272 | 67943
5 | 15:05.69 | 5:48.59 | 67944 | 94102
6 | 20:54.53 | 3:29.38 | 94103 | 109815
7 | 24:24.16 | 4:09.43 | 109816 | 128533
8 | 28:33.59 | 4:14.35 | 128534 | 147618
9 | 32:48.19 | 3:46.40 | 147619 | 164608
10 | 36:34.59 | 4:43.08 | 164609 | 185841


Range status and errors

Selected range

Filename C:\Documents and Settings\Admin\Рабочий стол\Rip by ALLexxess\Bad Company\1979 Desolation Angels (Warner Music Japan Mini LP CD 2010)\Bad Company - Desolation Angels.wav

Peak level 100.0 %
Extraction speed 5.7 X
Range quality 100.0 %
Test CRC C4557E6B
Copy CRC C4557E6B
Copy OK

No errors occurred


AccurateRip summary

Track 1 accurately ripped (confidence 2) [4870D771] (AR v1)
Track 2 accurately ripped (confidence 2) [AB215ACA] (AR v1)
Track 3 accurately ripped (confidence 2) [F76331A4] (AR v1)
Track 4 accurately ripped (confidence 2) [7BC7E5A2] (AR v1)
Track 5 accurately ripped (confidence 2) [EF11BE2F] (AR v1)
Track 6 accurately ripped (confidence 2) [71705FB1] (AR v1)
Track 7 accurately ripped (confidence 2) [C0EA4C77] (AR v1)
Track 8 accurately ripped (confidence 2) [FF534D13] (AR v1)
Track 9 accurately ripped (confidence 2) [B8044DFD] (AR v1)
Track 10 accurately ripped (confidence 2) [F3ED8C0E] (AR v1)

All tracks accurately ripped

End of status report

==== Log checksum A2924F1291ED45A34E64907C2FE11CD77355D21E705056DBC709B36224B2233C ====


_________________________________________________________________________________________


Bad Company - Japanese Cardboard Sleeve Reissue (1974-1982) [6 Albums - feat. 24-bit Remastering 2010] RE-UP

Bad Company - Rough Diamonds (1982)
EAC-FLAC with CUE & LOG - 265 MB | Full Scans - 72 MB | MP3 CBR 320 Kbps - 88 MB
Features 24-bit Digital Remastering 2010 | 38:54 min | Warner Music Japan # WPCR-13907

Instead of capitalizing on their "Rock 'N' Roll Fantasy" resurgence, Bad Company disappeared for another three years before trying it again with Rough Diamonds. Remember, it was not yet common in the music business for major groups to stay away from the marketplace that long. In Bad Company's case, the results were disastrous: the album didn't even make the Top 25 in the U.S. or go gold, much less platinum, and the music was softer and less distinctive than on their earlier records.

– William Ruhlmann, allmusic com

Tracklist:

01. Electricland
02. Untie The Knot
03. Nuthin' On The TV
04. Painted Face
05. Kickdown
06. Ballad Of The Band
07. Cross Country Boy
08. Old Mexico
09. Downhill Ryder
10. Racetrack

More info @ Wikipedia

Exact Audio Copy V1.0 beta 2 from 29. April 2011

EAC extraction logfile from 9. August 2011, 23:15

Bad Company / Rough Diamonds

Used drive : HL-DT-STDVDRAM GSA-H60N Adapter: 2 ID: 0

Read mode : Secure
Utilize accurate stream : Yes
Defeat audio cache : Yes
Make use of C2 pointers : No

Read offset correction : 667
Overread into Lead-In and Lead-Out : No
Fill up missing offset samples with silence : Yes
Delete leading and trailing silent blocks : No
Null samples used in CRC calculations : Yes
Used interface : Native Win32 interface for Win NT & 2000

Used output format : Internal WAV Routines
Sample format : 44.100 Hz; 16 Bit; Stereo


TOC of the extracted CD

Track | Start | Length | Start sector | End sector
––––––––––––––––––––––––––––-
1 | 0:00.00 | 5:29.50 | 0 | 24724
2 | 5:29.50 | 4:10.36 | 24725 | 43510
3 | 9:40.11 | 3:51.22 | 43511 | 60857
4 | 13:31.33 | 3:29.21 | 60858 | 76553
5 | 17:00.54 | 3:40.65 | 76554 | 93118
6 | 20:41.44 | 2:12.49 | 93119 | 103067
7 | 22:54.18 | 3:05.51 | 103068 | 116993
8 | 25:59.69 | 3:51.22 | 116994 | 134340
9 | 29:51.16 | 4:14.57 | 134341 | 153447
10 | 34:05.73 | 4:48.38 | 153448 | 175085


Range status and errors

Selected range

Filename C:\Documents and Settings\Admin\Рабочий стол\Rip by ALLexxess\Bad Company\1982 Rough Diamonds (Warner Music Japan Mini LP CD 2010)\Bad Company - Rough Diamonds.wav

Peak level 100.0 %
Extraction speed 5.7 X
Range quality 100.0 %
Test CRC 0C629D99
Copy CRC 0C629D99
Copy OK

No errors occurred


AccurateRip summary

Track 1 accurately ripped (confidence 1) [3715A066] (AR v1)
Track 2 accurately ripped (confidence 1) [7A601917] (AR v1)
Track 3 accurately ripped (confidence 1) [E0CDFA86] (AR v1)
Track 4 accurately ripped (confidence 1) [871266EA] (AR v1)
Track 5 accurately ripped (confidence 1) [F44D776D] (AR v1)
Track 6 accurately ripped (confidence 1) [2CD29162] (AR v1)
Track 7 accurately ripped (confidence 1) [7C9607A4] (AR v1)
Track 8 accurately ripped (confidence 1) [5A998CDA] (AR v1)
Track 9 accurately ripped (confidence 1) [F65DCB90] (AR v1)
Track 10 accurately ripped (confidence 1) [1DC75BF9] (AR v1)

All tracks accurately ripped

End of status report

==== Log checksum A682F9FAC1A682365F751A1299F5C292014212761CD94C5711FD521A92F5B3FF ====


Dynamic Range(s): 8 / 9 / 7 / 9 / 8 / 9.

All thanks goes to ALLexxess!
Bigfile folder

Where's digits is the album's release date; "L" is FLAC, "M" is MP3, & "Sc" is complete artwork.