Subcategories

Barcelona Gipsy Klezmer Orchestra - Imbarca (2014) {Satélite K SATKCD127}

Posted By: ruskaval
Barcelona Gipsy Klezmer Orchestra - Imbarca (2014) {Satélite K SATKCD127}

Barcelona Gipsy Klezmer Orchestra - Imbarca (2014) {Satélite K SATKCD127}
EAC rip (secure mode) | FLAC (tracks)+CUE+LOG -> 300 Mb | MP3 @320 -> 126 Mb
Full Artwork @ 300 dpi (jpg) -> 58 Mb | 5% repair rar
© 2014 Satélite K / BGKO | SATKCD127
World Music / Klezmer / Gipsy / World Fusion

BGKO is a stable band that regularly performs in Barcelona and all Europe. But more than that, it’s an ever growing family of professional musicians and singers that are often invited for guests appearances.

As musicians and singers from Turkey, Slovenia, Switzerland, England, Russia, Serbia, India, France, Greece, Italy, Mexico, Spain, Iran and Israel gave their contribution to the never-ending story, the BGKO brought Klezmer, Gipsy and Balkan music to all generations of Barcelona. Nevertheless, the interaction became mutual and the city became a melting pot with so many different styles and cultures to embrace, so many ears to play for, and so many dancing feet to move.

BGKO brought Catalan traditional songs to oriental ecstatic rhythms, Gipsy swing to east Europe , Cuban revolutionary songs to Balkan rhythms and hot Balkan and Klezmer music to the core of the Mediterranean popular scene, always looking for the authenticity and magic that legends left us. The pot is cooking, the feast has just begun!


IMBARCA: We are very happy to present Imbarca, the first album of BGKO. “Imbarca“ means “Embarkation“ in Romanian.

It was recorded live, capturing the essence of a band that performs much more often in live than in studio. The disc contains 9 songs, two of them original are compositions while the rest are reinterpretations of popular and old songs. Some of them are long forgotten, patrimony of the gipsy and klezmer musicians of the Balkans, central and eastern Europe, and middle east.

These traditional songs have been interpreted and enriched with original arrangements and it is the very fruit of intense work, research and improvisation which characterises BGKO.
Barcelona Gipsy Klezmer Orchestra - Imbarca (2014) {Satélite K SATKCD127}


Musicians:
Robindro Nikolic: Clarinet (Serbia/India)
Mattia Schirosa: Accordion (Italy)
Julien Chanal: Guitar (France)
Ivan Kovacevic: Double bass (Serbia)
Stelios Togias: Percussions (Greece)
Sandra Sangiao: Vocals (Catalunya)
Juan Carlos Buchan: Double Bass (Mexico)
Vroni Schnattinger: Violin (Germany)

Barcelona Gipsy Klezmer Orchestra - Imbarca (2014) {Satélite K SATKCD127}


Track listing:
All songs are arranged by BGKO


01. Hévenu Shalom Aléchem (Traditional Jewish) 2:46 http://youtu.be/YeoQTsj2QKY
02. Djelem Djelem (Traditional Romani) 4:52 http://youtu.be/LCUv9W0ViRc
03. Hasta Siempre, Comandante (Carlos Puebla) 5:18 http://youtu.be/wYAHabZHYmE
04. He Thought He Was Italian (S. Togias) 4:47
05. Kus Kus (J. Chanal) 3:09
06. Cigani Ljubiat Pesnji (Traditional Russian Romani) 3:50
07. La Dama d'Aragó (Traditional Catalan) 4:51
08. Hana'ava Babanot (Israeli Dance) 6:14
09. Dance of Joy (R. Pansera) 4:01
10. Ederlezi (Traditional Romani) 5:51
11. Joseph Joseph - Yossel Yossel (Traditional Romani & Klezmer) 3:10
12. Ot Azoy (Traditional Klezmer) 4:29

Exact Audio Copy V1.0 beta 3 from 29. August 2011

EAC extraction logfile from 23. June 2014, 20:06

Barcelona Gipsy Klezmer Orchestra / Imbarca

Used drive : PLEXTOR DVDR PX-L890SA Adapter: 2 ID: 1

Read mode : Secure
Utilize accurate stream : Yes
Defeat audio cache : Yes
Make use of C2 pointers : No

Read offset correction : 6
Overread into Lead-In and Lead-Out : No
Fill up missing offset samples with silence : Yes
Delete leading and trailing silent blocks : No
Null samples used in CRC calculations : Yes
Used interface : Native Win32 interface for Win NT & 2000
Gap handling : Appended to previous track

Used output format : User Defined Encoder
Selected bitrate : 768 kBit/s
Quality : High
Add ID3 tag : No
Command line compressor : C:\Program Files (x86)\Exact Audio Copy\FLAC\FLAC.EXE
Additional command line options : -8 -V -T "ARTIST=%artist%" -T "TITLE=%title%" -T "ALBUM=%albumtitle%" -T "DATE=%year%" -T "TRACKNUMBER=%tracknr%" -T "TOTALTRACKS=%numtracks%" -T "GENRE=%genre%" -T "ALBUMARTIST=%albumartist%" -T "ALBUM ARTIST=%albumartist%" -T "COMMENT=EAC Secure Mode, Test & Copy, AccurateRip, FLAC -8" %source%


TOC of the extracted CD

Track | Start | Length | Start sector | End sector
––––––––––––––––––––––––––––-
1 | 0:00.00 | 2:46.41 | 0 | 12490
2 | 2:46.41 | 4:52.68 | 12491 | 34458
3 | 7:39.34 | 5:18.71 | 34459 | 58379
4 | 12:58.30 | 4:47.12 | 58380 | 79916
5 | 17:45.42 | 3:09.48 | 79917 | 94139
6 | 20:55.15 | 3:50.69 | 94140 | 111458
7 | 24:46.09 | 4:51.70 | 111459 | 133353
8 | 29:38.04 | 6:14.34 | 133354 | 161437
9 | 35:52.38 | 4:01.56 | 161438 | 179568
10 | 39:54.19 | 5:51.44 | 179569 | 205937
11 | 45:45.63 | 3:10.04 | 205938 | 220191
12 | 48:55.67 | 4:29.33 | 220192 | 240399


Track 1

Filename H:\Flac Rips\01 - Shalom Alechem.wav

Pre-gap length 0:00:02.00

Peak level 100.0 %
Extraction speed 3.4 X
Track quality 100.0 %
Test CRC 05623ABB
Copy CRC 05623ABB
Accurately ripped (confidence 1) [1388687F] (AR v2)
Copy OK

Track 2

Filename H:\Flac Rips\02 - Djelem Djelem.wav

Peak level 99.5 %
Extraction speed 4.0 X
Track quality 100.0 %
Test CRC 9312CACA
Copy CRC 9312CACA
Accurately ripped (confidence 1) [E1AA86B1] (AR v2)
Copy OK

Track 3

Filename H:\Flac Rips\03 - Hasta siempre, comandante.wav

Peak level 100.0 %
Extraction speed 4.6 X
Track quality 100.0 %
Test CRC 6F5BC6B9
Copy CRC 6F5BC6B9
Accurately ripped (confidence 1) [031E0F19] (AR v2)
Copy OK

Track 4

Filename H:\Flac Rips\04 - He Thought He Was Italian.wav

Peak level 100.0 %
Extraction speed 4.1 X
Track quality 99.9 %
Test CRC F7EB0031
Copy CRC F7EB0031
Accurately ripped (confidence 1) [567AA3F0] (AR v2)
Copy OK

Track 5

Filename H:\Flac Rips\05 - Kus Kus.wav

Peak level 100.0 %
Extraction speed 4.9 X
Track quality 100.0 %
Test CRC E2EF0ABD
Copy CRC E2EF0ABD
Accurately ripped (confidence 1) [3D7A8791] (AR v2)
Copy OK

Track 6

Filename H:\Flac Rips\06 - Cigani Ljubjat Pesnji.wav

Peak level 99.2 %
Extraction speed 5.3 X
Track quality 100.0 %
Test CRC E3BBE6D1
Copy CRC E3BBE6D1
Accurately ripped (confidence 1) [F224B150] (AR v2)
Copy OK

Track 7

Filename H:\Flac Rips\07 - La Dama d'Arago.wav

Peak level 98.7 %
Extraction speed 5.7 X
Track quality 100.0 %
Test CRC 64B29E19
Copy CRC 64B29E19
Accurately ripped (confidence 1) [A2ECCBA0] (AR v2)
Copy OK

Track 8

Filename H:\Flac Rips\08 - Hana'ava Babanot.wav

Peak level 98.3 %
Extraction speed 5.3 X
Track quality 99.9 %
Test CRC 0D6F9C39
Copy CRC 0D6F9C39
Accurately ripped (confidence 1) [13AE68BC] (AR v2)
Copy OK

Track 9

Filename H:\Flac Rips\09 - Dace Of Joy.wav

Peak level 100.0 %
Extraction speed 6.2 X
Track quality 100.0 %
Test CRC 657D1FAE
Copy CRC 657D1FAE
Accurately ripped (confidence 1) [F225D7FB] (AR v2)
Copy OK

Track 10

Filename H:\Flac Rips\10 - Ederlezi.wav

Peak level 98.6 %
Extraction speed 5.7 X
Track quality 99.9 %
Test CRC AA1A29B7
Copy CRC AA1A29B7
Accurately ripped (confidence 1) [1F76F7AD] (AR v2)
Copy OK

Track 11

Filename H:\Flac Rips\11 - Joseph Joseph - Yossel Yossel.wav

Peak level 100.0 %
Extraction speed 6.5 X
Track quality 100.0 %
Test CRC 2A45F5E5
Copy CRC 2A45F5E5
Accurately ripped (confidence 1) [8CCFFD12] (AR v2)
Copy OK

Track 12

Filename H:\Flac Rips\12 - Ot Azoy.wav

Peak level 100.0 %
Extraction speed 7.0 X
Track quality 100.0 %
Test CRC E4BC5D4A
Copy CRC E4BC5D4A
Accurately ripped (confidence 1) [931BED3E] (AR v2)
Copy OK


All tracks accurately ripped

No errors occurred

End of status report

==== Log checksum D1A668EA0B435B3A5E5692BABD7FEB7527A3BDCCE20DF7FCE7EFC47FA0977D61 ====


Barcelona Gipsy Klezmer Orchestra - Imbarca (2014) {Satélite K SATKCD127}

Barcelona Gipsy Klezmer Orchestra - Imbarca (2014) {Satélite K SATKCD127}


All thanks goes to the original releaser!

See Also:
Barcelona Gipsy Balkan Orchestra - Del Ebro al Danubio (2016) {Satélite K SATKCD194}