Tags
Language
Tags

Barclay James Harvest - Barclay James Harvest And Other Short Stories (Remastered & Expanded) (1971/2020)

Posted By: delpotro
Barclay James Harvest - Barclay James Harvest And Other Short Stories (Remastered & Expanded) (1971/2020)

Barclay James Harvest - Barclay James Harvest And Other Short Stories (Remastered & Expanded) (1971/2020)
XLD Rip | FLAC (tracks+log+.cue) - 788 Mb | MP3 CBR 320 kbps - 319 Mb | 02:19:13
Progressive Rock | Label: Cherry Red Records, Esoteric Recordings

Esoteric Recordings is pleased to announce the release of a newly re-mastered, re-mixed and expanded 3 disc clamshell box edition of the classic album, “Barclay James Harvest and Other Short Stories”. Recorded and released in 1971, the album was the third by BJH and was recorded at Abbey Road studios and was co-produced by the band and ex-Pretty Things member Wally Allen. Widely regarded (along with “Once Again”) as one of the band’s early masterpieces, “…Other Short Stories” featured such classic tracks as ‘Medicine Man’, ‘Ursula (The Swansea Song)’, ‘The Poet’ and the epic ‘After the Day’. The album was critically acclaimed upon its release by Harvest Records and was also issued by Sire Records in the United States with some remixed versions of tracks. The album also featured the Barclay James Harvest symphony orchestra conducted by Martyn Ford and arrangements by Toni Cooke and Martyn Ford.

his expanded edition of “…Other Short Stories” comprises 40 tracks and features the original UK stereo mix re-mastered from the original master tapes and also includes a new stereo mix on a second CD and a high resolution 5.1 Surround Sound mix, new stereo mix and original stereo mix on an NTSTC / Region free DVD, all from the original Harvest masters. In addition there are three rare US album versions of ‘Medicine Man’, ‘Harry’s Song’ and ‘Someone There You Know’, along with five BBC Radio session tracks from July 1971 and March 1972, along with two rare John Lees demo recordings from 1971 and three mono reduction mixes made at Abbey Road studios in July 1971.
Tracklist:
Disc 1
1. Medicine Man
2. Someone There You Know
3. Harry's Song
4. Ursula (The Swansea Song)
5. Little Lapwing
6. Song With No Meaning
7. Blue John's Blues
8. The Poet
9. After The Day
10. Brave New World
11. Hymn To A White Lady
12. She Said
13. Galadriel
14. Ursula (The Swansea Song)
15. Someone There You Know
16. Medicine Man

Disc 2
1. Medicine Man
2. Someone There You Know
3. Harry’s Song
4. Ursula (The Swansea Song)
5. Little Lapwing
6. Song With No Meaning
7. Blue John’s Blues
8. The Poet
9. After The Day
10. Medicine Man (US Album Version)
11. Harry’s Song (US Album Version)
12. Someone There You Know (US Album Version)
13. Medicine Man (Extended Mono Reduction Mix 1971)
14. Ursula (The Swansea Song) (Mono Reduction Mix 1971)
15. Someone There You Know (Mono Reduction Mix 1971)

X Lossless Decoder version 20191004 (152.0)

XLD extraction logfile from 2020-08-28 15:14:45 +0100

Barclay James Harvest / Barclay James Harvest and Other Short Stories

Used drive : MATSHITA BD-MLT UJ240AF (revision 1.00)
Media type : Pressed CD

Ripper mode : XLD Secure Ripper
Disable audio cache : OK for the drive with a cache less than 1375KiB
Make use of C2 pointers : NO
Read offset correction : 103
Max retry count : 25
Gap status : Analyzed, Appended (except HTOA)

TOC of the extracted CD
Track | Start | Length | Start sector | End sector
––––––––––––––––––––––––––––-
1 | 00:00:00 | 03:54:22 | 0 | 17571
2 | 03:54:22 | 03:46:40 | 17572 | 34561
3 | 07:40:62 | 03:51:02 | 34562 | 51888
4 | 11:31:64 | 02:50:18 | 51889 | 64656
5 | 14:22:07 | 04:55:58 | 64657 | 86839
6 | 19:17:65 | 04:20:12 | 86840 | 106351
7 | 23:38:02 | 06:48:48 | 106352 | 136999
8 | 30:26:50 | 04:55:15 | 137000 | 159139
9 | 35:21:65 | 04:43:36 | 159140 | 180400
10 | 40:05:26 | 03:58:49 | 180401 | 198299
11 | 44:04:00 | 02:38:12 | 198300 | 210161
12 | 46:42:12 | 08:41:67 | 210162 | 249303
13 | 55:24:04 | 03:06:44 | 249304 | 263297
14 | 58:30:48 | 02:53:67 | 263298 | 276339
15 | 61:24:40 | 03:46:63 | 276340 | 293352
16 | 65:11:28 | 07:50:38 | 293353 | 328640

AccurateRip Summary
Disc not found in AccurateRip DB.

All Tracks
Album gain : -3.61 dB
Peak : 0.982910
Statistics
Read error : 0
Jitter error (maybe fixed) : 0
Retry sector count : 0
Damaged sector count : 0

Track 01
Filename : /Users/imac/Working Folder/XLD/Barclay James Harvest - Barclay James Harvest and Other Short Stories (1971) [FLAC]/01 - Barclay James Harvest - Medicine Man.flac
/Users/imac/Working Folder/XLD/Barclay James Harvest - Barclay James Harvest and Other Short Stories (1971) [MP3-320]/01 - Barclay James Harvest - Medicine Man.mp3
/Users/imac/Working Folder/XLD/Barclay James Harvest - Barclay James Harvest and Other Short Stories (1971) [MP3-V0]/01 - Barclay James Harvest - Medicine Man.mp3
Pre-gap length : 00:02:00

Track gain : -3.40 dB
Peak : 0.982910
CRC32 hash (test run) : 0CB6E648
CRC32 hash : 0CB6E648
CRC32 hash (skip zero) : FA92ADF4
AccurateRip v1 signature : 810D61C0
AccurateRip v2 signature : 02CC9DCE
->Track not present in AccurateRip database.
Statistics
Read error : 0
Jitter error (maybe fixed) : 0
Retry sector count : 0
Damaged sector count : 0

Track 02
Filename : /Users/imac/Working Folder/XLD/Barclay James Harvest - Barclay James Harvest and Other Short Stories (1971) [FLAC]/02 - Barclay James Harvest - Someone There You Know.flac
/Users/imac/Working Folder/XLD/Barclay James Harvest - Barclay James Harvest and Other Short Stories (1971) [MP3-320]/02 - Barclay James Harvest - Someone There You Know.mp3
/Users/imac/Working Folder/XLD/Barclay James Harvest - Barclay James Harvest and Other Short Stories (1971) [MP3-V0]/02 - Barclay James Harvest - Someone There You Know.mp3
Pre-gap length : 00:01:58

Track gain : -4.02 dB
Peak : 0.982910
CRC32 hash (test run) : CD4C2F4B
CRC32 hash : CD4C2F4B
CRC32 hash (skip zero) : C3BB4182
AccurateRip v1 signature : BBC14928
AccurateRip v2 signature : 4970A27C
->Track not present in AccurateRip database.
Statistics
Read error : 0
Jitter error (maybe fixed) : 0
Retry sector count : 0
Damaged sector count : 0

Track 03
Filename : /Users/imac/Working Folder/XLD/Barclay James Harvest - Barclay James Harvest and Other Short Stories (1971) [FLAC]/03 - Barclay James Harvest - Harry's Song.flac
/Users/imac/Working Folder/XLD/Barclay James Harvest - Barclay James Harvest and Other Short Stories (1971) [MP3-320]/03 - Barclay James Harvest - Harry's Song.mp3
/Users/imac/Working Folder/XLD/Barclay James Harvest - Barclay James Harvest and Other Short Stories (1971) [MP3-V0]/03 - Barclay James Harvest - Harry's Song.mp3
Pre-gap length : 00:02:12

Track gain : -3.60 dB
Peak : 0.982910
CRC32 hash (test run) : AAFDE944
CRC32 hash : AAFDE944
CRC32 hash (skip zero) : 298F935D
AccurateRip v1 signature : 8947FB83
AccurateRip v2 signature : 475CEDD3
->Track not present in AccurateRip database.
Statistics
Read error : 0
Jitter error (maybe fixed) : 0
Retry sector count : 0
Damaged sector count : 0

Track 04
Filename : /Users/imac/Working Folder/XLD/Barclay James Harvest - Barclay James Harvest and Other Short Stories (1971) [FLAC]/04 - Barclay James Harvest - Ursula (The Swansea Song).flac
/Users/imac/Working Folder/XLD/Barclay James Harvest - Barclay James Harvest and Other Short Stories (1971) [MP3-320]/04 - Barclay James Harvest - Ursula (The Swansea Song).mp3
/Users/imac/Working Folder/XLD/Barclay James Harvest - Barclay James Harvest and Other Short Stories (1971) [MP3-V0]/04 - Barclay James Harvest - Ursula (The Swansea Song).mp3
Pre-gap length : 00:01:43

Track gain : -5.89 dB
Peak : 0.919434
CRC32 hash (test run) : DEFD3A60
CRC32 hash : DEFD3A60
CRC32 hash (skip zero) : 6C352B6A
AccurateRip v1 signature : FBD7CC59
AccurateRip v2 signature : CBA3500E
->Track not present in AccurateRip database.
Statistics
Read error : 0
Jitter error (maybe fixed) : 0
Retry sector count : 0
Damaged sector count : 0

Track 05
Filename : /Users/imac/Working Folder/XLD/Barclay James Harvest - Barclay James Harvest and Other Short Stories (1971) [FLAC]/05 - Barclay James Harvest - Little Lapwing.flac
/Users/imac/Working Folder/XLD/Barclay James Harvest - Barclay James Harvest and Other Short Stories (1971) [MP3-320]/05 - Barclay James Harvest - Little Lapwing.mp3
/Users/imac/Working Folder/XLD/Barclay James Harvest - Barclay James Harvest and Other Short Stories (1971) [MP3-V0]/05 - Barclay James Harvest - Little Lapwing.mp3

Track gain : -1.11 dB
Peak : 0.982910
CRC32 hash (test run) : C08BAF54
CRC32 hash : C08BAF54
CRC32 hash (skip zero) : 0C8AFA50
AccurateRip v1 signature : 8978727A
AccurateRip v2 signature : 9C4BFE4E
->Track not present in AccurateRip database.
Statistics
Read error : 0
Jitter error (maybe fixed) : 0
Retry sector count : 0
Damaged sector count : 0

Track 06
Filename : /Users/imac/Working Folder/XLD/Barclay James Harvest - Barclay James Harvest and Other Short Stories (1971) [FLAC]/06 - Barclay James Harvest - Song with No Meaning.flac
/Users/imac/Working Folder/XLD/Barclay James Harvest - Barclay James Harvest and Other Short Stories (1971) [MP3-320]/06 - Barclay James Harvest - Song with No Meaning.mp3
/Users/imac/Working Folder/XLD/Barclay James Harvest - Barclay James Harvest and Other Short Stories (1971) [MP3-V0]/06 - Barclay James Harvest - Song with No Meaning.mp3
Pre-gap length : 00:00:74

Track gain : -1.96 dB
Peak : 0.711639
CRC32 hash (test run) : D101F401
CRC32 hash : D101F401
CRC32 hash (skip zero) : B50F7AAD
AccurateRip v1 signature : 96227F7F
AccurateRip v2 signature : AC4028CE
->Track not present in AccurateRip database.
Statistics
Read error : 0
Jitter error (maybe fixed) : 0
Retry sector count : 0
Damaged sector count : 0

Track 07
Filename : /Users/imac/Working Folder/XLD/Barclay James Harvest - Barclay James Harvest and Other Short Stories (1971) [FLAC]/07 - Barclay James Harvest - Blue John's Blues.flac
/Users/imac/Working Folder/XLD/Barclay James Harvest - Barclay James Harvest and Other Short Stories (1971) [MP3-320]/07 - Barclay James Harvest - Blue John's Blues.mp3
/Users/imac/Working Folder/XLD/Barclay James Harvest - Barclay James Harvest and Other Short Stories (1971) [MP3-V0]/07 - Barclay James Harvest - Blue John's Blues.mp3
Pre-gap length : 00:01:25

Track gain : -5.28 dB
Peak : 0.977264
CRC32 hash (test run) : 4DF35E45
CRC32 hash : 4DF35E45
CRC32 hash (skip zero) : EFDECCC1
AccurateRip v1 signature : 85E4B120
AccurateRip v2 signature : 59A93DEB
->Track not present in AccurateRip database.
Statistics
Read error : 0
Jitter error (maybe fixed) : 0
Retry sector count : 0
Damaged sector count : 0

Track 08
Filename : /Users/imac/Working Folder/XLD/Barclay James Harvest - Barclay James Harvest and Other Short Stories (1971) [FLAC]/08 - Barclay James Harvest - The Poet.flac
/Users/imac/Working Folder/XLD/Barclay James Harvest - Barclay James Harvest and Other Short Stories (1971) [MP3-320]/08 - Barclay James Harvest - The Poet.mp3
/Users/imac/Working Folder/XLD/Barclay James Harvest - Barclay James Harvest and Other Short Stories (1971) [MP3-V0]/08 - Barclay James Harvest - The Poet.mp3
Pre-gap length : 00:01:34

Track gain : -0.34 dB
Peak : 0.591064
CRC32 hash (test run) : A302A315
CRC32 hash : A302A315
CRC32 hash (skip zero) : 17ED939A
AccurateRip v1 signature : 743441F2
AccurateRip v2 signature : A788FB26
->Track not present in AccurateRip database.
Statistics
Read error : 0
Jitter error (maybe fixed) : 0
Retry sector count : 0
Damaged sector count : 0

Track 09
Filename : /Users/imac/Working Folder/XLD/Barclay James Harvest - Barclay James Harvest and Other Short Stories (1971) [FLAC]/09 - Barclay James Harvest - After the Day.flac
/Users/imac/Working Folder/XLD/Barclay James Harvest - Barclay James Harvest and Other Short Stories (1971) [MP3-320]/09 - Barclay James Harvest - After the Day.mp3
/Users/imac/Working Folder/XLD/Barclay James Harvest - Barclay James Harvest and Other Short Stories (1971) [MP3-V0]/09 - Barclay James Harvest - After the Day.mp3

Track gain : -4.61 dB
Peak : 0.982910
CRC32 hash (test run) : E14327DA
CRC32 hash : E14327DA
CRC32 hash (skip zero) : 7A0F45B8
AccurateRip v1 signature : 395FD75A
AccurateRip v2 signature : 42A8D772
->Track not present in AccurateRip database.
Statistics
Read error : 0
Jitter error (maybe fixed) : 0
Retry sector count : 0
Damaged sector count : 0

Track 10
Filename : /Users/imac/Working Folder/XLD/Barclay James Harvest - Barclay James Harvest and Other Short Stories (1971) [FLAC]/10 - Barclay James Harvest - Brave New World (John Lees Demo).flac
/Users/imac/Working Folder/XLD/Barclay James Harvest - Barclay James Harvest and Other Short Stories (1971) [MP3-320]/10 - Barclay James Harvest - Brave New World (John Lees Demo).mp3
/Users/imac/Working Folder/XLD/Barclay James Harvest - Barclay James Harvest and Other Short Stories (1971) [MP3-V0]/10 - Barclay James Harvest - Brave New World (John Lees Demo).mp3
Pre-gap length : 00:04:50

Track gain : 1.84 dB
Peak : 0.605286
CRC32 hash (test run) : 9E5EDD95
CRC32 hash : 9E5EDD95
CRC32 hash (skip zero) : CB4DB44F
AccurateRip v1 signature : AC97E897
AccurateRip v2 signature : E872E8FE
->Track not present in AccurateRip database.
Statistics
Read error : 0
Jitter error (maybe fixed) : 0
Retry sector count : 0
Damaged sector count : 0

Track 11
Filename : /Users/imac/Working Folder/XLD/Barclay James Harvest - Barclay James Harvest and Other Short Stories (1971) [FLAC]/11 - Barclay James Harvest - Hymn to a White Lady (John Lees Demo).flac
/Users/imac/Working Folder/XLD/Barclay James Harvest - Barclay James Harvest and Other Short Stories (1971) [MP3-320]/11 - Barclay James Harvest - Hymn to a White Lady (John Lees Demo).mp3
/Users/imac/Working Folder/XLD/Barclay James Harvest - Barclay James Harvest and Other Short Stories (1971) [MP3-V0]/11 - Barclay James Harvest - Hymn to a White Lady (John Lees Demo).mp3
Pre-gap length : 00:02:71

Track gain : 1.17 dB
Peak : 0.557983
CRC32 hash (test run) : BC353F49
CRC32 hash : BC353F49
CRC32 hash (skip zero) : 7558F439
AccurateRip v1 signature : DB758DEF
AccurateRip v2 signature : 99B6E2D3
->Track not present in AccurateRip database.
Statistics
Read error : 0
Jitter error (maybe fixed) : 0
Retry sector count : 0
Damaged sector count : 0

Track 12
Filename : /Users/imac/Working Folder/XLD/Barclay James Harvest - Barclay James Harvest and Other Short Stories (1971) [FLAC]/12 - Barclay James Harvest - She Said (BBC Radio 1 Bob Harris Show Session 1971).flac
/Users/imac/Working Folder/XLD/Barclay James Harvest - Barclay James Harvest and Other Short Stories (1971) [MP3-320]/12 - Barclay James Harvest - She Said (BBC Radio 1 Bob Harris Show Session 1971).mp3
/Users/imac/Working Folder/XLD/Barclay James Harvest - Barclay James Harvest and Other Short Stories (1971) [MP3-V0]/12 - Barclay James Harvest - She Said (BBC Radio 1 Bob Harris Show Session 1971).mp3
Pre-gap length : 00:02:50

Track gain : -5.33 dB
Peak : 0.956757
CRC32 hash (test run) : 87C93E1E
CRC32 hash : 87C93E1E
CRC32 hash (skip zero) : 4014EF0E
AccurateRip v1 signature : ED6BA33B
AccurateRip v2 signature : 3648371D
->Track not present in AccurateRip database.
Statistics
Read error : 0
Jitter error (maybe fixed) : 0
Retry sector count : 0
Damaged sector count : 0

Track 13
Filename : /Users/imac/Working Folder/XLD/Barclay James Harvest - Barclay James Harvest and Other Short Stories (1971) [FLAC]/13 - Barclay James Harvest - Galadriel (BBC Radio 1 Bob Harris Show Session 1971).flac
/Users/imac/Working Folder/XLD/Barclay James Harvest - Barclay James Harvest and Other Short Stories (1971) [MP3-320]/13 - Barclay James Harvest - Galadriel (BBC Radio 1 Bob Harris Show Session 1971).mp3
/Users/imac/Working Folder/XLD/Barclay James Harvest - Barclay James Harvest and Other Short Stories (1971) [MP3-V0]/13 - Barclay James Harvest - Galadriel (BBC Radio 1 Bob Harris Show Session 1971).mp3
Pre-gap length : 00:00:74

Track gain : -2.11 dB
Peak : 0.686951
CRC32 hash (test run) : 4639F947
CRC32 hash : 4639F947
CRC32 hash (skip zero) : DE5A0E9F
AccurateRip v1 signature : 212A7DF5
AccurateRip v2 signature : 2B29DCF4
->Track not present in AccurateRip database.
Statistics
Read error : 0
Jitter error (maybe fixed) : 0
Retry sector count : 0
Damaged sector count : 0

Track 14
Filename : /Users/imac/Working Folder/XLD/Barclay James Harvest - Barclay James Harvest and Other Short Stories (1971) [FLAC]/14 - Barclay James Harvest - Ursula (The Swansea Song) (BBC Radio 1 Bob Harris Show Session 1971).flac
/Users/imac/Working Folder/XLD/Barclay James Harvest - Barclay James Harvest and Other Short Stories (1971) [MP3-320]/14 - Barclay James Harvest - Ursula (The Swansea Song) (BBC Radio 1 Bob Harris Show Session 1971).mp3
/Users/imac/Working Folder/XLD/Barclay James Harvest - Barclay James Harvest and Other Short Stories (1971) [MP3-V0]/14 - Barclay James Harvest - Ursula (The Swansea Song) (BBC Radio 1 Bob Harris Show Session 1971).mp3
Pre-gap length : 00:01:16

Track gain : -2.55 dB
Peak : 0.877350
CRC32 hash (test run) : C4D59AF6
CRC32 hash : C4D59AF6
CRC32 hash (skip zero) : 107AB716
AccurateRip v1 signature : BD8B99A1
AccurateRip v2 signature : 211CBAE0
->Track not present in AccurateRip database.
Statistics
Read error : 0
Jitter error (maybe fixed) : 0
Retry sector count : 0
Damaged sector count : 0

Track 15
Filename : /Users/imac/Working Folder/XLD/Barclay James Harvest - Barclay James Harvest and Other Short Stories (1971) [FLAC]/15 - Barclay James Harvest - Someone There You Know (BBC Radio 1 Bob Harris Show Session 1971).flac
/Users/imac/Working Folder/XLD/Barclay James Harvest - Barclay James Harvest and Other Short Stories (1971) [MP3-320]/15 - Barclay James Harvest - Someone There You Know (BBC Radio 1 Bob Harris Show Session 1971).mp3
/Users/imac/Working Folder/XLD/Barclay James Harvest - Barclay James Harvest and Other Short Stories (1971) [MP3-V0]/15 - Barclay James Harvest - Someone There You Know (BBC Radio 1 Bob Harris Show Session 1971).mp3
Pre-gap length : 00:01:23

Track gain : -2.74 dB
Peak : 0.864166
CRC32 hash (test run) : 78E7BF25
CRC32 hash : 78E7BF25
CRC32 hash (skip zero) : 18EE5FE5
AccurateRip v1 signature : 8DAF1F8A
AccurateRip v2 signature : 774E9ED2
->Track not present in AccurateRip database.
Statistics
Read error : 0
Jitter error (maybe fixed) : 0
Retry sector count : 0
Damaged sector count : 0

Track 16
Filename : /Users/imac/Working Folder/XLD/Barclay James Harvest - Barclay James Harvest and Other Short Stories (1971) [FLAC]/16 - Barclay James Harvest - Medicine Man (BBC Radio 1 Bob Harris Show Session 1972).flac
/Users/imac/Working Folder/XLD/Barclay James Harvest - Barclay James Harvest and Other Short Stories (1971) [MP3-320]/16 - Barclay James Harvest - Medicine Man (BBC Radio 1 Bob Harris Show Session 1972).mp3
/Users/imac/Working Folder/XLD/Barclay James Harvest - Barclay James Harvest and Other Short Stories (1971) [MP3-V0]/16 - Barclay James Harvest - Medicine Man (BBC Radio 1 Bob Harris Show Session 1972).mp3
Pre-gap length : 00:01:21

Track gain : -3.75 dB
Peak : 0.919678
CRC32 hash (test run) : 08FC2EFD
CRC32 hash : 08FC2EFD
CRC32 hash (skip zero) : CA649501
AccurateRip v1 signature : 3417E5B3
AccurateRip v2 signature : 18AEF8AC
->Track not present in AccurateRip database.
Statistics
Read error : 0
Jitter error (maybe fixed) : 0
Retry sector count : 0
Damaged sector count : 0

No errors occurred

End of status report

––-BEGIN XLD SIGNATURE––-
O3eI4ROsRxp31MSmixZw7mq.sqXjXxQRg968BkScGs_aF_l3beFIxYkgZZit2RpKa8zQjYaBPugMJmXLMfuftAqTCd442cJDBjh42H8
––-END XLD SIGNATURE––-
X Lossless Decoder version 20191004 (152.0)

XLD extraction logfile from 2020-08-29 12:57:17 +0100

Barclay James Harvest / Barclay James Harvest and Other Short Stories

Used drive : MATSHITA BD-MLT UJ240AF (revision 1.00)
Media type : Pressed CD

Ripper mode : XLD Secure Ripper
Disable audio cache : OK for the drive with a cache less than 1375KiB
Make use of C2 pointers : NO
Read offset correction : 103
Max retry count : 25
Gap status : Analyzed, Appended (except HTOA)

TOC of the extracted CD
Track | Start | Length | Start sector | End sector
––––––––––––––––––––––––––––-
1 | 00:00:00 | 03:59:19 | 0 | 17943
2 | 03:59:19 | 03:49:00 | 17944 | 35118
3 | 07:48:19 | 04:27:01 | 35119 | 55144
4 | 12:15:20 | 02:53:32 | 55145 | 68151
5 | 15:08:52 | 05:01:53 | 68152 | 90779
6 | 20:10:30 | 04:19:49 | 90780 | 110253
7 | 24:30:04 | 07:42:66 | 110254 | 144969
8 | 32:12:70 | 04:56:44 | 144970 | 167213
9 | 37:09:39 | 04:47:50 | 167214 | 188788
10 | 41:57:14 | 03:43:09 | 188789 | 205522
11 | 45:40:23 | 04:30:43 | 205523 | 225815
12 | 50:10:66 | 03:51:49 | 225816 | 243189
13 | 54:02:40 | 05:10:25 | 243190 | 266464
14 | 59:12:65 | 03:06:19 | 266465 | 280433
15 | 62:19:09 | 03:52:70 | 280434 | 297903

AccurateRip Summary
Disc not found in AccurateRip DB.

All Tracks
Album gain : -3.92 dB
Peak : 0.982910
Statistics
Read error : 0
Jitter error (maybe fixed) : 0
Retry sector count : 0
Damaged sector count : 0

Track 01
Filename : /Users/imac/Working Folder/XLD/Barclay James Harvest - Barclay James Harvest and Other Short Stories (1971) [FLAC]/01 - Barclay James Harvest - Medicine Man (New Stereo Mix).flac
/Users/imac/Working Folder/XLD/Barclay James Harvest - Barclay James Harvest and Other Short Stories (1971) [MP3-320]/01 - Barclay James Harvest - Medicine Man (New Stereo Mix).mp3
/Users/imac/Working Folder/XLD/Barclay James Harvest - Barclay James Harvest and Other Short Stories (1971) [MP3-V0]/01 - Barclay James Harvest - Medicine Man (New Stereo Mix).mp3
Pre-gap length : 00:02:00

Track gain : -4.33 dB
Peak : 0.982910
CRC32 hash (test run) : C2CA813B
CRC32 hash : C2CA813B
CRC32 hash (skip zero) : E096ADA2
AccurateRip v1 signature : 23E69D22
AccurateRip v2 signature : F688544E
->Track not present in AccurateRip database.
Statistics
Read error : 0
Jitter error (maybe fixed) : 0
Retry sector count : 0
Damaged sector count : 0

Track 02
Filename : /Users/imac/Working Folder/XLD/Barclay James Harvest - Barclay James Harvest and Other Short Stories (1971) [FLAC]/02 - Barclay James Harvest - Someone There You Know (New Stereo Mix).flac
/Users/imac/Working Folder/XLD/Barclay James Harvest - Barclay James Harvest and Other Short Stories (1971) [MP3-320]/02 - Barclay James Harvest - Someone There You Know (New Stereo Mix).mp3
/Users/imac/Working Folder/XLD/Barclay James Harvest - Barclay James Harvest and Other Short Stories (1971) [MP3-V0]/02 - Barclay James Harvest - Someone There You Know (New Stereo Mix).mp3
Pre-gap length : 00:01:12

Track gain : -4.84 dB
Peak : 0.982880
CRC32 hash (test run) : 6C3E2009
CRC32 hash : 6C3E2009
CRC32 hash (skip zero) : B0792F30
AccurateRip v1 signature : 5104AC8F
AccurateRip v2 signature : 0282353F
->Track not present in AccurateRip database.
Statistics
Read error : 0
Jitter error (maybe fixed) : 0
Retry sector count : 0
Damaged sector count : 0

Track 03
Filename : /Users/imac/Working Folder/XLD/Barclay James Harvest - Barclay James Harvest and Other Short Stories (1971) [FLAC]/03 - Barclay James Harvest - Harry's Song (New Stereo Mix).flac
/Users/imac/Working Folder/XLD/Barclay James Harvest - Barclay James Harvest and Other Short Stories (1971) [MP3-320]/03 - Barclay James Harvest - Harry's Song (New Stereo Mix).mp3
/Users/imac/Working Folder/XLD/Barclay James Harvest - Barclay James Harvest and Other Short Stories (1971) [MP3-V0]/03 - Barclay James Harvest - Harry's Song (New Stereo Mix).mp3
Pre-gap length : 00:01:51

Track gain : -4.07 dB
Peak : 0.982910
CRC32 hash (test run) : 951F8E71
CRC32 hash : 951F8E71
CRC32 hash (skip zero) : 4EB00D3D
AccurateRip v1 signature : E212F98D
AccurateRip v2 signature : E3F70155
->Track not present in AccurateRip database.
Statistics
Read error : 0
Jitter error (maybe fixed) : 0
Retry sector count : 0
Damaged sector count : 0

Track 04
Filename : /Users/imac/Working Folder/XLD/Barclay James Harvest - Barclay James Harvest and Other Short Stories (1971) [FLAC]/04 - Barclay James Harvest - Ursula (The Swansea Song) (New Stereo Mix).flac
/Users/imac/Working Folder/XLD/Barclay James Harvest - Barclay James Harvest and Other Short Stories (1971) [MP3-320]/04 - Barclay James Harvest - Ursula (The Swansea Song) (New Stereo Mix).mp3
/Users/imac/Working Folder/XLD/Barclay James Harvest - Barclay James Harvest and Other Short Stories (1971) [MP3-V0]/04 - Barclay James Harvest - Ursula (The Swansea Song) (New Stereo Mix).mp3
Pre-gap length : 00:01:56

Track gain : -4.20 dB
Peak : 0.982880
CRC32 hash (test run) : 635AB9FD
CRC32 hash : 635AB9FD
CRC32 hash (skip zero) : B35D244D
AccurateRip v1 signature : 5686FCA8
AccurateRip v2 signature : DCAD566A
->Track not present in AccurateRip database.
Statistics
Read error : 0
Jitter error (maybe fixed) : 0
Retry sector count : 0
Damaged sector count : 0

Track 05
Filename : /Users/imac/Working Folder/XLD/Barclay James Harvest - Barclay James Harvest and Other Short Stories (1971) [FLAC]/05 - Barclay James Harvest - Little Lapwing (New Stereo Mix).flac
/Users/imac/Working Folder/XLD/Barclay James Harvest - Barclay James Harvest and Other Short Stories (1971) [MP3-320]/05 - Barclay James Harvest - Little Lapwing (New Stereo Mix).mp3
/Users/imac/Working Folder/XLD/Barclay James Harvest - Barclay James Harvest and Other Short Stories (1971) [MP3-V0]/05 - Barclay James Harvest - Little Lapwing (New Stereo Mix).mp3

Track gain : -3.43 dB
Peak : 0.982910
CRC32 hash (test run) : 56788221
CRC32 hash : 56788221
CRC32 hash (skip zero) : FFFF6D6D
AccurateRip v1 signature : 47EDCCB3
AccurateRip v2 signature : 8A68DBF2
->Track not present in AccurateRip database.
Statistics
Read error : 0
Jitter error (maybe fixed) : 0
Retry sector count : 0
Damaged sector count : 0

Track 06
Filename : /Users/imac/Working Folder/XLD/Barclay James Harvest - Barclay James Harvest and Other Short Stories (1971) [FLAC]/06 - Barclay James Harvest - Song With No Meaning (New Stereo Mix).flac
/Users/imac/Working Folder/XLD/Barclay James Harvest - Barclay James Harvest and Other Short Stories (1971) [MP3-320]/06 - Barclay James Harvest - Song With No Meaning (New Stereo Mix).mp3
/Users/imac/Working Folder/XLD/Barclay James Harvest - Barclay James Harvest and Other Short Stories (1971) [MP3-V0]/06 - Barclay James Harvest - Song With No Meaning (New Stereo Mix).mp3
Pre-gap length : 00:01:27

Track gain : -3.12 dB
Peak : 0.982880
CRC32 hash (test run) : D43EC2FF
CRC32 hash : D43EC2FF
CRC32 hash (skip zero) : BC99895E
AccurateRip v1 signature : 54E3CDB5
AccurateRip v2 signature : 08004175
->Track not present in AccurateRip database.
Statistics
Read error : 0
Jitter error (maybe fixed) : 0
Retry sector count : 0
Damaged sector count : 0

Track 07
Filename : /Users/imac/Working Folder/XLD/Barclay James Harvest - Barclay James Harvest and Other Short Stories (1971) [FLAC]/07 - Barclay James Harvest - Blue John's Blues (New Stereo Mix).flac
/Users/imac/Working Folder/XLD/Barclay James Harvest - Barclay James Harvest and Other Short Stories (1971) [MP3-320]/07 - Barclay James Harvest - Blue John's Blues (New Stereo Mix).mp3
/Users/imac/Working Folder/XLD/Barclay James Harvest - Barclay James Harvest and Other Short Stories (1971) [MP3-V0]/07 - Barclay James Harvest - Blue John's Blues (New Stereo Mix).mp3
Pre-gap length : 00:01:39

Track gain : -5.45 dB
Peak : 0.982910
CRC32 hash (test run) : 7E9D8598
CRC32 hash : 7E9D8598
CRC32 hash (skip zero) : 52F16437
AccurateRip v1 signature : CBEECB59
AccurateRip v2 signature : A4FD2B67
->Track not present in AccurateRip database.
Statistics
Read error : 0
Jitter error (maybe fixed) : 0
Retry sector count : 0
Damaged sector count : 0

Track 08
Filename : /Users/imac/Working Folder/XLD/Barclay James Harvest - Barclay James Harvest and Other Short Stories (1971) [FLAC]/08 - Barclay James Harvest - The Poet (New Stereo Mix).flac
/Users/imac/Working Folder/XLD/Barclay James Harvest - Barclay James Harvest and Other Short Stories (1971) [MP3-320]/08 - Barclay James Harvest - The Poet (New Stereo Mix).mp3
/Users/imac/Working Folder/XLD/Barclay James Harvest - Barclay James Harvest and Other Short Stories (1971) [MP3-V0]/08 - Barclay James Harvest - The Poet (New Stereo Mix).mp3
Pre-gap length : 00:01:18

Track gain : 0.17 dB
Peak : 0.852142
CRC32 hash (test run) : EC81F9AD
CRC32 hash : EC81F9AD
CRC32 hash (skip zero) : 79813483
AccurateRip v1 signature : AD590D8F
AccurateRip v2 signature : AE434454
->Track not present in AccurateRip database.
Statistics
Read error : 0
Jitter error (maybe fixed) : 0
Retry sector count : 0
Damaged sector count : 0

Track 09
Filename : /Users/imac/Working Folder/XLD/Barclay James Harvest - Barclay James Harvest and Other Short Stories (1971) [FLAC]/09 - Barclay James Harvest - After The Day (New Stereo Mix).flac
/Users/imac/Working Folder/XLD/Barclay James Harvest - Barclay James Harvest and Other Short Stories (1971) [MP3-320]/09 - Barclay James Harvest - After The Day (New Stereo Mix).mp3
/Users/imac/Working Folder/XLD/Barclay James Harvest - Barclay James Harvest and Other Short Stories (1971) [MP3-V0]/09 - Barclay James Harvest - After The Day (New Stereo Mix).mp3

Track gain : -4.25 dB
Peak : 0.982910
CRC32 hash (test run) : 42E59ED0
CRC32 hash : 42E59ED0
CRC32 hash (skip zero) : E9D56941
AccurateRip v1 signature : FED76A8A
AccurateRip v2 signature : 9317FB9D
->Track not present in AccurateRip database.
Statistics
Read error : 0
Jitter error (maybe fixed) : 0
Retry sector count : 0
Damaged sector count : 0

Track 10
Filename : /Users/imac/Working Folder/XLD/Barclay James Harvest - Barclay James Harvest and Other Short Stories (1971) [FLAC]/10 - Barclay James Harvest - Medicine Man (71 US Album Version).flac
/Users/imac/Working Folder/XLD/Barclay James Harvest - Barclay James Harvest and Other Short Stories (1971) [MP3-320]/10 - Barclay James Harvest - Medicine Man (71 US Album Version).mp3
/Users/imac/Working Folder/XLD/Barclay James Harvest - Barclay James Harvest and Other Short Stories (1971) [MP3-V0]/10 - Barclay James Harvest - Medicine Man (71 US Album Version).mp3
Pre-gap length : 00:05:61

Track gain : -3.23 dB
Peak : 0.982910
CRC32 hash (test run) : EC15CFEF
CRC32 hash : EC15CFEF
CRC32 hash (skip zero) : 7F90CFF3
AccurateRip v1 signature : 86F06F56
AccurateRip v2 signature : EBE6CD21
->Track not present in AccurateRip database.
Statistics
Read error : 0
Jitter error (maybe fixed) : 0
Retry sector count : 0
Damaged sector count : 0

Track 11
Filename : /Users/imac/Working Folder/XLD/Barclay James Harvest - Barclay James Harvest and Other Short Stories (1971) [FLAC]/11 - Barclay James Harvest - Harry's Song (71 US Album Version).flac
/Users/imac/Working Folder/XLD/Barclay James Harvest - Barclay James Harvest and Other Short Stories (1971) [MP3-320]/11 - Barclay James Harvest - Harry's Song (71 US Album Version).mp3
/Users/imac/Working Folder/XLD/Barclay James Harvest - Barclay James Harvest and Other Short Stories (1971) [MP3-V0]/11 - Barclay James Harvest - Harry's Song (71 US Album Version).mp3
Pre-gap length : 00:02:02

Track gain : -3.27 dB
Peak : 0.982910
CRC32 hash (test run) : 78376797
CRC32 hash : 78376797
CRC32 hash (skip zero) : A091F228
AccurateRip v1 signature : 943F6C0E
AccurateRip v2 signature : 1831937A
->Track not present in AccurateRip database.
Statistics
Read error : 0
Jitter error (maybe fixed) : 0
Retry sector count : 0
Damaged sector count : 0

Track 12
Filename : /Users/imac/Working Folder/XLD/Barclay James Harvest - Barclay James Harvest and Other Short Stories (1971) [FLAC]/12 - Barclay James Harvest - Someone There You Know (71 US Album Version).flac
/Users/imac/Working Folder/XLD/Barclay James Harvest - Barclay James Harvest and Other Short Stories (1971) [MP3-320]/12 - Barclay James Harvest - Someone There You Know (71 US Album Version).mp3
/Users/imac/Working Folder/XLD/Barclay James Harvest - Barclay James Harvest and Other Short Stories (1971) [MP3-V0]/12 - Barclay James Harvest - Someone There You Know (71 US Album Version).mp3
Pre-gap length : 00:01:49

Track gain : -4.57 dB
Peak : 0.982910
CRC32 hash (test run) : 5034D37D
CRC32 hash : 5034D37D
CRC32 hash (skip zero) : ABA061F8
AccurateRip v1 signature : 019A2F47
AccurateRip v2 signature : D551036A
->Track not present in AccurateRip database.
Statistics
Read error : 0
Jitter error (maybe fixed) : 0
Retry sector count : 0
Damaged sector count : 0

Track 13
Filename : /Users/imac/Working Folder/XLD/Barclay James Harvest - Barclay James Harvest and Other Short Stories (1971) [FLAC]/13 - Barclay James Harvest - Medicine Man (Abbey Rd Rough Mono Reduction Mix).flac
/Users/imac/Working Folder/XLD/Barclay James Harvest - Barclay James Harvest and Other Short Stories (1971) [MP3-320]/13 - Barclay James Harvest - Medicine Man (Abbey Rd Rough Mono Reduction Mix).mp3
/Users/imac/Working Folder/XLD/Barclay James Harvest - Barclay James Harvest and Other Short Stories (1971) [MP3-V0]/13 - Barclay James Harvest - Medicine Man (Abbey Rd Rough Mono Reduction Mix).mp3
Pre-gap length : 00:02:58

Track gain : -2.72 dB
Peak : 0.940857
CRC32 hash (test run) : 507A1AD5
CRC32 hash : 507A1AD5
CRC32 hash (skip zero) : 35EA6BA6
AccurateRip v1 signature : 97B772EE
AccurateRip v2 signature : 23248F39
->Track not present in AccurateRip database.
Statistics
Read error : 0
Jitter error (maybe fixed) : 0
Retry sector count : 0
Damaged sector count : 0

Track 14
Filename : /Users/imac/Working Folder/XLD/Barclay James Harvest - Barclay James Harvest and Other Short Stories (1971) [FLAC]/14 - Barclay James Harvest - Ursula (Abbey Rd Rough Mono Reduction Mix).flac
/Users/imac/Working Folder/XLD/Barclay James Harvest - Barclay James Harvest and Other Short Stories (1971) [MP3-320]/14 - Barclay James Harvest - Ursula (Abbey Rd Rough Mono Reduction Mix).mp3
/Users/imac/Working Folder/XLD/Barclay James Harvest - Barclay James Harvest and Other Short Stories (1971) [MP3-V0]/14 - Barclay James Harvest - Ursula (Abbey Rd Rough Mono Reduction Mix).mp3
Pre-gap length : 00:01:22

Track gain : -4.03 dB
Peak : 0.982300
CRC32 hash (test run) : 6E4A9533
CRC32 hash : 6E4A9533
CRC32 hash (skip zero) : 5D4ADBE2
AccurateRip v1 signature : 0774259F
AccurateRip v2 signature : E780F76F
->Track not present in AccurateRip database.
Statistics
Read error : 0
Jitter error (maybe fixed) : 0
Retry sector count : 0
Damaged sector count : 0

Track 15
Filename : /Users/imac/Working Folder/XLD/Barclay James Harvest - Barclay James Harvest and Other Short Stories (1971) [FLAC]/15 - Barclay James Harvest - Someone There You Know (Abbey Rd Rough Mono Reduction Mix).flac
/Users/imac/Working Folder/XLD/Barclay James Harvest - Barclay James Harvest and Other Short Stories (1971) [MP3-320]/15 - Barclay James Harvest - Someone There You Know (Abbey Rd Rough Mono Reduction Mix).mp3
/Users/imac/Working Folder/XLD/Barclay James Harvest - Barclay James Harvest and Other Short Stories (1971) [MP3-V0]/15 - Barclay James Harvest - Someone There You Know (Abbey Rd Rough Mono Reduction Mix).mp3
Pre-gap length : 00:02:64

Track gain : -4.67 dB
Peak : 0.819641
CRC32 hash (test run) : 0D900F2B
CRC32 hash : 0D900F2B
CRC32 hash (skip zero) : 46F1CD1E
AccurateRip v1 signature : 0DD07938
AccurateRip v2 signature : C4332BD6
->Track not present in AccurateRip database.
Statistics
Read error : 0
Jitter error (maybe fixed) : 0
Retry sector count : 0
Damaged sector count : 0

No errors occurred

End of status report

––-BEGIN XLD SIGNATURE––-
xEKe3s.V9mEqfBLb9nxLRR96SQc_VOcr9oLF15S14LlH8jta75La72MMkXGYE_7V5bfiqwNuIszyxJOMLuA9L6QqCqMPlP87uZEs488
––-END XLD SIGNATURE––-

Thanks to the Original ripper swampsnake !