Tags
Language
Tags

Bergen Philharmonic Orchestra, Edward Gardner - Grieg: Peer Gynt, Op. 23 & Piano Concerto in A Minor, Op. 16 (2018)

Posted By: delpotro
Bergen Philharmonic Orchestra, Edward Gardner - Grieg: Peer Gynt, Op. 23 & Piano Concerto in A Minor, Op. 16 (2018)

Bergen Philharmonic Orchestra, Edward Gardner & Jean-Efflam Bavouzet - Grieg: Peer Gynt, Op. 23 & Piano Concerto in A Minor, Op. 16 (2018)
EAC Rip | FLAC (tracks+log+.cue) | 01:23:09 | 291 Mb
Classical | Label: Chandos Records

This much awaited recording offers keenly idiomatic performances of the most famous works by Grieg, played by the composer’s own orchestra, the Bergen Philharmonic, and its Chief Conductor, Edward Gardner. The drama and passion of such favourite pieces as the incidental music to Peer Gynt and the Piano Concerto are superbly captured in surround-sound with exemplary Chandos sound quality. Unlike most existing recordings, offering only the orchestral suites, this disc presents numerous extra excerpts from Peer Gynt, which follow the sequence of Henrik Ibsen‘s dramatic poem, including sections for the unique Norwegian 'Hardanger Fiddle’. Having collaborated with the orchestra on several occasions, Jean-Efflam Bavouzet is the soloist in the Piano Concerto, a piece that stands out as a shining example of a single great thought captured and expressed in music. The power of this conception is evident throughout the concerto in the pianist’s faithful, yet highly romantic interpretation.
Tracklist:
01. Peer Gynt, Op. 23: No. 1, Prelude. I bryllupsgården
02. Peer Gynt, Op. 23: No. 3a, Halling
03. Peer Gynt, Op. 23: No. 3b, Springar
04. Peer Gynt, Op. 23: No. 4, Prelude. Bruderovet-Ingrids klage
05. Peer Gynt, Op. 23: No. 5, Peer Gynt og seterjentene
06. Peer Gynt, Op. 23: No. 8, I Dovregubbens hall
07. Peer Gynt, Op. 23: No. 9, Dans av Dovregubbens datter
08. Peer Gynt, Op. 23: No. 14, Åses død
09. Peer Gynt, Op. 23: No. 15, Prelude. Morgenstemning
10. Peer Gynt, Op. 23: No. 17, Arabisk dans
11. Peer Gynt, Op. 23: No. 18, Anitras dans
12. Peer Gynt, Op. 23: No. 19, Peer Gynts serenade
13. Peer Gynt, Op. 23: No. 21, Solveigs sang
14. Peer Gynt, Op. 23: No. 23, Prelude. Peer Gynts hjemfart. Stormfull aften på havet
15. Peer Gynt, Op. 23: No. 27, Pinsesalme. Velsignede morgen
16. Peer Gynt, Op. 23: No. 28, Solveigs vuggevise
17. Piano Concerto in A Minor, Op. 16: I. Allegro molto moderato
18. Piano Concerto in A Minor, Op. 16: II. Adagio
19. Piano Concerto in A Minor, Op. 16: III. Allegro moderato molto e marcato
20. Folkelivsbilder, Op. 19: No. 2, Brudefølget drager forbi (Arr. J. Halvorsen)

Exact Audio Copy V1.3 from 2. September 2016

EAC extraction logfile from 8. June 2018, 15:46

Edward Gardner / Piano Concerto; Incidental Music to 'Peer Gynt'

Used drive : HL-DT-STDVDRAM GHD0N Adapter: 1 ID: 0

Read mode : Secure
Utilize accurate stream : Yes
Defeat audio cache : Yes
Make use of C2 pointers : No

Read offset correction : 6
Overread into Lead-In and Lead-Out : No
Fill up missing offset samples with silence : Yes
Delete leading and trailing silent blocks : No
Null samples used in CRC calculations : Yes
Used interface : Native Win32 interface for Win NT & 2000
Gap handling : Appended to previous track

Used output format : User Defined Encoder
Selected bitrate : 128 kBit/s
Quality : High
Add ID3 tag : No
Command line compressor : C:\flac-1.3.2-win\win64\flac.exe
Additional command line options : -8 -e -p -V -T "ARTIST=%artist%" -T "TITLE=%title%" -T "ALBUM=%albumtitle%" -T "DATE=%year%" -T "TRACKNUMBER=%tracknr%" -T "GENRE=%genre%" -T "PERFORMER=%albuminterpret%" -T "COMPOSER=%composer%" %haslyrics%–tag-from-file=LYRICS="%lyricsfile%"%haslyrics% -T "ALBUMARTIST=%albumartist%" -T "DISCNUMBER=%cdnumber%" -T "TOTALDISCS=%totalcds%" -T "TOTALTRACKS=%numtracks%" -T "COMMENT=%comment%" %source% -o %dest%


TOC of the extracted CD

Track | Start | Length | Start sector | End sector
––––––––––––––––––––––––––––-
1 | 0:00.00 | 4:56.00 | 0 | 22199
2 | 4:56.00 | 0:42.50 | 22200 | 25399
3 | 5:38.50 | 1:08.45 | 25400 | 30544
4 | 6:47.20 | 4:17.10 | 30545 | 49829
5 | 11:04.30 | 3:34.45 | 49830 | 65924
6 | 14:39.00 | 2:33.20 | 65925 | 77419
7 | 17:12.20 | 1:51.65 | 77420 | 85809
8 | 19:04.10 | 4:32.40 | 85810 | 106249
9 | 23:36.50 | 4:21.10 | 106250 | 125834
10 | 27:57.60 | 4:58.25 | 125835 | 148209
11 | 32:56.10 | 3:43.65 | 148210 | 164999
12 | 36:40.00 | 2:28.50 | 165000 | 176149
13 | 39:08.50 | 5:31.25 | 176150 | 200999
14 | 44:40.00 | 2:09.20 | 201000 | 210694
15 | 46:49.20 | 1:18.40 | 210695 | 216584
16 | 48:07.60 | 6:40.35 | 216585 | 246619
17 | 54:48.20 | 12:13.10 | 246620 | 301604
18 | 67:01.30 | 6:15.00 | 301605 | 329729
19 | 73:16.30 | 9:52.45 | 329730 | 374174


Track 1

Filename D:\rip\Edward Gardner - Grieg - Piano Concerto; Incidental Music to 'Peer Gynt' (2018) [CD FLAC]\01 - Peer Gynt, Op. 23 No. 1, Prelude. I bryllupsgården.wav

Pre-gap length 0:00:02.00

Peak level 75.0 %
Extraction speed 1.2 X
Track quality 100.0 %
Test CRC 75E6B8B5
Copy CRC 75E6B8B5
Accurately ripped (confidence 1) [6E3F6703] (AR v2)
Copy OK

Track 2

Filename D:\rip\Edward Gardner - Grieg - Piano Concerto; Incidental Music to 'Peer Gynt' (2018) [CD FLAC]\02 - Peer Gynt, Op. 23 No. 3a, Halling.wav

Peak level 10.1 %
Extraction speed 0.8 X
Track quality 100.0 %
Test CRC 47B081DC
Copy CRC 47B081DC
Accurately ripped (confidence 1) [1929D4DC] (AR v2)
Copy OK

Track 3

Filename D:\rip\Edward Gardner - Grieg - Piano Concerto; Incidental Music to 'Peer Gynt' (2018) [CD FLAC]\03 - Peer Gynt, Op. 23 No. 3b, Springar.wav

Peak level 8.1 %
Extraction speed 1.0 X
Track quality 100.0 %
Test CRC 146221BA
Copy CRC 146221BA
Accurately ripped (confidence 1) [48D806F2] (AR v2)
Copy OK

Track 4

Filename D:\rip\Edward Gardner - Grieg - Piano Concerto; Incidental Music to 'Peer Gynt' (2018) [CD FLAC]\04 - Peer Gynt, Op. 23 No. 4, Prelude. Bruderovet-Ingrids klage.wav

Peak level 81.2 %
Extraction speed 1.4 X
Track quality 100.0 %
Test CRC EBC2B483
Copy CRC EBC2B483
Accurately ripped (confidence 1) [3767E7EB] (AR v2)
Copy OK

Track 5

Filename D:\rip\Edward Gardner - Grieg - Piano Concerto; Incidental Music to 'Peer Gynt' (2018) [CD FLAC]\05 - Peer Gynt, Op. 23 No. 5, Peer Gynt og seterjentene.wav

Peak level 91.1 %
Extraction speed 1.4 X
Track quality 100.0 %
Test CRC CB26F3FA
Copy CRC CB26F3FA
Accurately ripped (confidence 1) [A3979A8E] (AR v2)
Copy OK

Track 6

Filename D:\rip\Edward Gardner - Grieg - Piano Concerto; Incidental Music to 'Peer Gynt' (2018) [CD FLAC]\06 - Peer Gynt, Op. 23 No. 8, I Dovregubbens hall.wav

Peak level 94.3 %
Extraction speed 1.4 X
Track quality 100.0 %
Test CRC 74703718
Copy CRC 74703718
Accurately ripped (confidence 1) [7193B2AD] (AR v2)
Copy OK

Track 7

Filename D:\rip\Edward Gardner - Grieg - Piano Concerto; Incidental Music to 'Peer Gynt' (2018) [CD FLAC]\07 - Peer Gynt, Op. 23 No. 9, Dans av Dovregubbens datter.wav

Peak level 88.1 %
Extraction speed 1.1 X
Track quality 99.9 %
Test CRC AB6082D6
Copy CRC AB6082D6
Accurately ripped (confidence 1) [E2F6661C] (AR v2)
Copy OK

Track 8

Filename D:\rip\Edward Gardner - Grieg - Piano Concerto; Incidental Music to 'Peer Gynt' (2018) [CD FLAC]\08 - Peer Gynt, Op. 23 No. 14, Åses død.wav

Peak level 25.6 %
Extraction speed 1.6 X
Track quality 100.0 %
Test CRC 3903EF90
Copy CRC 3903EF90
Accurately ripped (confidence 1) [1C65A75F] (AR v2)
Copy OK

Track 9

Filename D:\rip\Edward Gardner - Grieg - Piano Concerto; Incidental Music to 'Peer Gynt' (2018) [CD FLAC]\09 - Peer Gynt, Op. 23 No. 15, Prelude. Morgenstemning.wav

Peak level 48.8 %
Extraction speed 1.7 X
Track quality 100.0 %
Test CRC 8E4272F6
Copy CRC 8E4272F6
Accurately ripped (confidence 1) [10F25332] (AR v2)
Copy OK

Track 10

Filename D:\rip\Edward Gardner - Grieg - Piano Concerto; Incidental Music to 'Peer Gynt' (2018) [CD FLAC]\10 - Peer Gynt, Op. 23 No. 17, Arabisk dans.wav

Peak level 74.8 %
Extraction speed 1.8 X
Track quality 100.0 %
Test CRC 1B792322
Copy CRC 1B792322
Accurately ripped (confidence 1) [1F397E54] (AR v2)
Copy OK

Track 11

Filename D:\rip\Edward Gardner - Grieg - Piano Concerto; Incidental Music to 'Peer Gynt' (2018) [CD FLAC]\11 - Peer Gynt, Op. 23 No. 18, Anitras dans.wav

Peak level 21.3 %
Extraction speed 1.9 X
Track quality 100.0 %
Test CRC 098B4C48
Copy CRC 098B4C48
Accurately ripped (confidence 1) [3F82535E] (AR v2)
Copy OK

Track 12

Filename D:\rip\Edward Gardner - Grieg - Piano Concerto; Incidental Music to 'Peer Gynt' (2018) [CD FLAC]\12 - Peer Gynt, Op. 23 No. 19, Peer Gynts serenade.wav

Peak level 44.4 %
Extraction speed 1.8 X
Track quality 100.0 %
Test CRC 208D1E07
Copy CRC 208D1E07
Accurately ripped (confidence 1) [931BDB44] (AR v2)
Copy OK

Track 13

Filename D:\rip\Edward Gardner - Grieg - Piano Concerto; Incidental Music to 'Peer Gynt' (2018) [CD FLAC]\13 - Peer Gynt, Op. 23 No. 21, Solveigs sang.wav

Peak level 40.1 %
Extraction speed 1.9 X
Track quality 99.9 %
Test CRC C12E149A
Copy CRC C12E149A
Accurately ripped (confidence 1) [94D5BF1B] (AR v2)
Copy OK

Track 14

Filename D:\rip\Edward Gardner - Grieg - Piano Concerto; Incidental Music to 'Peer Gynt' (2018) [CD FLAC]\14 - Peer Gynt, Op. 23 No. 23, Prelude. Peer Gynts hjemfart. Stormfull aften på havet.wav

Peak level 83.6 %
Extraction speed 1.8 X
Track quality 100.0 %
Test CRC 19A91E60
Copy CRC 19A91E60
Accurately ripped (confidence 1) [A011FF90] (AR v2)
Copy OK

Track 15

Filename D:\rip\Edward Gardner - Grieg - Piano Concerto; Incidental Music to 'Peer Gynt' (2018) [CD FLAC]\15 - Peer Gynt, Op. 23 No. 27, Pinsesalme. Velsignede morgen.wav

Peak level 33.7 %
Extraction speed 1.6 X
Track quality 100.0 %
Test CRC D71DC5AD
Copy CRC D71DC5AD
Accurately ripped (confidence 1) [3E215555] (AR v2)
Copy OK

Track 16

Filename D:\rip\Edward Gardner - Grieg - Piano Concerto; Incidental Music to 'Peer Gynt' (2018) [CD FLAC]\16 - Peer Gynt, Op. 23 No. 28, Solveigs vuggevise.wav

Peak level 46.1 %
Extraction speed 2.3 X
Track quality 100.0 %
Test CRC 73D10359
Copy CRC 73D10359
Accurately ripped (confidence 1) [537941F7] (AR v2)
Copy OK

Track 17

Filename D:\rip\Edward Gardner - Grieg - Piano Concerto; Incidental Music to 'Peer Gynt' (2018) [CD FLAC]\17 - Piano Concerto in A Minor, Op. 16 I. Allegro molto moderato.wav

Pre-gap length 0:00:08.46

Peak level 81.7 %
Extraction speed 2.5 X
Track quality 100.0 %
Test CRC 7357CFCE
Copy CRC 7357CFCE
Accurately ripped (confidence 1) [AADB4C43] (AR v2)
Copy OK

Track 18

Filename D:\rip\Edward Gardner - Grieg - Piano Concerto; Incidental Music to 'Peer Gynt' (2018) [CD FLAC]\18 - Piano Concerto in A Minor, Op. 16 II. Adagio.wav

Pre-gap length 0:00:04.13

Peak level 33.6 %
Extraction speed 2.5 X
Track quality 100.0 %
Test CRC F9240226
Copy CRC F9240226
Accurately ripped (confidence 1) [7798351C] (AR v2)
Copy OK

Track 19

Filename D:\rip\Edward Gardner - Grieg - Piano Concerto; Incidental Music to 'Peer Gynt' (2018) [CD FLAC]\19 - Piano Concerto in A Minor, Op. 16 III. Allegro moderato molto e marcato.flac.wav

Peak level 87.0 %
Extraction speed 2.6 X
Track quality 99.9 %
Test CRC 51B88980
Copy CRC 51B88980
Accurately ripped (confidence 1) [171D32A0] (AR v2)
Copy OK


All tracks accurately ripped

No errors occurred

End of status report

–– CUETools DB Plugin V2.1.6

[CTDB TOCID: kRZRJlPjy2JYg0ia0f5OPGqUCTo-] found
Submit result: Er is een time-out opgetreden voor de bewerking
Track | CTDB Status
1 | (8/8) Accurately ripped
2 | (8/8) Accurately ripped
3 | (8/8) Accurately ripped
4 | (8/8) Accurately ripped
5 | (8/8) Accurately ripped
6 | (8/8) Accurately ripped
7 | (8/8) Accurately ripped
8 | (8/8) Accurately ripped
9 | (8/8) Accurately ripped
10 | (8/8) Accurately ripped
11 | (8/8) Accurately ripped
12 | (8/8) Accurately ripped
13 | (8/8) Accurately ripped
14 | (8/8) Accurately ripped
15 | (8/8) Accurately ripped
16 | (8/8) Accurately ripped
17 | (8/8) Accurately ripped
18 | (8/8) Accurately ripped
19 | (8/8) Accurately ripped


==== Log checksum CFB35B8EE29BB7C8B6BC29062FD37293124E08EF120CCD9A5423F6987BB2244B ====

Thanks to the Original ripper jplaguna !