Tags
Language
Tags

Big Star - Complete Third (2016) {3CD Box Set Omnivore Recordings OVCD-192 rec 1974}

Posted By: ruskaval
Big Star - Complete Third (2016) {3CD Box Set Omnivore Recordings OVCD-192 rec 1974}

Big Star - Complete Third (2016) {3CD Box Set Omnivore Recordings OVCD-192 rec 1974}
EAC rip (secure mode) | FLAC (tracks)+CUE+LOG -> 1.28 Gb | MP3 @320 -> 485 Mb
Full Artwork @ 600 dpi (png) -> 562 Mb | 5% repair rar
© 1974, 2016 Ardent Music / Omnivore Recordings | OVCD-192
Rock / Contemporary Pop/Rock / Power Pop / Proto-Punk

By all rights, the album that came to be known as Big Star's Third should have been a disaster. It was written and recorded in 1975, when Alex Chilton's brilliant but tragically overlooked band had all but broken up. As Chilton pondered his next move, he was drinking and drugging at a furious pace while writing a handful of striking tunes that were often beautiful but also reflected his bitterness and frustration with his career (and the music business in general). Production of the album wasn't completed so much as it simply stopped, and none of the major figures involved ever decided on a proper sequence for the finished songs, or even a title. (The album was also known as Sister Lovers and Beale Street Green at various times.) And yet, Third has won a passionate and richly deserved cult following over the years, drawn in by the emotional roller coaster ride of the songs, informed by equal parts love, loss, rage, fear, hope, and defeat.
Big Star - Complete Third (2016) {3CD Box Set Omnivore Recordings OVCD-192 rec 1974}

The chaotic circumstances behind the making of Third is the stuff of legend, and Omnivore Recordings has delivered the definitive aural document on how it came to be with Complete Third, which gathers all the surviving elements from the sessions, from the first monophonic voice-and-guitar recording of "Like St. Joan" (later known as "Kanga Roo") to the 20 final tracks that became the basis of the various versions of the album. The first disc is primarily devoted to demos, and the clarity and focus of Chilton's solo performances are a fascinating contrast with the loopier feel of the later recordings with his session band. As the set makes its way through the recording sessions and rough mixes on disc two, it's clear that Chilton was the guiding light throughout, but he was very well served by his collaborators, especially producer Jim Dickinson, arranger Carl Marsh, and slide guitarist Lee Baker. While the tunes sometimes sound like they're on the verge of collapse on disc two, the final mixes on disc three (remastered and sounding better than ever) are stunning; from the wobbly baroque beauty of "Stroke It Noel" and the sweet nocturnal longing of "Blue Moon" to the bitterly dashed hopes of "Holocaust" and the wounded but impassioned defiance of "You Can't Have Me," the pieces hold together with remarkable strength despite the confusion of their creation. The liner notes from Bud Scoppa and the memories of a wealth of friends, participants, and admirers provide invaluable background on the making of Third and its long road from obscurity to classic status. And while some of the tracks suffer from irreparable anomalies, Adam Hill and Michael Graves have done heroic work with the audio for this set. Complete Third doesn't solve every mystery associated with this album – that task is all but impossible – but it's an outstanding, obsessive investigation into a singular work in the rock canon, and it amplifies the achievement of this damaged masterpiece.
Big Star - Complete Third (2016) {3CD Box Set Omnivore Recordings OVCD-192 rec 1974}

Big Star's never-completed third album is enshrined in a triple-disc box that contains all known recordings from the 1974 sessions and finally makes sense of all the chaos.

Big Star never completed their third album. In fact, it’s likely that the music collected on Omnivore’s triple-disc box set Complete Third was never intended to be a Big Star album. Alex Chilton maintained as late as 2007 that he and drummer Jody Stephens never considered these 1974 sessions a Big Star project, a testament supported by the fact that none of the tapes in Ardent Studios were labeled with name “Big Star.” Instead, they were credited to Alex Chilton alone, Alex & Jody, and Sister Lovers, a punning reference to the fact the pair were dating sisters at the time.

Sister Lovers also provided Rykodisc with a subtitle for these recordings when they issued Third/Sister Lovers on CD in 1992, marking the first time a label attempted to seriously piece the puzzle of Big Star Third together. Prior to that, the album came out under a variety of titles—3rd, The Third Album, Big Star’s 3rd: Sister Lovers, Sister Lovers (The Third Album), with the alleged provisional title *Beale Street Green *remaining the province of bootlegs—all bearing a different track listing, none of which mirrored the test pressing that was unsuccessfully shopped around to labels in 1975.

Reissue producer Cheryl Pawelski uses that test pressing as her lodestar on Complete Third, letting it form the foundation of the third disc of final mixes, serving as a culmination to the discs of demos and rough mixes that precede it. A good chunk of these tracks previously appeared on archival releases from Rhino, Big Beat/Ace and Omnivore, but 28 debut here. None of these unheard cuts would make much sense on their own release, but they provide crucial pieces of the narrative on a box set that attempts to make sense of sessions that the creators themselves don't quite understand.
Big Star - Complete Third (2016) {3CD Box Set Omnivore Recordings OVCD-192 rec 1974}

One thing all participants—Chilton and Stephens, producer Jim Dickinson, Ardent owner/producer/engineer John Fry—can agree upon is that no official version of Third exists. Dickinson attempted to piece it together for Rykodisc in 1992 but he freely admits that his vision differed from Chilton’s and once this period passed into history Chilton showed no interest in revisiting it. In the liner notes to Complete Third, Ken Stringfellow—the Posies guitarist who was instrumental in ushering the reunited Big Star into the ’90s and 2000s—recalls a time when he and his partner Jon Auer cajoled Chilton to attempt “Kizza Me” at a latter-day reunion show. Once the band kicked off the song at sound check, Alex stood still as a statue, refusing to lay hands on his guitar or sing. By that point Chilton was finished with Third. But as Chris Stamey— a co-leader of the dB’s who helped maintained the Big Star legend in the ’70s as Stringfellow did in the ’90s—notes elsewhere in the liners, there was a time when these were among his “newest and dearest” tunes.

Those early demos on the first disc do indeed carry traces of sweetness, particularly in the delicate readings of “Lovely Day,” “Thank You Friends,” “Take Care,” “Jesus Christ,” and “Blue Moon,” all sounding like natural extensions of the folk tunes scattered through the first two Big Star albums, not to mention some of the material Chilton attempted just after leaving the Box Tops. Even the album’s towering triptych of gloom—“Holocaust,” “Nightime,” and “Kanga Roo” (entitled “Like St. Joan” in its first incarnation)—feel brokenhearted rather than desolate. So what happened between these initial readings and the final mixes, which often feel like a fever dream from a man embracing madness?

Again, nobody knows for sure, but everybody orbiting Ardent in the mid-’70s agree Chilton was hell bent on self-immolation, bitter at the industry, angry at himself, and involved in a destructive relationship with Lesa Aldridge, his girlfriend and muse who co-wrote “Downs,” an improbably chipper valentine to quaaludes. Jim Dickinson could always spin a yarn, and he invented a tale for Third, determining that the album was all about decomposition—a decay that began with the unraveling of Big Star, spread through the dissolution of the golden age of Memphis music, then taking root at the breakdown of Chilton himself. It’s a good story, one that’s likely true on some level, but it’s also a bit pat, the kind of thing that a producer invents: he’s cobbling together a narrative out of what seems to be a mess.

*Complete Third *presents that purported mess as a whole, offering every known existing recording from the sessions, and, in doing so, it suggests the sessions weren’t quite as chaotic as lore suggests. Certainly, the demos show that Chilton’s songs were fully formed at the start, so it was a deliberate decision on his part to record the songs just as Jody Stephens was learning them. Ardent producer/engineer Adam Hill supports this theory: “While the lack of pre-production contributed to the loose feel of the songs, there’s no doubt that Alex was chasing sounds he heard in his head, and he knew when had captured them on tape.” If Chilton was deadset in chasing chaos, Dickinson was his ideal partner. Where John Fry favored precision—fitting for an engineer who ran a studio—Dickinson preferred to let things careen out of control, either because he knew magic came with mistakes or because he couldn't resist mischief.

Big Star - Complete Third (2016) {3CD Box Set Omnivore Recordings OVCD-192 rec 1974}


Once Dickinson enters the picture, somewhere around the tail end of the first disc after the initial demos were completed, things start to get weird and heavy. The pivot is a pair of duets between Alex Chilton and Lesa Aldridge, where the pair turn the Beatles’ “I’m So Tired” into a narcotic crawl and pretend to be Gram Parsons and Emmylou Harris on “That’s All It Took.” From there, the madness has settled in, so it's no surprise that they stumble through T. Rex’s “Baby Strange” or spend five minutes dicking around on guitar and steel drums dubbed “Pre-Downs”—an indication that the innocence of the initial demos had now curdled.

The second disc documents how the sessions started to congeal, the beauty and the bleakness sometimes existing on the same plane, sometimes separating into their own spheres. If there are no great revelations here—the closest is a version of the Velvet Underground’s “After Hours” sung by Lesa, one of many Lou Reed allusions here (another is Alex quoting “Perfect Day” at the start of “I’m So Tired”)—it nevertheless gives an idea of the vibe of the recordings, how it was pitched halfway between madness and intention. Comparing the first disc of Complete Third to the second, and it’s clear that Chilton wanted to create the illusion that everything was spinning out of control.

Perhaps Chilton succeeded too well, muddying the barrier between the act and the art. After a while, John Fry pulled the plug. He reached his breaking point when Alex pulled in a drunk off the street to sing on a soused version of Jerry Lee Lewis’ “Whole Lotta Shakin’ Goin’ On.” Fry claimed later that the sessions turned “perverted,” which might be a reference to run-of-the-mill late-night seediness but might have a deeper meaning: Third perverted the ideals Fry held for Ardent. When he opened the studio, he allowed the British Invasion mavens of Memphis to hone their craft after hours at a cut rate. It’s how Chilton and collaborator Chris Bell developed the crystalline power pop of #1 Record and *Radio City—*these largely were songs invented in the studio and executed by Fry—and such late night sessions are also how Third came to be, except they came out curdled instead of clear.

Fry shopped the album to labels in 1975 in the hopes of recouping some of the money poured into the project. Nobody bit. Lenny Waronker at Warner asked, “I don’t have to listen to that again, do I?” Over at Atlantic, Jerry Wexler claimed “This record makes me feel very uncomfortable.”

Wexler was onto something. The bleakest moments of Third remain unsettling, capable of causing existential shivers on a bright, sunny day. Creeping along with no seeming sense of momentum, “Holocaust” and “Kanga Roo” have an inexorable pull—listening to them is like being pulled out to sea on an inescapable undercurrent, utterly impossible to navigate your way back to shore. When paired with the carnivalesque flourish of “Jesus Christ,” the homespun baroque pop of “Stroke It Noel,” the explosive carnality of “Kizza Me” and the woozy sway of “O, Dana,” Third can’t help but suggest that Alex Chilton was losing his grip. The primary gift of Complete Third is to reveal that this was a deliberate performance, not audio verite. Perhaps Third was, as Jim Dickinson claimed, the sound of decomposition. But by presenting the demos, working sessions and final mixes in order, *Complete Third *makes plain that far from being an unwieldy jumble, Alex Chilton meant to have Third sound as tortured, haunting and beautiful as the darkest moments of the soul.
Big Star - Complete Third (2016) {3CD Box Set Omnivore Recordings OVCD-192 rec 1974}


omnivorerecordings.com INFO

Track Listings

Disc: 1 - Demos To Sessions To Roughs


1. Like St. Joan (Kanga Roo) [Demo]
2. Lovely Day (Demo)
3. Downs (Demo)
4. Femme Fatale (Demo)
5. Thank You Friends (Demo)
6. Holocaust (Demo)
7. Jesus Christ (Demo)
8. Blue Moon (Demo)
9. Nightime (Demo)
10. Take Care (Demo)
11. Big Black Car (Demo #2) [Acoustic Take 1]
12. Don't Worry Baby
13. I'm In Love With A Girl
14. Big Black Car (Demo #3) [Acoustic Take 2]
15. I'm So Tired - Alex & Lesa
16. That's All It Took - Alex & Lesa
17. Pre-Downs
18. Baby Strange
19. Big Black Car (Demo #1) [Band]
20. Kizza Me (Dickinson Rough Mix) [Alex Guide Vocal]
21. Till The End Of The Day (Dickinson Rough Mix) [Alex Guide Vocal]
22. Thank You Friends (Dickinson Rough Mix) [Alex Guide Vocal]
23. O, Dana (Dickinson Rough Mix)
24. Dream Lover (Dickinson Rough Mix)

Big Star - Complete Third (2016) {3CD Box Set Omnivore Recordings OVCD-192 rec 1974}


Disc: 2 - Roughs To Mixes

1. Big Black Car (Dickinson Rough Mix) [Alex Guide Vocal]
2. Whole Lotta Shakin' Goin' On (Dickinson Rough Mix)
3. Take Care (Dickinson Rough Mix)
4. Holocaust (Dickinson Rough Mix)
5. Nightime (Dickinson Rough Mix)
6. Thank You Friends (Dickinson Rough Mix)
7. Nature Boy (Dickinson Rough Mix)
8. After Hours - Lesa
9. Stroke It Noel (Backward Intro)
10. Lovely Day (Fry Rough Mix)
11. Nightime (Fry Rough Mix)
12. Blue Moon (Fry Rough Mix)
13. Till The End Of The Day (Alternate Mix #1)
14. Big Black Car (Rough Mix)
15. Holocaust (Rough Mix)
16. Downs (Fry Rough Mix)
17. Kanga Roo (Fry Rough Mix)
18. Femme Fatale (Fry Rough Mix)
19. For You (Alternate Version) [Alex Vocal]
20. Thank You Friends (Fry Rough Mix)
21. Take Care (Alternate Version) [Alex Vocal]
22. Kizza Me (Fry Rough Mix)
23. Till The End Of The Day (Fry Rough Mix #2) [Lesa Vocals] - Lesa
24. Nature Boy (Fry Rough Mix)
25. Manana

Big Star - Complete Third (2016) {3CD Box Set Omnivore Recordings OVCD-192 rec 1974}


Disc: 3 - Final Masters

1. Stroke It Noel
2. Downs
3. Femme Fatale
4. Thank You Friends
5. Holocaust
6. Jesus Christ
7. Blue Moon
8. Kizza Me
9. For You
10. O, Dana
11. Nightime
12. Whole Lotta Shakin' Goin' On
13. Kanga Roo
14. Take Care
15. Big Black Car
16. Dream Lover
17. You Can't Have Me
18. Till The End Of The Day
19. Lovely Day
20. Nature Boy
21. Thank You Friends (New Remix,Vocals & Strings)

Big Star - Complete Third (2016) {3CD Box Set Omnivore Recordings OVCD-192 rec 1974}


Exact Audio Copy V1.0 beta 3 from 29. August 2011

EAC extraction logfile from 25. December 2016, 11:25

Big Star / Complete Third (Disc One)

Used drive : HL-DT-STDVDRAM GH41N Adapter: 1 ID: 1

Read mode : Secure
Utilize accurate stream : Yes
Defeat audio cache : Yes
Make use of C2 pointers : No

Read offset correction : 667
Overread into Lead-In and Lead-Out : No
Fill up missing offset samples with silence : Yes
Delete leading and trailing silent blocks : No
Null samples used in CRC calculations : Yes
Used interface : Native Win32 interface for Win NT & 2000
Gap handling : Appended to previous track

Used output format : User Defined Encoder
Selected bitrate : 128 kBit/s
Quality : High
Add ID3 tag : No
Command line compressor : C:\Program Files (x86)\Exact Audio Copy\FLAC\FLAC.EXE
Additional command line options : -8 -V -T "ARTIST=%artist%" -T "TITLE=%title%" -T "ALBUM=%albumtitle%" -T "DATE=%year%" -T "TRACKNUMBER=%tracknr%" -T "TOTALTRACKS=%numtracks%" -T "GENRE=%genre%" -T "ALBUMARTIST=%albumartist%" -T "ALBUM ARTIST=%albumartist%" -T "COMMENT=EAC Secure Mode, Test & Copy, AccurateRip, FLAC -8" %source%


TOC of the extracted CD

Track | Start | Length | Start sector | End sector
––––––––––––––––––––––––––––-
1 | 0:00.00 | 3:46.37 | 0 | 16986
2 | 3:46.37 | 1:54.33 | 16987 | 25569
3 | 5:40.70 | 1:27.66 | 25570 | 32160
4 | 7:08.61 | 2:53.27 | 32161 | 45162
5 | 10:02.13 | 2:47.71 | 45163 | 57758
6 | 12:50.09 | 3:37.47 | 57759 | 74080
7 | 16:27.56 | 2:30.26 | 74081 | 85356
8 | 18:58.07 | 2:09.70 | 85357 | 95101
9 | 21:08.02 | 2:14.64 | 95102 | 105215
10 | 23:22.66 | 1:37.04 | 105216 | 112494
11 | 24:59.70 | 4:41.71 | 112495 | 133640
12 | 29:41.66 | 3:35.70 | 133641 | 149835
13 | 33:17.61 | 2:14.58 | 149836 | 159943
14 | 35:32.44 | 4:41.18 | 159944 | 181036
15 | 40:13.62 | 3:18.60 | 181037 | 195946
16 | 43:32.47 | 3:04.73 | 195947 | 209819
17 | 46:37.45 | 5:27.29 | 209820 | 234373
18 | 52:04.74 | 2:53.63 | 234374 | 247411
19 | 54:58.62 | 6:08.36 | 247412 | 275047
20 | 61:07.23 | 2:43.14 | 275048 | 287286
21 | 63:50.37 | 2:18.58 | 287287 | 297694
22 | 66:09.20 | 3:13.47 | 297695 | 312216
23 | 69:22.67 | 2:36.47 | 312217 | 323963
24 | 71:59.39 | 3:53.53 | 323964 | 341491


Track 1

Filename C:\CDs\Big Star - Complete Third (2016) [FLAC] {OVCD-192}\Disc 1\01 - Big Star - Like St. Joan (Kanga Roo) (Demo).wav

Pre-gap length 0:00:02.00

Peak level 94.4 %
Extraction speed 1.1 X
Track quality 100.0 %
Test CRC F4889353
Copy CRC F4889353
Accurately ripped (confidence 4) [C141948F] (AR v2)
Copy OK

Track 2

Filename C:\CDs\Big Star - Complete Third (2016) [FLAC] {OVCD-192}\Disc 1\02 - Big Star - Lovely Day (Demo).wav

Peak level 94.4 %
Extraction speed 1.0 X
Track quality 100.0 %
Test CRC FAB5BD76
Copy CRC FAB5BD76
Accurately ripped (confidence 4) [90C9ECDD] (AR v2)
Copy OK

Track 3

Filename C:\CDs\Big Star - Complete Third (2016) [FLAC] {OVCD-192}\Disc 1\03 - Big Star - Downs (Demo).wav

Peak level 77.3 %
Extraction speed 0.9 X
Track quality 100.0 %
Test CRC 9247F3E6
Copy CRC 9247F3E6
Accurately ripped (confidence 4) [F176AFEF] (AR v2)
Copy OK

Track 4

Filename C:\CDs\Big Star - Complete Third (2016) [FLAC] {OVCD-192}\Disc 1\04 - Big Star - Femme Fatale (Demo).wav

Peak level 94.4 %
Extraction speed 1.2 X
Track quality 100.0 %
Test CRC 5C2E0EB0
Copy CRC 5C2E0EB0
Accurately ripped (confidence 4) [79656FD7] (AR v2)
Copy OK

Track 5

Filename C:\CDs\Big Star - Complete Third (2016) [FLAC] {OVCD-192}\Disc 1\05 - Big Star - Thank You Friends (Demo).wav

Peak level 94.4 %
Extraction speed 1.0 X
Track quality 99.9 %
Test CRC CBD022CD
Copy CRC CBD022CD
Accurately ripped (confidence 4) [A88BF952] (AR v2)
Copy OK

Track 6

Filename C:\CDs\Big Star - Complete Third (2016) [FLAC] {OVCD-192}\Disc 1\06 - Big Star - Holocaust (Demo).wav

Peak level 94.4 %
Extraction speed 1.4 X
Track quality 100.0 %
Test CRC C519C42E
Copy CRC C519C42E
Accurately ripped (confidence 4) [6BBDD65B] (AR v2)
Copy OK

Track 7

Filename C:\CDs\Big Star - Complete Third (2016) [FLAC] {OVCD-192}\Disc 1\07 - Big Star - Jesus Christ (Demo).wav

Peak level 94.4 %
Extraction speed 1.3 X
Track quality 100.0 %
Test CRC 15EE8012
Copy CRC 15EE8012
Accurately ripped (confidence 4) [85A92273] (AR v2)
Copy OK

Track 8

Filename C:\CDs\Big Star - Complete Third (2016) [FLAC] {OVCD-192}\Disc 1\08 - Big Star - Blue Moon (Demo).wav

Peak level 94.4 %
Extraction speed 1.4 X
Track quality 100.0 %
Test CRC 17DDCDA6
Copy CRC 17DDCDA6
Accurately ripped (confidence 4) [E4D1E32F] (AR v2)
Copy OK

Track 9

Filename C:\CDs\Big Star - Complete Third (2016) [FLAC] {OVCD-192}\Disc 1\09 - Big Star - Nightime (Demo).wav

Peak level 94.4 %
Extraction speed 1.4 X
Track quality 100.0 %
Test CRC C940C159
Copy CRC C940C159
Accurately ripped (confidence 4) [F3EFAF8B] (AR v2)
Copy OK

Track 10

Filename C:\CDs\Big Star - Complete Third (2016) [FLAC] {OVCD-192}\Disc 1\10 - Big Star - Take Care (Demo).wav

Peak level 94.4 %
Extraction speed 1.3 X
Track quality 100.0 %
Test CRC E328B34B
Copy CRC E328B34B
Accurately ripped (confidence 4) [08B70B26] (AR v2)
Copy OK

Track 11

Filename C:\CDs\Big Star - Complete Third (2016) [FLAC] {OVCD-192}\Disc 1\11 - Big Star - Big Black Car (Demo #2,Acoustic Take 1).wav

Peak level 94.4 %
Extraction speed 1.7 X
Track quality 100.0 %
Test CRC 495228C0
Copy CRC 495228C0
Accurately ripped (confidence 4) [9B633348] (AR v2)
Copy OK

Track 12

Filename C:\CDs\Big Star - Complete Third (2016) [FLAC] {OVCD-192}\Disc 1\12 - Big Star - Don't Worry Baby.wav

Peak level 94.4 %
Extraction speed 1.7 X
Track quality 100.0 %
Test CRC 9BD9F911
Copy CRC 9BD9F911
Accurately ripped (confidence 4) [A0D3A4B0] (AR v2)
Copy OK

Track 13

Filename C:\CDs\Big Star - Complete Third (2016) [FLAC] {OVCD-192}\Disc 1\13 - Big Star - I'm In Love With A Girl.wav

Peak level 86.7 %
Extraction speed 1.3 X
Track quality 99.9 %
Test CRC 51E5C050
Copy CRC 51E5C050
Accurately ripped (confidence 4) [3C98C7A8] (AR v2)
Copy OK

Track 14

Filename C:\CDs\Big Star - Complete Third (2016) [FLAC] {OVCD-192}\Disc 1\14 - Big Star - Big Black Car (Demo #3,Acoustic Take 2).wav

Peak level 94.4 %
Extraction speed 1.9 X
Track quality 100.0 %
Test CRC B2DE11DB
Copy CRC B2DE11DB
Accurately ripped (confidence 4) [0C5758BA] (AR v2)
Copy OK

Track 15

Filename C:\CDs\Big Star - Complete Third (2016) [FLAC] {OVCD-192}\Disc 1\15 - Alex & Lesa - I'm So Tired.wav

Peak level 77.6 %
Extraction speed 1.8 X
Track quality 100.0 %
Test CRC 63F1BC5F
Copy CRC 63F1BC5F
Accurately ripped (confidence 4) [648ADD04] (AR v2)
Copy OK

Track 16

Filename C:\CDs\Big Star - Complete Third (2016) [FLAC] {OVCD-192}\Disc 1\16 - Alex & Lesa - That's All It Took.wav

Peak level 94.4 %
Extraction speed 1.9 X
Track quality 100.0 %
Test CRC F75BC14D
Copy CRC F75BC14D
Accurately ripped (confidence 4) [6B62385D] (AR v2)
Copy OK

Track 17

Filename C:\CDs\Big Star - Complete Third (2016) [FLAC] {OVCD-192}\Disc 1\17 - Big Star - Pre-Downs.wav

Peak level 94.4 %
Extraction speed 2.2 X
Track quality 100.0 %
Test CRC EB4116E9
Copy CRC EB4116E9
Accurately ripped (confidence 4) [B40B4F37] (AR v2)
Copy OK

Track 18

Filename C:\CDs\Big Star - Complete Third (2016) [FLAC] {OVCD-192}\Disc 1\18 - Big Star - Baby Strange.wav

Peak level 94.4 %
Extraction speed 1.9 X
Track quality 100.0 %
Test CRC 41D58462
Copy CRC 41D58462
Accurately ripped (confidence 4) [D5022F52] (AR v2)
Copy OK

Track 19

Filename C:\CDs\Big Star - Complete Third (2016) [FLAC] {OVCD-192}\Disc 1\19 - Big Star - Big Black Car (Demo #1,Band).wav

Peak level 94.4 %
Extraction speed 2.1 X
Track quality 99.9 %
Test CRC EEF9F2F0
Copy CRC EEF9F2F0
Accurately ripped (confidence 4) [CAE7A9F4] (AR v2)
Copy OK

Track 20

Filename C:\CDs\Big Star - Complete Third (2016) [FLAC] {OVCD-192}\Disc 1\20 - Big Star - Kizza Me (Dickinson Rough Mix,Alex Guide Vocal).wav

Peak level 94.4 %
Extraction speed 2.1 X
Track quality 100.0 %
Test CRC 146DD512
Copy CRC 146DD512
Accurately ripped (confidence 4) [DE36BBD6] (AR v2)
Copy OK

Track 21

Filename C:\CDs\Big Star - Complete Third (2016) [FLAC] {OVCD-192}\Disc 1\21 - Big Star - Till The End Of The Day (Dickinson Rough Mix,Alex Guide Vocal).wav

Peak level 94.4 %
Extraction speed 1.7 X
Track quality 99.9 %
Test CRC 1D11FA12
Copy CRC 1D11FA12
Accurately ripped (confidence 4) [C5B88834] (AR v2)
Copy OK

Track 22

Filename C:\CDs\Big Star - Complete Third (2016) [FLAC] {OVCD-192}\Disc 1\22 - Big Star - Thank You Friends (Dickinson Rough Mix,Alex Guide Vocal).wav

Peak level 94.4 %
Extraction speed 2.3 X
Track quality 100.0 %
Test CRC F8BCD27F
Copy CRC F8BCD27F
Accurately ripped (confidence 4) [582255F1] (AR v2)
Copy OK

Track 23

Filename C:\CDs\Big Star - Complete Third (2016) [FLAC] {OVCD-192}\Disc 1\23 - Big Star - O, Dana (Dickinson Rough Mix).wav

Peak level 94.4 %
Extraction speed 2.1 X
Track quality 100.0 %
Test CRC 6F119C02
Copy CRC 6F119C02
Accurately ripped (confidence 4) [B532D664] (AR v2)
Copy OK

Track 24

Filename C:\CDs\Big Star - Complete Third (2016) [FLAC] {OVCD-192}\Disc 1\24 - Big Star - Dream Lover (Dickinson Rough Mix).wav

Peak level 94.4 %
Extraction speed 2.1 X
Track quality 99.9 %
Test CRC B8C4D3B7
Copy CRC B8C4D3B7
Accurately ripped (confidence 4) [BF03FBC1] (AR v2)
Copy OK


All tracks accurately ripped

No errors occurred

End of status report

==== Log checksum 549421D9F00520C27890CA2AF8D6096D75C95E102E182040B72DD677407A0DF8 ====




Exact Audio Copy V1.0 beta 3 from 29. August 2011

EAC extraction logfile from 25. December 2016, 15:08

Big Star / Complete Third (Disc Two)

Used drive : HL-DT-STDVDRAM GH41N Adapter: 1 ID: 1

Read mode : Secure
Utilize accurate stream : Yes
Defeat audio cache : Yes
Make use of C2 pointers : No

Read offset correction : 667
Overread into Lead-In and Lead-Out : No
Fill up missing offset samples with silence : Yes
Delete leading and trailing silent blocks : No
Null samples used in CRC calculations : Yes
Used interface : Native Win32 interface for Win NT & 2000
Gap handling : Appended to previous track

Used output format : User Defined Encoder
Selected bitrate : 128 kBit/s
Quality : High
Add ID3 tag : No
Command line compressor : C:\Program Files (x86)\Exact Audio Copy\FLAC\FLAC.EXE
Additional command line options : -8 -V -T "ARTIST=%artist%" -T "TITLE=%title%" -T "ALBUM=%albumtitle%" -T "DATE=%year%" -T "TRACKNUMBER=%tracknr%" -T "TOTALTRACKS=%numtracks%" -T "GENRE=%genre%" -T "ALBUMARTIST=%albumartist%" -T "ALBUM ARTIST=%albumartist%" -T "COMMENT=EAC Secure Mode, Test & Copy, AccurateRip, FLAC -8" %source%


TOC of the extracted CD

Track | Start | Length | Start sector | End sector
––––––––––––––––––––––––––––-
1 | 0:00.00 | 3:43.35 | 0 | 16759
2 | 3:43.35 | 3:30.01 | 16760 | 32510
3 | 7:13.36 | 3:00.26 | 32511 | 46036
4 | 10:13.62 | 3:53.21 | 46037 | 63532
5 | 14:07.08 | 2:05.73 | 63533 | 72980
6 | 16:13.06 | 3:12.54 | 72981 | 87434
7 | 19:25.60 | 2:31.48 | 87435 | 98807
8 | 21:57.33 | 2:10.56 | 98808 | 108613
9 | 24:08.14 | 0:25.74 | 108614 | 110562
10 | 24:34.13 | 2:09.03 | 110563 | 120240
11 | 26:43.16 | 2:52.21 | 120241 | 133161
12 | 29:35.37 | 2:09.26 | 133162 | 142862
13 | 31:44.63 | 2:15.04 | 142863 | 152991
14 | 33:59.67 | 3:42.21 | 152992 | 169662
15 | 37:42.13 | 4:13.62 | 169663 | 188699
16 | 41:56.00 | 1:52.44 | 188700 | 197143
17 | 43:48.44 | 3:51.35 | 197144 | 214503
18 | 47:40.04 | 3:44.63 | 214504 | 231366
19 | 51:24.67 | 2:27.70 | 231367 | 242461
20 | 53:52.62 | 3:14.01 | 242462 | 257012
21 | 57:06.63 | 2:41.70 | 257013 | 269157
22 | 59:48.58 | 2:46.58 | 269158 | 281665
23 | 62:35.41 | 2:22.51 | 281666 | 292366
24 | 64:58.17 | 2:45.50 | 292367 | 304791
25 | 67:43.67 | 0:49.09 | 304792 | 308475


Track 1

Filename C:\CDs\Big Star - Complete Third (2016) [FLAC] {OVCD-192}\Disc 2\01 - Big Star - Big Black Car (Dickinson Rough Mix,Alex Guide Vocal).wav

Pre-gap length 0:00:02.00

Peak level 94.4 %
Extraction speed 1.0 X
Track quality 100.0 %
Test CRC 66765DEC
Copy CRC 66765DEC
Accurately ripped (confidence 4) [973F199A] (AR v2)
Copy OK

Track 2

Filename C:\CDs\Big Star - Complete Third (2016) [FLAC] {OVCD-192}\Disc 2\02 - Big Star - Whole Lotta Shakin' Goin' On (Dickinson Rough Mix).wav

Peak level 94.4 %
Extraction speed 1.0 X
Track quality 100.0 %
Test CRC A3714BAF
Copy CRC A3714BAF
Accurately ripped (confidence 4) [4354CFF8] (AR v2)
Copy OK

Track 3

Filename C:\CDs\Big Star - Complete Third (2016) [FLAC] {OVCD-192}\Disc 2\03 - Big Star - Take Care (Dickinson Rough Mix).wav

Peak level 94.4 %
Extraction speed 1.1 X
Track quality 100.0 %
Test CRC A77BA5AE
Copy CRC A77BA5AE
Accurately ripped (confidence 4) [33A071D2] (AR v2)
Copy OK

Track 4

Filename C:\CDs\Big Star - Complete Third (2016) [FLAC] {OVCD-192}\Disc 2\04 - Big Star - Holocaust (Dickinson Rough Mix).wav

Peak level 94.4 %
Extraction speed 1.2 X
Track quality 100.0 %
Test CRC AB0892B2
Copy CRC AB0892B2
Accurately ripped (confidence 4) [EE25E630] (AR v2)
Copy OK

Track 5

Filename C:\CDs\Big Star - Complete Third (2016) [FLAC] {OVCD-192}\Disc 2\05 - Big Star - Nightime (Dickinson Rough Mix).wav

Peak level 94.4 %
Extraction speed 1.2 X
Track quality 100.0 %
Test CRC 5E3BEC09
Copy CRC 5E3BEC09
Accurately ripped (confidence 4) [B779A8A8] (AR v2)
Copy OK

Track 6

Filename C:\CDs\Big Star - Complete Third (2016) [FLAC] {OVCD-192}\Disc 2\06 - Big Star - Thank You Friends (Dickinson Rough Mix).wav

Peak level 94.4 %
Extraction speed 1.3 X
Track quality 100.0 %
Test CRC 3889318B
Copy CRC 3889318B
Accurately ripped (confidence 4) [6EE9582F] (AR v2)
Copy OK

Track 7

Filename C:\CDs\Big Star - Complete Third (2016) [FLAC] {OVCD-192}\Disc 2\07 - Big Star - Nature Boy (Dickinson Rough Mix).wav

Peak level 88.3 %
Extraction speed 1.3 X
Track quality 100.0 %
Test CRC 104196CE
Copy CRC 104196CE
Accurately ripped (confidence 4) [B3530FAA] (AR v2)
Copy OK

Track 8

Filename C:\CDs\Big Star - Complete Third (2016) [FLAC] {OVCD-192}\Disc 2\08 - Lesa Aldridge - After Hours.wav

Peak level 94.4 %
Extraction speed 1.3 X
Track quality 100.0 %
Test CRC 33A8945E
Copy CRC 33A8945E
Accurately ripped (confidence 4) [8C0AB493] (AR v2)
Copy OK

Track 9

Filename C:\CDs\Big Star - Complete Third (2016) [FLAC] {OVCD-192}\Disc 2\09 - Big Star - Stroke It Noel (Backward Intro).wav

Peak level 94.4 %
Extraction speed 0.7 X
Track quality 100.0 %
Test CRC E9BE93EA
Copy CRC E9BE93EA
Accurately ripped (confidence 4) [31ADA77E] (AR v2)
Copy OK

Track 10

Filename C:\CDs\Big Star - Complete Third (2016) [FLAC] {OVCD-192}\Disc 2\10 - Big Star - Lovely Day (Fry Rough Mix).wav

Peak level 94.4 %
Extraction speed 1.3 X
Track quality 100.0 %
Test CRC 6DB9E04A
Copy CRC 6DB9E04A
Accurately ripped (confidence 4) [1D62C0B7] (AR v2)
Copy OK

Track 11

Filename C:\CDs\Big Star - Complete Third (2016) [FLAC] {OVCD-192}\Disc 2\11 - Big Star - Nightime (Fry Rough Mix).wav

Peak level 91.1 %
Extraction speed 1.2 X
Track quality 99.9 %
Test CRC 3B24EAA6
Copy CRC 3B24EAA6
Accurately ripped (confidence 4) [06966353] (AR v2)
Copy OK

Track 12

Filename C:\CDs\Big Star - Complete Third (2016) [FLAC] {OVCD-192}\Disc 2\12 - Big Star - Blue Moon (Fry Rough Mix).wav

Peak level 94.4 %
Extraction speed 1.4 X
Track quality 100.0 %
Test CRC 9A1AA338
Copy CRC 9A1AA338
Accurately ripped (confidence 4) [405CD17D] (AR v2)
Copy OK

Track 13

Filename C:\CDs\Big Star - Complete Third (2016) [FLAC] {OVCD-192}\Disc 2\13 - Big Star - Till The End Of The Day (Alternate Mix #1).wav

Peak level 94.4 %
Extraction speed 1.4 X
Track quality 100.0 %
Test CRC 41BA503C
Copy CRC 41BA503C
Accurately ripped (confidence 4) [BAB8A7BE] (AR v2)
Copy OK

Track 14

Filename C:\CDs\Big Star - Complete Third (2016) [FLAC] {OVCD-192}\Disc 2\14 - Big Star - Big Black Car (Fry Rough Mix).wav

Peak level 94.4 %
Extraction speed 1.7 X
Track quality 100.0 %
Test CRC 07C323EE
Copy CRC 07C323EE
Accurately ripped (confidence 4) [AEB9EEE5] (AR v2)
Copy OK

Track 15

Filename C:\CDs\Big Star - Complete Third (2016) [FLAC] {OVCD-192}\Disc 2\15 - Big Star - Holocaust (Fry Alternate,Rough Mix).wav

Peak level 94.4 %
Extraction speed 1.8 X
Track quality 100.0 %
Test CRC E44AF3E7
Copy CRC E44AF3E7
Accurately ripped (confidence 4) [E51707E7] (AR v2)
Copy OK

Track 16

Filename C:\CDs\Big Star - Complete Third (2016) [FLAC] {OVCD-192}\Disc 2\16 - Big Star - Downs (Fry Rough Mix).wav

Peak level 94.4 %
Extraction speed 1.6 X
Track quality 100.0 %
Test CRC FE5C6DF8
Copy CRC FE5C6DF8
Accurately ripped (confidence 4) [8F52C272] (AR v2)
Copy OK

Track 17

Filename C:\CDs\Big Star - Complete Third (2016) [FLAC] {OVCD-192}\Disc 2\17 - Big Star - Kanga Roo (Fry Rough Mix).wav

Peak level 94.4 %
Extraction speed 1.9 X
Track quality 100.0 %
Test CRC 8C200764
Copy CRC 8C200764
Accurately ripped (confidence 4) [45CCD74A] (AR v2)
Copy OK

Track 18

Filename C:\CDs\Big Star - Complete Third (2016) [FLAC] {OVCD-192}\Disc 2\18 - Big Star - Femme Fatale (Fry Rough Mix).wav

Peak level 94.4 %
Extraction speed 1.9 X
Track quality 100.0 %
Test CRC CB833BF1
Copy CRC CB833BF1
Accurately ripped (confidence 4) [A907DAE4] (AR v2)
Copy OK

Track 19

Filename C:\CDs\Big Star - Complete Third (2016) [FLAC] {OVCD-192}\Disc 2\19 - Big Star - For You (Alex Vocal,Alternate Version).wav

Peak level 94.4 %
Extraction speed 1.8 X
Track quality 100.0 %
Test CRC CA934131
Copy CRC CA934131
Accurately ripped (confidence 4) [EC50D32B] (AR v2)
Copy OK

Track 20

Filename C:\CDs\Big Star - Complete Third (2016) [FLAC] {OVCD-192}\Disc 2\20 - Big Star - Thank You Friends (Fry Rough Mix).wav

Peak level 94.4 %
Extraction speed 2.0 X
Track quality 100.0 %
Test CRC 57DB3968
Copy CRC 57DB3968
Accurately ripped (confidence 4) [64CA1472] (AR v2)
Copy OK

Track 21

Filename C:\CDs\Big Star - Complete Third (2016) [FLAC] {OVCD-192}\Disc 2\21 - Big Star - Take Care (Fry Rough Mix).wav

Peak level 94.4 %
Extraction speed 1.9 X
Track quality 100.0 %
Test CRC A5A92BD1
Copy CRC A5A92BD1
Accurately ripped (confidence 4) [6EA4B76E] (AR v2)
Copy OK

Track 22

Filename C:\CDs\Big Star - Complete Third (2016) [FLAC] {OVCD-192}\Disc 2\22 - Big Star - Kizza Me (Fry Rough Mix).wav

Peak level 94.4 %
Extraction speed 2.0 X
Track quality 100.0 %
Test CRC A94A666E
Copy CRC A94A666E
Accurately ripped (confidence 4) [918AFE57] (AR v2)
Copy OK

Track 23

Filename C:\CDs\Big Star - Complete Third (2016) [FLAC] {OVCD-192}\Disc 2\23 - Lesa Aldridge - Till The End Of The Day (Fry Rough Mix #2,Lesa Vocals).wav

Peak level 94.4 %
Extraction speed 1.9 X
Track quality 100.0 %
Test CRC 695DD45A
Copy CRC 695DD45A
Accurately ripped (confidence 4) [3223CF47] (AR v2)
Copy OK

Track 24

Filename C:\CDs\Big Star - Complete Third (2016) [FLAC] {OVCD-192}\Disc 2\24 - Big Star - Nature Boy (Fry Rough Mix).wav

Peak level 89.1 %
Extraction speed 1.7 X
Track quality 99.9 %
Test CRC 204AF243
Copy CRC 204AF243
Accurately ripped (confidence 4) [0DAE195D] (AR v2)
Copy OK

Track 25

Filename C:\CDs\Big Star - Complete Third (2016) [FLAC] {OVCD-192}\Disc 2\25 - Big Star - Manana.wav

Peak level 89.2 %
Extraction speed 1.0 X
Track quality 99.7 %
Test CRC 568BA0BE
Copy CRC 568BA0BE
Accurately ripped (confidence 4) [BEB8009C] (AR v2)
Copy OK


All tracks accurately ripped

No errors occurred

End of status report

==== Log checksum 7FDDD100568A797A678D67D7863329960EDB43EA7780E5A98E4A6F21B99B6385 ====




Exact Audio Copy V1.3 from 2. September 2016

EAC extraction logfile from 25. December 2016, 22:52

Big Star / Complete Third (Disc Three)

Used drive : TSSTcorpDVDWBD SN-406AB Adapter: 1 ID: 0

Read mode : Secure
Utilize accurate stream : Yes
Defeat audio cache : Yes
Make use of C2 pointers : No

Read offset correction : 6
Overread into Lead-In and Lead-Out : No
Fill up missing offset samples with silence : Yes
Delete leading and trailing silent blocks : No
Null samples used in CRC calculations : Yes
Used interface : Native Win32 interface for Win NT & 2000
Gap handling : Appended to previous track

Used output format : User Defined Encoder
Selected bitrate : 128 kBit/s
Quality : High
Add ID3 tag : No
Command line compressor : C:\Program Files (x86)\Exact Audio Copy\FLAC\FLAC.EXE
Additional command line options : -8 -V -T "ARTIST=%artist%" -T "TITLE=%title%" -T "ALBUM=%albumtitle%" -T "DATE=%year%" -T "TRACKNUMBER=%tracknr%" -T "TOTALTRACKS=%numtracks%" -T "GENRE=%genre%" -T "ALBUMARTIST=%albumartist%" -T "ALBUM ARTIST=%albumartist%" -T "COMMENT=EAC Secure Mode, Test & Copy, AccurateRip, FLAC -8" %source%


TOC of the extracted CD

Track | Start | Length | Start sector | End sector
––––––––––––––––––––––––––––-
1 | 0:00.00 | 2:06.73 | 0 | 9522
2 | 2:06.73 | 1:50.13 | 9523 | 17785
3 | 3:57.11 | 3:30.66 | 17786 | 33601
4 | 7:28.02 | 3:07.42 | 33602 | 47668
5 | 10:35.44 | 3:50.72 | 47669 | 64990
6 | 14:26.41 | 2:39.33 | 64991 | 76948
7 | 17:05.74 | 2:07.29 | 76949 | 86502
8 | 19:13.28 | 2:43.37 | 86503 | 98764
9 | 21:56.65 | 2:44.48 | 98765 | 111112
10 | 24:41.38 | 2:34.40 | 111113 | 122702
11 | 27:16.03 | 2:52.61 | 122703 | 135663
12 | 30:08.64 | 3:23.68 | 135664 | 150956
13 | 33:32.57 | 3:48.47 | 150957 | 168103
14 | 37:21.29 | 2:48.29 | 168104 | 180732
15 | 40:09.58 | 3:37.67 | 180733 | 197074
16 | 43:47.50 | 3:35.35 | 197075 | 213234
17 | 47:23.10 | 3:17.64 | 213235 | 228073
18 | 50:40.74 | 2:14.24 | 228074 | 238147
19 | 52:55.23 | 2:09.20 | 238148 | 247842
20 | 55:04.43 | 2:39.46 | 247843 | 259813
21 | 57:44.14 | 3:03.58 | 259814 | 273596


Track 1

Filename C:\Users\Owner\Music\Big Star - Complete Third (2016) [FLAC] {OVCD-192}\Disc 3\01 - Stroke It Noel.wav

Pre-gap length 0:00:02.00

Peak level 94.4 %
Extraction speed 0.9 X
Track quality 100.0 %
Test CRC FD5954B2
Copy CRC FD5954B2
Accurately ripped (confidence 4) [9C1737E1] (AR v2)
Copy OK

Track 2

Filename C:\Users\Owner\Music\Big Star - Complete Third (2016) [FLAC] {OVCD-192}\Disc 3\02 - Downs.wav

Peak level 94.4 %
Extraction speed 1.0 X
Track quality 100.0 %
Test CRC 25514683
Copy CRC 25514683
Accurately ripped (confidence 4) [5092984F] (AR v2)
Copy OK

Track 3

Filename C:\Users\Owner\Music\Big Star - Complete Third (2016) [FLAC] {OVCD-192}\Disc 3\03 - Femme Fatale.wav

Peak level 94.4 %
Extraction speed 1.2 X
Track quality 100.0 %
Test CRC E723CCE0
Copy CRC E723CCE0
Accurately ripped (confidence 4) [AD7AE32F] (AR v2)
Copy OK

Track 4

Filename C:\Users\Owner\Music\Big Star - Complete Third (2016) [FLAC] {OVCD-192}\Disc 3\04 - Thank You Friends.wav

Peak level 94.4 %
Extraction speed 1.1 X
Track quality 99.9 %
Test CRC B5F9096B
Copy CRC B5F9096B
Accurately ripped (confidence 4) [37EFFBD6] (AR v2)
Copy OK

Track 5

Filename C:\Users\Owner\Music\Big Star - Complete Third (2016) [FLAC] {OVCD-192}\Disc 3\05 - Holocaust.wav

Peak level 91.0 %
Extraction speed 1.4 X
Track quality 100.0 %
Test CRC 7B84B245
Copy CRC 7B84B245
Accurately ripped (confidence 4) [95BA7B11] (AR v2)
Copy OK

Track 6

Filename C:\Users\Owner\Music\Big Star - Complete Third (2016) [FLAC] {OVCD-192}\Disc 3\06 - Jesus Christ.wav

Peak level 94.4 %
Extraction speed 1.4 X
Track quality 100.0 %
Test CRC C0045664
Copy CRC C0045664
Accurately ripped (confidence 4) [C7BD5FED] (AR v2)
Copy OK

Track 7

Filename C:\Users\Owner\Music\Big Star - Complete Third (2016) [FLAC] {OVCD-192}\Disc 3\07 - Blue Moon.wav

Peak level 94.4 %
Extraction speed 1.4 X
Track quality 100.0 %
Test CRC 452707C1
Copy CRC 452707C1
Accurately ripped (confidence 4) [B775A49F] (AR v2)
Copy OK

Track 8

Filename C:\Users\Owner\Music\Big Star - Complete Third (2016) [FLAC] {OVCD-192}\Disc 3\08 - Kizza Me.wav

Peak level 94.4 %
Extraction speed 1.5 X
Track quality 100.0 %
Test CRC 7424D759
Copy CRC 7424D759
Accurately ripped (confidence 4) [139FBA19] (AR v2)
Copy OK

Track 9

Filename C:\Users\Owner\Music\Big Star - Complete Third (2016) [FLAC] {OVCD-192}\Disc 3\09 - For You.wav

Peak level 94.4 %
Extraction speed 1.4 X
Track quality 99.9 %
Test CRC 6D28C2C3
Copy CRC 6D28C2C3
Accurately ripped (confidence 4) [C6D8639B] (AR v2)
Copy OK

Track 10

Filename C:\Users\Owner\Music\Big Star - Complete Third (2016) [FLAC] {OVCD-192}\Disc 3\10 - O, Dana.wav

Peak level 94.4 %
Extraction speed 1.6 X
Track quality 100.0 %
Test CRC 99442602
Copy CRC 99442602
Accurately ripped (confidence 4) [D140E56E] (AR v2)
Copy OK

Track 11

Filename C:\Users\Owner\Music\Big Star - Complete Third (2016) [FLAC] {OVCD-192}\Disc 3\11 - Nightime.wav

Peak level 94.3 %
Extraction speed 1.7 X
Track quality 100.0 %
Test CRC 47B5F844
Copy CRC 47B5F844
Accurately ripped (confidence 4) [AC78A4BA] (AR v2)
Copy OK

Track 12

Filename C:\Users\Owner\Music\Big Star - Complete Third (2016) [FLAC] {OVCD-192}\Disc 3\12 - Whole Lotta Shakin' Goin' On.wav

Peak level 94.4 %
Extraction speed 1.8 X
Track quality 100.0 %
Test CRC F45439E3
Copy CRC F45439E3
Accurately ripped (confidence 4) [E21BC9E5] (AR v2)
Copy OK

Track 13

Filename C:\Users\Owner\Music\Big Star - Complete Third (2016) [FLAC] {OVCD-192}\Disc 3\13 - Kanga Roo.wav

Peak level 94.4 %
Extraction speed 1.9 X
Track quality 100.0 %
Test CRC 0E62A1AD
Copy CRC 0E62A1AD
Accurately ripped (confidence 4) [7C3D5688] (AR v2)
Copy OK

Track 14

Filename C:\Users\Owner\Music\Big Star - Complete Third (2016) [FLAC] {OVCD-192}\Disc 3\14 - Take Care.wav

Peak level 94.4 %
Extraction speed 1.9 X
Track quality 100.0 %
Test CRC 4F924392
Copy CRC 4F924392
Accurately ripped (confidence 4) [9EC2493E] (AR v2)
Copy OK

Track 15

Filename C:\Users\Owner\Music\Big Star - Complete Third (2016) [FLAC] {OVCD-192}\Disc 3\15 - Big Black Car.wav

Peak level 94.4 %
Extraction speed 2.0 X
Track quality 100.0 %
Test CRC FC1D0DED
Copy CRC FC1D0DED
Accurately ripped (confidence 4) [204A3B01] (AR v2)
Copy OK

Track 16

Filename C:\Users\Owner\Music\Big Star - Complete Third (2016) [FLAC] {OVCD-192}\Disc 3\16 - Dream Lover.wav

Peak level 94.4 %
Extraction speed 1.8 X
Track quality 99.9 %
Test CRC D0D98A78
Copy CRC D0D98A78
Accurately ripped (confidence 4) [8F345A32] (AR v2)
Copy OK

Track 17

Filename C:\Users\Owner\Music\Big Star - Complete Third (2016) [FLAC] {OVCD-192}\Disc 3\17 - You Can't Have Me.wav

Peak level 94.4 %
Extraction speed 1.9 X
Track quality 99.9 %
Test CRC E578BE96
Copy CRC E578BE96
Accurately ripped (confidence 4) [D7A2F5A2] (AR v2)
Copy OK

Track 18

Filename C:\Users\Owner\Music\Big Star - Complete Third (2016) [FLAC] {OVCD-192}\Disc 3\18 - Till The End Of The Day.wav

Peak level 94.4 %
Extraction speed 2.0 X
Track quality 100.0 %
Test CRC A1C7B446
Copy CRC A1C7B446
Accurately ripped (confidence 4) [EBF77F45] (AR v2)
Copy OK

Track 19

Filename C:\Users\Owner\Music\Big Star - Complete Third (2016) [FLAC] {OVCD-192}\Disc 3\19 - Lovely Day.wav

Peak level 94.4 %
Extraction speed 2.0 X
Track quality 100.0 %
Test CRC 30B9AC6F
Copy CRC 30B9AC6F
Accurately ripped (confidence 4) [E31B6627] (AR v2)
Copy OK

Track 20

Filename C:\Users\Owner\Music\Big Star - Complete Third (2016) [FLAC] {OVCD-192}\Disc 3\20 - Nature Boy.wav

Peak level 94.4 %
Extraction speed 2.2 X
Track quality 100.0 %
Test CRC 305AF2BA
Copy CRC 305AF2BA
Accurately ripped (confidence 4) [14B0488A] (AR v2)
Copy OK

Track 21

Filename C:\Users\Owner\Music\Big Star - Complete Third (2016) [FLAC] {OVCD-192}\Disc 3\21 - Thank You Friends (New Remix,Vocals & Strings).wav

Peak level 85.7 %
Extraction speed 2.2 X
Track quality 100.0 %
Test CRC EFCAC23E
Copy CRC EFCAC23E
Accurately ripped (confidence 4) [C19E8D55] (AR v2)
Copy OK


All tracks accurately ripped

No errors occurred

End of status report

–– CUETools DB Plugin V2.1.6

[CTDB TOCID: wyWebCucwHRh.b_DJ2JxyPepC7I-] found
Submit result: wyWebCucwHRh.b_DJ2JxyPepC7I- has been confirmed
Track | CTDB Status
1 | (13/13) Accurately ripped
2 | (13/13) Accurately ripped
3 | (13/13) Accurately ripped
4 | (13/13) Accurately ripped
5 | (13/13) Accurately ripped
6 | (13/13) Accurately ripped
7 | (13/13) Accurately ripped
8 | (13/13) Accurately ripped
9 | (13/13) Accurately ripped
10 | (13/13) Accurately ripped
11 | (13/13) Accurately ripped
12 | (13/13) Accurately ripped
13 | (13/13) Accurately ripped
14 | (13/13) Accurately ripped
15 | (13/13) Accurately ripped
16 | (13/13) Accurately ripped
17 | (13/13) Accurately ripped
18 | (13/13) Accurately ripped
19 | (13/13) Accurately ripped
20 | (13/13) Accurately ripped
21 | (13/13) Accurately ripped


==== Log checksum F6418D03730F6DA610320325A9677B7CC00F7CFD056CDE24608F277F7920B608 ====


Big Star - Complete Third (2016) {3CD Box Set Omnivore Recordings OVCD-192 rec 1974}



===