Tags
Language
Tags

Bill Monroe - The Best of Bill Monroe - 20th Century Masters: The Millennium Collection (1999)

Posted By: delpotro
Bill Monroe - The Best of Bill Monroe - 20th Century Masters: The Millennium Collection (1999)

Bill Monroe - The Best of Bill Monroe - 20th Century Masters: The Millennium Collection (1999)
XLD Rip | FLAC (tracks+log+.cue) - 169 Mb | MP3 CBR 320 kbps - 70 Mb | 00:30:29
Folk, Country, Bluegrass | Label: MCA Nashville Records

Original 1950s Decca recordings by the Father of Bluegrass (including eight of his most famous songs), plus a 1984 duet with Ricky Skaggs.

AllMusic Review by Stephen Thomas Erlewine
MCA's 20th Century Masters: The Millennium Collection is a good, basic collection of many of the best-known recordings of Bill Monroe's best-known songs, including "Blue Moon of Kentucky," "In the Pines," "New Mule Skinner Blues," "Uncle Pen," "I'm Sitting on Top of the World," "I Saw the Light," and "My Sweet Blue-Eyed Darlin'." These may not be his most historically important recordings, and undeniably there are some classic songs missing, but this should satisfy casual listeners on a tight budget.
Tracklist:
1. Bill Monroe and His Bluegrass Boys – Blue Moon of Kentucky (02:07)
2. Bill Monroe and His Bluegrass Boys – Footprints In the Snow (02:40)
3. Bill Monroe and His Bluegrass Boys – New Mule Skinner Blues (02:30)
4. Bill Monroe and His Bluegrass Boys – Uncle Pen (02:44)
5. Bill Monroe and His Bluegrass Boys – In the Pines (03:11)
6. Bill Monroe and His Bluegrass Boys – I'm Working On a Building (1954 Version) (02:44)
7. Bill Monroe and His Bluegrass Boys – Gotta Travel On (02:33)
8. Bill Monroe and His Bluegrass Boys – Scotland (Instrumental) (01:54)
9. Bill Monroe and His Bluegrass Boys – Molly & Tenbrooks (1957 Single Version) (02:22)
10. Bill Monroe and His Bluegrass Boys – I'm Sitting On Top of the World (Single Version) (02:18)
11. Bill Monroe – I Saw the Light (02:29)
12. Bill Monroe – My Sweet Blue Eyed Darlin' (feat. Ricky Skaggs) (02:51)

X Lossless Decoder version 20181019 (151.1)

XLD extraction logfile from 2018-11-14 19:09:31 -0800

Bill Monroe / The Best of Bill Monroe

Used drive : PIONEER BD-RW BDR-XD05 (revision 3.10)
Media type : Pressed CD

Ripper mode : XLD Secure Ripper
Disable audio cache : OK for the drive with a cache less than 1375KiB
Make use of C2 pointers : NO
Read offset correction : 667
Max retry count : 100
Gap status : Analyzed, Appended (except HTOA)

TOC of the extracted CD
Track | Start | Length | Start sector | End sector
––––––––––––––––––––––––––––-
1 | 00:00:00 | 02:07:15 | 0 | 9539
2 | 02:07:15 | 02:40:35 | 9540 | 21574
3 | 04:47:50 | 02:30:42 | 21575 | 32866
4 | 07:18:17 | 02:44:68 | 32867 | 45234
5 | 10:03:10 | 03:11:25 | 45235 | 59584
6 | 13:14:35 | 02:44:47 | 59585 | 71931
7 | 15:59:07 | 02:33:73 | 71932 | 83479
8 | 18:33:05 | 01:54:15 | 83480 | 92044
9 | 20:27:20 | 02:22:12 | 92045 | 102706
10 | 22:49:32 | 02:18:68 | 102707 | 113124
11 | 25:08:25 | 02:29:45 | 113125 | 124344
12 | 27:37:70 | 02:51:22 | 124345 | 137191

List of alternate offset correction values
# | Absolute | Relative | Confidence
–––––––––––––––––––––
1 | 1341 | 674 | 21

AccurateRip Summary (DiscID: 000da2bc-007f58d1-9807250c)
Track 01 : OK (v1+v2, confidence 21/25, with different offset)
Track 02 : OK (v1+v2, confidence 21/25, with different offset)
Track 03 : OK (v1+v2, confidence 21/25, with different offset)
Track 04 : OK (v1+v2, confidence 21/25, with different offset)
Track 05 : OK (v1+v2, confidence 21/25, with different offset)
Track 06 : OK (v1+v2, confidence 21/25, with different offset)
Track 07 : OK (v1+v2, confidence 21/25, with different offset)
Track 08 : OK (v1+v2, confidence 21/25, with different offset)
Track 09 : OK (v1+v2, confidence 21/25, with different offset)
Track 10 : OK (v1+v2, confidence 20/24, with different offset)
Track 11 : OK (v1+v2, confidence 21/25, with different offset)
Track 12 : OK (v1+v2, confidence 21/25, with different offset)
->All tracks accurately ripped.

All Tracks
Album gain : -1.98 dB
Peak : 0.970856
Statistics
Read error : 0
Jitter error (maybe fixed) : 0
Retry sector count : 0
Damaged sector count : 0

Track 01
Filename : /Volumes/Hollywood and Vine/Rips/Bill Monroe - The Best of Bill Monroe (1999) [FLAC]/01 Blue Moon of Kentucky.flac
Pre-gap length : 00:02:00

Track gain : -2.20 dB
Peak : 0.740967
CRC32 hash (test run) : 59F66B28
CRC32 hash : 59F66B28
CRC32 hash (skip zero) : 32A93B91
AccurateRip v1 signature : C1BB0816 (DBCF64D6 w/correction)
AccurateRip v2 signature : E8051A93 (90C76BAD w/correction)
->Accurately ripped with different offset (v1+v2, confidence 12+9/25, offset +674)
Statistics
Read error : 0
Jitter error (maybe fixed) : 0
Retry sector count : 0
Damaged sector count : 0

Track 02
Filename : /Volumes/Hollywood and Vine/Rips/Bill Monroe - The Best of Bill Monroe (1999) [FLAC]/02 Footprints in the Snow.flac
Pre-gap length : 00:01:43

Track gain : -1.30 dB
Peak : 0.630951
CRC32 hash (test run) : 544A5EE6
CRC32 hash : 544A5EE6
CRC32 hash (skip zero) : 2874FA37
AccurateRip v1 signature : 709E103C (1B6DFAC2 w/correction)
AccurateRip v2 signature : 8CCF4442 (A7C961F5 w/correction)
->Accurately ripped with different offset (v1+v2, confidence 12+9/25, offset +674)
Statistics
Read error : 0
Jitter error (maybe fixed) : 0
Retry sector count : 0
Damaged sector count : 0

Track 03
Filename : /Volumes/Hollywood and Vine/Rips/Bill Monroe - The Best of Bill Monroe (1999) [FLAC]/03 New Mule Skinner Blues.flac
Pre-gap length : 00:01:43

Track gain : -0.85 dB
Peak : 0.822205
CRC32 hash (test run) : D9CD1729
CRC32 hash : D9CD1729
CRC32 hash (skip zero) : EDD8ACF6
AccurateRip v1 signature : EF295E2D (39C4A96F w/correction)
AccurateRip v2 signature : 29F37693 (F3063ABD w/correction)
->Accurately ripped with different offset (v1+v2, confidence 12+9/25, offset +674)
Statistics
Read error : 0
Jitter error (maybe fixed) : 0
Retry sector count : 0
Damaged sector count : 0

Track 04
Filename : /Volumes/Hollywood and Vine/Rips/Bill Monroe - The Best of Bill Monroe (1999) [FLAC]/04 Uncle Pen.flac
Pre-gap length : 00:02:17

Track gain : 0.25 dB
Peak : 0.884613
CRC32 hash (test run) : 93B0AC19
CRC32 hash : 93B0AC19
CRC32 hash (skip zero) : 1F2048D5
AccurateRip v1 signature : 8A5331C8 (AA025172 w/correction)
AccurateRip v2 signature : 2B3ABA94 (BC96F6B9 w/correction)
->Accurately ripped with different offset (v1+v2, confidence 12+9/25, offset +674)
Statistics
Read error : 0
Jitter error (maybe fixed) : 0
Retry sector count : 0
Damaged sector count : 0

Track 05
Filename : /Volumes/Hollywood and Vine/Rips/Bill Monroe - The Best of Bill Monroe (1999) [FLAC]/05 In the Pines.flac
Pre-gap length : 00:02:18

Track gain : -1.50 dB
Peak : 0.562256
CRC32 hash (test run) : FA581B43
CRC32 hash : FA581B43
CRC32 hash (skip zero) : 9F9FC552
AccurateRip v1 signature : 979FBEEA (F289FCC2 w/correction)
AccurateRip v2 signature : 02B13248 (B4DB56C0 w/correction)
->Accurately ripped with different offset (v1+v2, confidence 12+9/25, offset +674)
Statistics
Read error : 0
Jitter error (maybe fixed) : 0
Retry sector count : 0
Damaged sector count : 0

Track 06
Filename : /Volumes/Hollywood and Vine/Rips/Bill Monroe - The Best of Bill Monroe (1999) [FLAC]/06 I'm Working on a Building.flac
Pre-gap length : 00:01:43

Track gain : -3.04 dB
Peak : 0.740723
CRC32 hash (test run) : B004ECB6
CRC32 hash : B004ECB6
CRC32 hash (skip zero) : 21C9A3E2
AccurateRip v1 signature : 8D2EF650 (5ED9FF3E w/correction)
AccurateRip v2 signature : 913612D7 (D0927D3E w/correction)
->Accurately ripped with different offset (v1+v2, confidence 12+9/25, offset +674)
Statistics
Read error : 0
Jitter error (maybe fixed) : 0
Retry sector count : 0
Damaged sector count : 0

Track 07
Filename : /Volumes/Hollywood and Vine/Rips/Bill Monroe - The Best of Bill Monroe (1999) [FLAC]/07 Gotta Travel On.flac
Pre-gap length : 00:02:17

Track gain : -3.12 dB
Peak : 0.629028
CRC32 hash (test run) : 9772AD0C
CRC32 hash : 9772AD0C
CRC32 hash (skip zero) : C09531B7
AccurateRip v1 signature : 55405F74 (2180DF46 w/correction)
AccurateRip v2 signature : 446AE513 (8470D10E w/correction)
->Accurately ripped with different offset (v1+v2, confidence 12+9/25, offset +674)
Statistics
Read error : 0
Jitter error (maybe fixed) : 0
Retry sector count : 0
Damaged sector count : 0

Track 08
Filename : /Volumes/Hollywood and Vine/Rips/Bill Monroe - The Best of Bill Monroe (1999) [FLAC]/08 Scotland.flac
Pre-gap length : 00:01:43

Track gain : -2.61 dB
Peak : 0.568207
CRC32 hash (test run) : 81CB81A3
CRC32 hash : 81CB81A3
CRC32 hash (skip zero) : C7B31A6D
AccurateRip v1 signature : 942FE398 (072CC9CC w/correction)
AccurateRip v2 signature : 9CC7E8FE (AAA623AF w/correction)
->Accurately ripped with different offset (v1+v2, confidence 12+9/25, offset +674)
Statistics
Read error : 0
Jitter error (maybe fixed) : 0
Retry sector count : 0
Damaged sector count : 0

Track 09
Filename : /Volumes/Hollywood and Vine/Rips/Bill Monroe - The Best of Bill Monroe (1999) [FLAC]/09 Molly & Tenbrooks.flac
Pre-gap length : 00:01:43

Track gain : -2.31 dB
Peak : 0.572021
CRC32 hash (test run) : 894F00BA
CRC32 hash : 894F00BA
CRC32 hash (skip zero) : E2A65C5F
AccurateRip v1 signature : 044A7ABA (677D3048 w/correction)
AccurateRip v2 signature : 2512957C (08DE3658 w/correction)
->Accurately ripped with different offset (v1+v2, confidence 12+9/25, offset +674)
Statistics
Read error : 0
Jitter error (maybe fixed) : 0
Retry sector count : 0
Damaged sector count : 0

Track 10
Filename : /Volumes/Hollywood and Vine/Rips/Bill Monroe - The Best of Bill Monroe (1999) [FLAC]/10 I'm Sitting on Top of the World.flac
Pre-gap length : 00:01:42

Track gain : -2.27 dB
Peak : 0.584625
CRC32 hash (test run) : 5E590F63
CRC32 hash : 5E590F63
CRC32 hash (skip zero) : EB1A40FB
AccurateRip v1 signature : D2F5BF6B (E963DCDB w/correction)
AccurateRip v2 signature : AD8EE2B9 (47ABB9BC w/correction)
->Accurately ripped with different offset (v1+v2, confidence 12+8/24, offset +674)
Statistics
Read error : 0
Jitter error (maybe fixed) : 0
Retry sector count : 0
Damaged sector count : 0

Track 11
Filename : /Volumes/Hollywood and Vine/Rips/Bill Monroe - The Best of Bill Monroe (1999) [FLAC]/11 I Saw the Light.flac
Pre-gap length : 00:01:43

Track gain : -1.28 dB
Peak : 0.790771
CRC32 hash (test run) : C07F1325
CRC32 hash : C07F1325
CRC32 hash (skip zero) : CAE631C4
AccurateRip v1 signature : 15CAA9A9 (9DD1F60B w/correction)
AccurateRip v2 signature : 27131D64 (289C325B w/correction)
->Accurately ripped with different offset (v1+v2, confidence 12+9/25, offset +674)
Statistics
Read error : 0
Jitter error (maybe fixed) : 0
Retry sector count : 0
Damaged sector count : 0

Track 12
Filename : /Volumes/Hollywood and Vine/Rips/Bill Monroe - The Best of Bill Monroe (1999) [FLAC]/12 My Sweet Blue-Eyed Darlin'.flac
Pre-gap length : 00:01:43

Track gain : -2.47 dB
Peak : 0.970856
CRC32 hash (test run) : 32C7771E
CRC32 hash : 32C7771E
CRC32 hash (skip zero) : 0D9FA332
AccurateRip v1 signature : 54F39698 (995A5EB4 w/correction)
AccurateRip v2 signature : 5D3D93E0 (09E64956 w/correction)
->Accurately ripped with different offset (v1+v2, confidence 12+9/25, offset +674)
Statistics
Read error : 0
Jitter error (maybe fixed) : 0
Retry sector count : 0
Damaged sector count : 0

No errors occurred

End of status report

––-BEGIN XLD SIGNATURE––-
cTeSDo._L9qdjM_VF3gvzDkec9oognTydb5LWDxkX.aeUp5UD4PjdwoWetF4GCzW8JZAZL00vjfIT0gDkc7nmTRdKza_BTBXQu0_ZZK
––-END XLD SIGNATURE––-

Thanks to the Original ripper !