Subcategories
Tags
Language
Tags

black midi - Schlagenheim (2019)

Posted By: delpotro
black midi - Schlagenheim (2019)

black midi - Schlagenheim (2019)
EAC Rip | FLAC (tracks+log+.cue) - 295 Mb | MP3 CBR 320 kbps - 99 Mb | 00:43:14
Math Rock, Art Rock, Experimental | Label: Rough trade Records

The album produced by Dan Carey is scratchy, intense and discordant. Roaring with riffs, locked in rhythm section and a truly unique vocal make black midi stand head and shoulders above all in 2019. Think Radiohead split into atoms and then fused back together with spirit of Battles and 90's era Touch and Go Records. black midi - Georgie Greep (vocals / guitar), Matt Kwasniewski-Kelvin (vocals / guitar), Cameron Picton (vocals / bass), and Morgan Simpson (drums) - have a dynamic energy, playing as a musical unit that’s constantly in a state of flux and development. Schlagenheim was recorded with Speedy Wunderground producer Dan Carey, who the band praises for his quick, unfussy approach. black midi laid down eight of the record’s nine tracks in just five days. The process was one of refining and rebuilding tracks around the initial structures. Five hour jams would sometimes yield a riff that then became a few bars of a song. As anyone who’s been lucky enough to catch black midi live over recent months will testify, black midi’s songs are slippery creatures.
Tracklist:
1. 953 (05:20)
2. Speedway (03:17)
3. Reggae (03:29)
4. Near DT, MI (02:20)
5. Western (08:08)
6. Of Schlagenheim (06:24)
7. Bmbmbm (04:56)
8. Years Ago (02:34)
9. Ducter (06:42)

Exact Audio Copy V1.3 from 2. September 2016

EAC extraction logfile from 24. June 2019, 19:25

black midi / Schlagenheim

Used drive : ASUS DRW-24B1ST a Adapter: 1 ID: 0

Read mode : Secure
Utilize accurate stream : Yes
Defeat audio cache : Yes
Make use of C2 pointers : No

Read offset correction : 6
Overread into Lead-In and Lead-Out : No
Fill up missing offset samples with silence : Yes
Delete leading and trailing silent blocks : No
Null samples used in CRC calculations : Yes
Used interface : Native Win32 interface for Win NT & 2000
Gap handling : Appended to previous track

Used output format : User Defined Encoder
Selected bitrate : 1024 kBit/s
Quality : High
Add ID3 tag : No
Command line compressor : C:\Program Files\flac-1.3.2\flac.exe
Additional command line options : -8 -e -p -V -T "ARTIST=%artist%" -T "TITLE=%title%" -T "ALBUM=%albumtitle%" -T "DATE=%year%" -T "TRACKNUMBER=%tracknr%" -T "GENRE=%genre%" -T "PERFORMER=%albuminterpret%" -T "COMPOSER=%composer%" %haslyrics%–tag-from-file=LYRICS="%lyricsfile%"%haslyrics% -T "ALBUMARTIST=%albumartist%" -T "DISCNUMBER=%cdnumber%" -T "TOTALDISCS=%totalcds%" -T "TOTALTRACKS=%numtracks%" -T "COMMENT=%comment%" %source% -o %dest%


TOC of the extracted CD

Track | Start | Length | Start sector | End sector
––––––––––––––––––––––––––––-
1 | 0:00.00 | 5:20.50 | 0 | 24049
2 | 5:20.50 | 3:17.54 | 24050 | 38878
3 | 8:38.29 | 3:29.29 | 38879 | 54582
4 | 12:07.58 | 2:20.35 | 54583 | 65117
5 | 14:28.18 | 8:08.12 | 65118 | 101729
6 | 22:36.30 | 6:24.60 | 101730 | 130589
7 | 29:01.15 | 4:56.56 | 130590 | 152845
8 | 33:57.71 | 2:34.66 | 152846 | 164461
9 | 36:32.62 | 6:42.07 | 164462 | 194618


Track 1

Filename Z:\media\rips\black midi - Schlagenheim (2019) CD\01 - 953.wav

Pre-gap length 0:00:02.00

Peak level 100.0 %
Extraction speed 3.0 X
Track quality 99.9 %
Test CRC 0EEADC02
Copy CRC 0EEADC02
Track not present in AccurateRip database
Copy OK

Track 2

Filename Z:\media\rips\black midi - Schlagenheim (2019) CD\02 - Speedway.wav

Pre-gap length 0:00:00.02

Peak level 100.0 %
Extraction speed 3.7 X
Track quality 100.0 %
Test CRC 9C51D5CB
Copy CRC 9C51D5CB
Track not present in AccurateRip database
Copy OK

Track 3

Filename Z:\media\rips\black midi - Schlagenheim (2019) CD\03 - Reggae.wav

Peak level 100.0 %
Extraction speed 4.0 X
Track quality 100.0 %
Test CRC 2ED0AECE
Copy CRC 2ED0AECE
Track not present in AccurateRip database
Copy OK

Track 4

Filename Z:\media\rips\black midi - Schlagenheim (2019) CD\04 - Near DT, MI.wav

Peak level 100.0 %
Extraction speed 3.9 X
Track quality 100.0 %
Test CRC 63A345AB
Copy CRC 63A345AB
Track not present in AccurateRip database
Copy OK

Track 5

Filename Z:\media\rips\black midi - Schlagenheim (2019) CD\05 - Western.wav

Pre-gap length 0:00:00.94

Peak level 100.0 %
Extraction speed 5.0 X
Track quality 100.0 %
Test CRC DD46E476
Copy CRC DD46E476
Track not present in AccurateRip database
Copy OK

Track 6

Filename Z:\media\rips\black midi - Schlagenheim (2019) CD\06 - Of Schlagenheim.wav

Peak level 100.0 %
Extraction speed 4.6 X
Track quality 99.9 %
Test CRC 3F64F91C
Copy CRC 3F64F91C
Track not present in AccurateRip database
Copy OK

Track 7

Filename Z:\media\rips\black midi - Schlagenheim (2019) CD\07 - bmbmbm.wav

Peak level 100.0 %
Extraction speed 5.5 X
Track quality 100.0 %
Test CRC 9D10ED10
Copy CRC 9D10ED10
Track not present in AccurateRip database
Copy OK

Track 8

Filename Z:\media\rips\black midi - Schlagenheim (2019) CD\08 - Years Ago.wav

Peak level 100.0 %
Extraction speed 5.2 X
Track quality 100.0 %
Test CRC 51E6B17A
Copy CRC 51E6B17A
Track not present in AccurateRip database
Copy OK

Track 9

Filename Z:\media\rips\black midi - Schlagenheim (2019) CD\09 - Ducter.wav

Peak level 100.0 %
Extraction speed 6.1 X
Track quality 100.0 %
Test CRC 812C34A3
Copy CRC 812C34A3
Track not present in AccurateRip database
Copy OK


None of the tracks are present in the AccurateRip database

No errors occurred

End of status report

–– CUETools DB Plugin V2.1.6

[CTDB TOCID: NvKFoCNlhApacslbZER8g9WsD14-] found
Submit result: NvKFoCNlhApacslbZER8g9WsD14- has been confirmed
Track | CTDB Status
1 | (2/2) Accurately ripped
2 | (2/2) Accurately ripped
3 | (2/2) Accurately ripped
4 | (2/2) Accurately ripped
5 | (2/2) Accurately ripped
6 | (2/2) Accurately ripped
7 | (2/2) Accurately ripped
8 | (2/2) Accurately ripped
9 | (2/2) Accurately ripped


==== Log checksum 1107A9F6DCAB2B9798DCF16E8F9AE9F57D0571B33513D594F3A609FC05DC8755 ====

Thanks to the Original ripper !