Subcategories

Bliss - No One Built This Moment

Posted By: FLESH
Bliss - No One Built This Moment

Bliss - No One Built This Moment
Electronic, Chillout, Downtempo
FLAC+cue+log | 312.6 Mb | MP3, 192 Kbps | 76.0 Mb | Covers
Label: Music For Dreams | Catalog#: ZZZCD 0044 | Released: 10.05.2009

Tracklisting:
01. People Among Us
02. Calling (feat. Sophie Barker)
03. Trust In Your Love (feat. Ane Brun)
04. Overture (feat. Sophie Barker & Merethe Sveistrup)
05. So Still (feat. Sophie Barker)
06. American Heart (feat. Boy George & Alexandra Hamnede)
07. Mivahetsek (feat. Lisbeth Scott)
08. Bascar Azad (feat. Lisbeth Scott)
09. Stop Me (feat. Sophie Barker)
10. Light To Your Life (feat. Sophie Barker)
11. The Hope (feat. Sophie Barker & Lisbeth Scott & Merethe Sveistrup)

Exact Audio Copy V0.99 prebeta 4 from 23. January 2008

EAC extraction logfile from 9. June 2009, 21:29

Bliss / No One Built This Moment

Used drive : PIONEER DVD-RW DVR-112D Adapter: 1 ID: 0

Read mode : Secure
Utilize accurate stream : Yes
Defeat audio cache : Yes
Make use of C2 pointers : No

Read offset correction : 48
Overread into Lead-In and Lead-Out : No
Fill up missing offset samples with silence : Yes
Delete leading and trailing silent blocks : No
Null samples used in CRC calculations : Yes
Used interface : Installed external ASPI interface

Used output format : User Defined Encoder
Selected bitrate : 192 kBit/s
Quality : Low
Add ID3 tag : Yes
Command line compressor : C:\Program Files\E A C Audio\Flac\flac.exe
Additional command line options : -V -8 -T "artist=%a" -T "title=%t" -T "album=%g" -T "date=%y" -T "tracknumber=%n" -T "genre=%m" %s


TOC of the extracted CD

Track | Start | Length | Start sector | End sector
––––––––––––––––––––––––––––-
1 | 0:00.00 | 4:07.58 | 0 | 18582
2 | 4:07.58 | 6:12.13 | 18583 | 46495
3 | 10:19.71 | 5:29.48 | 46496 | 71218
4 | 15:49.44 | 3:57.36 | 71219 | 89029
5 | 19:47.05 | 4:24.30 | 89030 | 108859
6 | 24:11.35 | 6:35.74 | 108860 | 138558
7 | 30:47.34 | 5:00.09 | 138559 | 161067
8 | 35:47.43 | 5:19.54 | 161068 | 185046
9 | 41:07.22 | 5:33.65 | 185047 | 210086
10 | 46:41.12 | 5:25.29 | 210087 | 234490
11 | 52:06.41 | 4:11.34 | 234491 | 253349


Range status and errors

Selected range

Filename G:\Bliss - No One Built This Moment\Bliss - No One Built This Moment.wav

Peak level 100.0 %
Range quality 99.9 %
Test CRC C8A9348D
Copy CRC C8A9348D
Copy OK

No errors occurred


AccurateRip summary

Track 1 not present in database
Track 2 not present in database
Track 3 not present in database
Track 4 not present in database
Track 5 not present in database
Track 6 not present in database
Track 7 not present in database
Track 8 not present in database
Track 9 not present in database
Track 10 not present in database
Track 11 not present in database

None of the tracks are present in the AccurateRip database

End of status report