Subcategories

Blitz - Voice of a Generation (1989)

Posted By: Toxxy
Blitz - Voice of a Generation (1989)


Blitz - Voice of a Generation
Year: 1989 No Future Records/Cherry Red Records | CD#: CD PUNK 1 | File-host: RS.com
FLAC-image + Mp3 @320 CBR | Complete Artwork (600dpi) | WinRAR Recovery 5%
Punk | CD-length 46:46 | 298 MB (FLAC) | 108 MB (Mp3)

EAC Secure-rip + LOG + CUE | Source: my CD-collection

Blitz was a street punk band from New Mills, Derbyshire, England. They had success in the United Kingdom indie charts in the early 1980s. This album/comp. is one of THE classics of the genre, a "must-have"!


Comprised of both punk and skinhead members, they were enthusiastically championed by Sounds magazine writer Garry Bushell. Although considered an important Oi! band, the band members simply described themselves as a punk band. Their song "Someone's Gonna Die" was covered by Rancid on the Radio Radio Radio EP. Another Blitz song, "Warriors", was covered by The Distillers and Judge. The band Oxymoron has also covered the Blitz song "New Age". Decades after the original Blitz lineup split, guitarist/songwriter Alan "Nidge" Miller recruited new members and performed concerts under the band's name.


Info on Oi!

Interview with Nidge

Blitz at Wiki

Blitz at MySpace


Short fact: Feb 11, 2007; Nidge died last night. He was drunk after a show and tried to cross a major highway in Texas. He was hit by a truck. Death was instantaneous. [R.I.P.] More info here: Buxton Advertiser


Track List:

1. We Are The Boys
2. Time Bomb
3. Voice Of A Generation
4. Bleed
5. I Don't Need You
6. T.O.?
7. Propaganda
8. Criminal Damage
9. Vicious
10. Warriors
11. Nation
12. Your Revolution
13. Scream
14. 4.Q.
15. Escape
16. Moscow
17. Closedown
18. Someone's Gonna Die
19. Attack
20. Fight To Live
21. 45 Revolutions
22. Never Surrender



FLAC-image:
Part 1
Part 2
Part 3
Part 4

Mp3 @320 CBR:
Part 1
Part 2

Complete scanned artwork (600dpi):
Download

No Password

5% WinRar Recovery Record for ALL files.

Enjoy the tunes ;-)


NO mirror linx please!


Exact Audio Copy V0.99 prebeta 4 from 23. January 2008

EAC extraction logfile from 23. April 2009, 18:17

Blitz / Voice Of A Generation

Used drive : TSSTcorpCDDVDW SH-S202N Adapter: 0 ID: 0

Read mode : Secure
Utilize accurate stream : Yes
Defeat audio cache : Yes
Make use of C2 pointers : No

Read offset correction : 6
Overread into Lead-In and Lead-Out : No
Fill up missing offset samples with silence : Yes
Delete leading and trailing silent blocks : No
Null samples used in CRC calculations : No
Used interface : Installed external ASPI interface

Used output format : User Defined Encoder
Selected bitrate : 320 kBit/s
Quality : High
Add ID3 tag : No
Command line compressor : C:\Programmer\Exact Audio Copy\Flac\flac.exe
Additional command line options : -V -8 -T "artist=%a" -T "title=%t" -T "album=%g" -T "date=%y" -T "tracknumber=%n" -T "genre=%m" %s


TOC of the extracted CD

Track | Start | Length | Start sector | End sector
––––––––––––––––––––––––––––-
1 | 0:00.32 | 2:28.50 | 32 | 11181
2 | 2:29.07 | 2:06.13 | 11182 | 20644
3 | 4:35.20 | 2:17.65 | 20645 | 30984
4 | 6:53.10 | 1:57.32 | 30985 | 39791
5 | 8:50.42 | 1:34.03 | 39792 | 46844
6 | 10:24.45 | 2:11.27 | 46845 | 56696
7 | 12:35.72 | 2:36.73 | 56697 | 68469
8 | 15:12.70 | 1:14.50 | 68470 | 74069
9 | 16:27.45 | 2:26.45 | 74070 | 85064
10 | 18:54.15 | 3:00.25 | 85065 | 98589
11 | 21:54.40 | 2:38.07 | 98590 | 110446
12 | 24:32.47 | 2:22.70 | 110447 | 121166
13 | 26:55.42 | 2:16.28 | 121167 | 131394
14 | 29:11.70 | 1:31.62 | 131395 | 138281
15 | 30:43.57 | 1:52.05 | 138282 | 146686
16 | 32:35.62 | 1:35.25 | 146687 | 153836
17 | 34:11.12 | 2:59.63 | 153837 | 167324
18 | 37:11.00 | 2:33.20 | 167325 | 178819
19 | 39:44.20 | 1:42.32 | 178820 | 186501
20 | 41:26.52 | 2:03.65 | 186502 | 195791
21 | 43:30.42 | 1:43.13 | 195792 | 203529
22 | 45:13.55 | 1:32.20 | 203530 | 210449


Range status and errors

Selected range

Filename D:\Blitz - Voice Of A Generation.wav

Peak level 92.9 %
Range quality 100.0 %
Test CRC 90AFA01D
Copy CRC 90AFA01D
Copy OK

No errors occurred


AccurateRip summary

Track 1 cannot be verified as accurate (confidence 2) [C88E032F], AccurateRip returned [F7096F83]
Track 2 cannot be verified as accurate (confidence 2) [A6948D65], AccurateRip returned [174D62CE]
Track 3 cannot be verified as accurate (confidence 2) [8DFBBBE5], AccurateRip returned [0F08CDBB]
Track 4 cannot be verified as accurate (confidence 2) [6C5E3BEE], AccurateRip returned [881BE605]
Track 5 cannot be verified as accurate (confidence 2) [2DAC7396], AccurateRip returned [3029E5D8]
Track 6 cannot be verified as accurate (confidence 2) [6601DAAD], AccurateRip returned [37F21C46]
Track 7 cannot be verified as accurate (confidence 2) [1EBC9A2B], AccurateRip returned [B5C2ED3D]
Track 8 cannot be verified as accurate (confidence 2) [9609C7A8], AccurateRip returned [38A37EE1]
Track 9 cannot be verified as accurate (confidence 2) [FECFA9DD], AccurateRip returned [E342331B]
Track 10 cannot be verified as accurate (confidence 2) [2EFEE496], AccurateRip returned [DF4E22D8]
Track 11 cannot be verified as accurate (confidence 2) [71EF69B4], AccurateRip returned [BA112D48]
Track 12 cannot be verified as accurate (confidence 2) [3BF59268], AccurateRip returned [2F8A363E]
Track 13 cannot be verified as accurate (confidence 2) [00626A24], AccurateRip returned [6585A66C]
Track 14 cannot be verified as accurate (confidence 2) [29DFC6A4], AccurateRip returned [C5F1348E]
Track 15 cannot be verified as accurate (confidence 2) [45532BE9], AccurateRip returned [0AC953A3]
Track 16 cannot be verified as accurate (confidence 2) [F641C1D9], AccurateRip returned [05E45D89]
Track 17 cannot be verified as accurate (confidence 2) [7EE69667], AccurateRip returned [9E30452B]
Track 18 cannot be verified as accurate (confidence 2) [54962625], AccurateRip returned [D9914283]
Track 19 cannot be verified as accurate (confidence 2) [AA1E0E02], AccurateRip returned [08FAABAE]
Track 20 cannot be verified as accurate (confidence 2) [E9BBEF85], AccurateRip returned [9A2CA1B5]
Track 21 cannot be verified as accurate (confidence 2) [0A3A5C79], AccurateRip returned [36CC1B24]
Track 22 cannot be verified as accurate (confidence 2) [CB7B196E], AccurateRip returned [21756BFA]

No tracks could be verified as accurate
You may have a different pressing from the one(s) in the database

End of status report


Future posts from me includes:

The Business - The Complete Singles Collection
The Bottom Feeders - Big Six
Sloppy Seconds - More Trouble Than They're Worth
Sloppy Seconds - Live: No Time for Tuning
Sloppy Seconds - Garbage Days Regurgitated (CD-EP)
Huntingtons - Plastic Surgery
Huntingtons & Darlington - Split CD
Backstreet Girls - Party On Elm Street
Backstreet Girls - Coming Down Hard
Backstreet Girls - Let's Have It
Backstreet Girls - Live - Get Yer Yo-Yo's Out!
Backstreet Girls - Hellway To High
Backstreet Girls - Christmas Crusher

All the above CD's will be available in both lossless and and lossy.