Subcategories

Bob Seger & The Silver Bullet Band - Against the Wind (1980)

Posted By: mr. magoo
Bob Seger & The Silver Bullet Band - Against the Wind (1980)

Bob Seger & The Silver Bullet Band - Against the Wind (1980)
EAC AccurateRip | FLAC + Log + Cue | Scans | 252 MB | HF + RS | 5% recovery
Label: Capitol CDP 7 46060 2| Genre: Rock


Though there are still some traces of the confessionals that underpinned Beautiful Loser through Stranger in Town, finds Bob Seger turning toward craft. Perhaps he had to, since arrived after three blockbuster albums and never-ending tours. Even so, this record winds up not feeling as immediate or soulful as its predecessors, especially since it begins with a tossed-off rocker called "The Horizontal Bop," possibly his most careless tune since "Noah." It's fun, but once it's done, the record really starts to kick into high gear with "You'll Accomp'ny Me," a ballad the equal of anything on its two predecessors. Throughout , Seger winds up performing better on the ballads than the rockers, which, while good, tend to sound a little formulaic. Still, Seger's formula is good and if "Her Strut" and "Betty Lou's Gettin' out Tonight" would have been second stringers on Stranger in Town, they offer a nice balance here, and the rest of the record alternates between similarly well-constructed rockers and introspective ballads like "Against the Wind" and "Fire Lake." Compared to its predecessors, this does feel a little weak, but compared with its peers, it's a strong, varied heartland rock album that finds Seger at a near peak.

Tracks:
01 - The Horizontal Bop
02 - You'll Accompany Me
03 - Her Strut
04 - No Man's Land
05 - Long Twin Silver Line
06 - Against The Wind
07 - Good For Me
08 - Betty Lou's Gettin' Out Tonight
09 - Fire Lake
10 - Shinin' Brightly

Exact Audio Copy V0.99 prebeta 4 from 23. January 2008

EAC extraction logfile from 26. August 2009, 12:18

Bob Seger / Against the Wind

Used drive : SONY DVD RW DRU-840A Adapter: 1 ID: 1

Read mode : Secure
Utilize accurate stream : Yes
Defeat audio cache : No
Make use of C2 pointers : No

Read offset correction : 6
Overread into Lead-In and Lead-Out : No
Fill up missing offset samples with silence : Yes
Delete leading and trailing silent blocks : No
Null samples used in CRC calculations : Yes
Used interface : Native Win32 interface for Win NT & 2000
Gap handling : Appended to previous track

Used output format : User Defined Encoder
Selected bitrate : 1024 kBit/s
Quality : High
Add ID3 tag : No
Command line compressor : C:\Program Files\Exact Audio Copy\Flac\flac.exe
Additional command line options : -8 -V -T "artist=%a" -T "title=%t" -T "album=%g" -T "date=%y" -T "tracknumber=%n" -T "genre=%m" %s


TOC of the extracted CD

Track | Start | Length | Start sector | End sector
––––––––––––––––––––––––––––-
1 | 0:00.00 | 4:03.55 | 0 | 18279
2 | 4:03.55 | 3:59.32 | 18280 | 36236
3 | 8:03.12 | 3:53.15 | 36237 | 53726
4 | 11:56.27 | 3:43.05 | 53727 | 70456
5 | 15:39.32 | 4:15.55 | 70457 | 89636
6 | 19:55.12 | 5:33.48 | 89637 | 114659
7 | 25:28.60 | 4:03.25 | 114660 | 132909
8 | 29:32.10 | 2:52.02 | 132910 | 145811
9 | 32:24.12 | 3:32.53 | 145812 | 161764
10 | 35:56.65 | 4:24.17 | 161765 | 181581


Track 1

Filename F:\EAC Rips\Bob Seger & The Silver Bullet Band - 1980 - Against the Wind (FLAC)\01 - The Horizontal Bop.wav

Pre-gap length 0:00:02.00

Peak level 83.1 %
Track quality 99.9 %
Test CRC 234C735B
Copy CRC 234C735B
Accurately ripped (confidence 7) [BE12148A]
Copy OK

Track 2

Filename F:\EAC Rips\Bob Seger & The Silver Bullet Band - 1980 - Against the Wind (FLAC)\02 - You'll Accompany Me.wav

Pre-gap length 0:00:01.04

Peak level 89.1 %
Track quality 99.9 %
Test CRC 3B3F6569
Copy CRC 3B3F6569
Accurately ripped (confidence 7) [CF2F6937]
Copy OK

Track 3

Filename F:\EAC Rips\Bob Seger & The Silver Bullet Band - 1980 - Against the Wind (FLAC)\03 - Her Strut.wav

Pre-gap length 0:00:00.96

Peak level 81.4 %
Track quality 100.0 %
Test CRC AA93644C
Copy CRC AA93644C
Accurately ripped (confidence 7) [6D9FBFB1]
Copy OK

Track 4

Filename F:\EAC Rips\Bob Seger & The Silver Bullet Band - 1980 - Against the Wind (FLAC)\04 - No Man's Land.wav

Pre-gap length 0:00:02.62

Peak level 72.6 %
Track quality 100.0 %
Test CRC EDACED3A
Copy CRC EDACED3A
Accurately ripped (confidence 7) [E4459D0D]
Copy OK

Track 5

Filename F:\EAC Rips\Bob Seger & The Silver Bullet Band - 1980 - Against the Wind (FLAC)\05 - Long Twin Silver Line.wav

Pre-gap length 0:00:01.73

Peak level 93.7 %
Track quality 100.0 %
Test CRC 9243B32D
Copy CRC 9243B32D
Accurately ripped (confidence 7) [35073C71]
Copy OK

Track 6

Filename F:\EAC Rips\Bob Seger & The Silver Bullet Band - 1980 - Against the Wind (FLAC)\06 - Against The Wind.wav

Pre-gap length 0:00:00.76

Peak level 68.4 %
Track quality 100.0 %
Test CRC 63D68ED2
Copy CRC 63D68ED2
Accurately ripped (confidence 7) [E1266358]
Copy OK

Track 7

Filename F:\EAC Rips\Bob Seger & The Silver Bullet Band - 1980 - Against the Wind (FLAC)\07 - Good For Me.wav

Pre-gap length 0:00:02.57

Peak level 72.7 %
Track quality 100.0 %
Test CRC ECD2A281
Copy CRC ECD2A281
Accurately ripped (confidence 7) [6107AC7D]
Copy OK

Track 8

Filename F:\EAC Rips\Bob Seger & The Silver Bullet Band - 1980 - Against the Wind (FLAC)\08 - Betty Lou's Gettin' Out Tonight.wav

Pre-gap length 0:00:01.50

Peak level 71.5 %
Track quality 99.9 %
Test CRC A8C950DC
Copy CRC A8C950DC
Accurately ripped (confidence 7) [967E1EF8]
Copy OK

Track 9

Filename F:\EAC Rips\Bob Seger & The Silver Bullet Band - 1980 - Against the Wind (FLAC)\09 - Fire Lake.wav

Pre-gap length 0:00:00.69

Peak level 75.0 %
Track quality 100.0 %
Test CRC 43828763
Copy CRC 43828763
Accurately ripped (confidence 7) [BC26CA04]
Copy OK

Track 10

Filename F:\EAC Rips\Bob Seger & The Silver Bullet Band - 1980 - Against the Wind (FLAC)\10 - Shinin' Brightly.wav

Pre-gap length 0:00:01.57

Peak level 70.7 %
Track quality 100.0 %
Test CRC 7A7ABB43
Copy CRC 7A7ABB43
Accurately ripped (confidence 7) [6FB4F496]
Copy OK


All tracks accurately ripped

No errors occurred

End of status report


Hotfile Links



Rapid Share Links



Links Are Interchangeable


Password: mr. magoo